#TITLE:AIR RAID FROM THA UNDAGROUND;
#ARTIST:GUHROOVY;
#BANNER:AIR RAID FROM THA UNDAGROUND-bn.png;
#BACKGROUND:AIR RAID FROM THA UNDAGROUND-bg.png;
#JACKET:AIR RAID FROM THA UNDAGROUND-jacket.png;
#MUSIC:AIR RAID FROM THA UNDAGROUND.ogg;
#SAMPLESTART:19.999;
#SAMPLELENGTH:20;
#BPMS:0=180;
#BGCHANGES:;

//---------------dance-single - ----------------
#NOTES:
     dance-single:
     :
     Beginner:
     4:
     :
0000
0000
0000
0000
,
0000
0000
0000
0000
,
0000
0000
0000
0000
,
0000
0000
0000
0000
,
1000
1000
0000
0000
,
0000
0000
0000
0000
,
0001
0001
0000
0000
,
0000
0000
0000
0000
,
1001
0000
0000
0000
,
0010
0000
0000
0000
,
1000
0000
0000
0000
,
0100
0000
0000
0000
,
0010
0000
0000
0000
,
0001
0000
0000
0000
,
0100
0000
0000
0000
,
0001
0001
0001
0001
,
0001
0000
1000
0000
,
0010
0000
1000
0000
,
0100
0000
0010
0000
,
0001
0000
0100
0000
,
0001
0000
0010
0000
,
0001
0000
1000
0000
,
0110
0000
0110
0000
,
0001
0001
0001
0000
,
1001
0000
1000
0000
,
0100
0000
0010
0000
,
0100
0000
1000
0000
,
0010
0000
0100
0000
,
0001
0000
0010
0000
,
0001
0000
1000
0000
,
0010
0010
0010
0010
,
0010
0010
0010
0010
,
0010
0000
1000
0000
,
0100
0000
1000
0000
,
0001
0000
0010
0000
,
0001
0000
0100
0000
,
0001
0000
0010
0000
,
0100
0000
1000
0000
,
0010
0000
0100
0000
,
0110
0000
0000
0000
,
1001
0000
0000
0000
,
0001
0000
1000
0000
,
0001
0000
0000
0000
,
0010
0000
0100
0000
,
0010
0000
0000
0000
,
0001
0000
0100
0000
,
0001
0000
0000
0000
,
1000
0000
0100
0000
,
1000
0000
1000
0000
,
0001
0000
0001
0000
,
0100
0000
0100
0000
,
0010
0000
0010
0000
,
1000
0000
0100
0000
,
0010
0000
0001
0000
,
0100
0000
0010
0000
,
1000
0000
0001
0000
,
0010
0000
0001
0000
,
0200
0000
0300
0000
,
0010
0000
1000
0000
,
0002
0000
0003
0000
,
1000
0000
0100
0000
,
0020
0000
0030
0000
,
0001
0000
0100
0000
,
2000
0000
3000
0000
,
1001
0000
0000
0000
,
0000
0000
0000
0000
,
0110
0000
0000
0000
,
0000
0000
0000
0000
,
1001
0000
0000
0000
,
0000
0000
0000
0000
,
0110
0000
0000
0000
,
0000
1000
1000
1000
,
1000
0000
0001
0000
,
0010
0000
0001
0000
,
0100
0000
0010
0000
,
1000
0000
1001
0000
,
0010
0000
1000
0000
,
0100
0000
0010
0000
,
0001
0000
0100
0000
,
0110
0000
0100
0100
,
0100
0000
0010
0000
,
1000
0000
0001
0000
,
0010
0000
0001
0000
,
0100
0000
0110
0000
,
0010
0000
1000
0000
,
0100
0000
0010
0000
,
0001
0000
0100
0000
,
0001
0000
0000
0000
,
1001
0000
0000
0000
;

//---------------dance-single - ----------------
#NOTES:
     dance-single:
     :
     Easy:
     7:
     :
0000
0000
0000
0000
,
0000
0000
0000
0000
,
0000
0000
0000
0000
,
0000
0000
0000
0000
,
2000
0002
0000
0000
,
0000
0000
0000
3003
,
0200
0020
0000
0000
,
0000
0000
0000
0330
,
2002
3003
0001
0100
,
0220
0330
0010
1000
,
2200
3300
0001
0010
,
0202
0303
1000
0100
,
0010
0010
0001
1000
,
0010
0010
1000
0001
,
0100
0100
0010
1000
,
0001
0001
1001
0110
,
1001
0010
1000
0001
,
0010
0001
0100
0010
,
1000
0100
1000
0001
,
0010
0100
0010
0001
,
0100
0010
1000
0100
,
1000
0001
0010
0001
,
0202
0303
2200
3300
,
0002
2003
3002
0003
,
0010
0010
0001
1000
,
0100
0010
0001
0100
,
0001
0010
1000
0100
,
0010
0100
0010
0001
,
0100
0010
1000
0001
,
0010
0100
1000
0010
,
2000
3002
0023
0230
,
1300
1000
1100
0101
,
0010
0010
1001
0110
,
1000
1000
1100
0101
,
0001
0001
0011
1010
,
0100
0100
0110
1001
,
0001
0001
0101
1100
,
0100
0100
1100
0011
,
0010
0010
0101
1010
,
2002
0000
0000
3003
,
0010
0000
0000
1000
0000
0000
0100
0000
,
1000
0000
0000
0001
0000
0000
0010
0000
,
0001
0000
0000
0100
0000
0000
0010
0000
,
1000
0000
0000
0001
0000
0000
1000
0000
,
0100
0000
0000
0010
0000
0000
0001
0000
,
0100
0000
0000
0001
0000
0000
1000
0000
,
0010
0000
0000
1000
0000
0000
0100
0000
,
1000
0000
0000
0010
0000
0000
0001
0000
,
0010
0001
0100
1001
,
0010
1000
0100
1100
,
1000
0001
0010
0011
,
0100
0010
1000
1010
,
0100
1000
0001
0101
,
0001
0010
0100
0110
,
1000
0010
0100
0001
,
0011
0100
1010
0100
,
2000
3002
0023
0130
,
2200
3300
0001
0001
,
0020
0032
2003
3010
,
0202
0000
0000
0303
,
2000
3002
0023
0130
,
0022
0033
1000
1000
,
0002
2003
3200
0310
,
0110
0001
2000
3000
,
1001
0000
1000
0000
,
0010
0000
0000
0000
0100
0000
0000
0001
,
1000
0000
0100
0000
,
0010
0000
0001
0101
,
0101
0000
0010
0000
,
1000
0000
0001
1100
,
1100
0000
0010
0000
,
0100
0001
1000
1000
,
1001
0010
1000
0100
,
0010
0001
1000
0010
,
1000
0100
0010
0001
,
0100
0010
0120
1030
,
1100
0001
1000
0010
,
1000
0100
0010
0001
,
0100
0001
0010
1000
,
2020
3030
0010
0100
,
0101
0010
0001
1000
,
0001
0010
1000
0001
,
0100
0010
1000
0100
,
1000
0001
0022
0033
,
0101
0001
0010
0100
,
1000
0010
1000
0001
,
0100
0010
1000
0100
,
1000
2200
0000
3300
,
1001
0000
0000
0000
;

//---------------dance-single - ----------------
#NOTES:
     dance-single:
     :
     Medium:
     12:
     :
0000
0000
0000
0000
,
0000
0000
0000
0000
,
0000
0000
0000
0000
,
0000
0000
0000
0000
,
1000
0100
0001
0020
0000
0000
0000
0000
,
0000
0000
0000
0030
,
0001
0100
1000
0020
0000
0000
0000
0000
,
0000
0000
0000
0030
,
1001
0010
1000
0001
,
0010
0001
0100
0010
,
1000
0001
1000
0100
,
0010
0001
0100
0010
,
0100
0000
0001
0000
1000
0100
1000
0000
,
0010
0000
1000
0000
0100
0010
0100
0000
,
1000
0000
0001
0000
0100
0010
0100
0010
,
1010
0101
0011
1100
,
0110
0000
0001
0100
0010
1000
0100
0010
,
0001
0000
0010
0001
1000
0010
1000
0100
,
0010
0000
0001
0100
0001
0010
0001
1000
,
0100
0000
1000
0010
0100
0010
1000
0001
,
0010
0000
0001
0100
0001
1000
0100
0010
,
0100
0000
1000
0010
1000
0001
0010
0100
,
1100
0001
0101
1000
,
1001
0110
2002
3003
,
0011
0000
0001
0100
0010
1000
0001
1000
,
0100
0000
0010
0100
1000
0010
1000
0001
,
0010
0000
0001
0100
0010
1000
0001
0010
,
0100
0000
1000
0010
1000
0100
0010
0001
,
0100
0000
0100
0010
1000
0001
0010
0100
,
1000
0000
0010
1000
0100
0010
0001
0100
,
0002
0203
0302
1003
,
1100
0011
0101
1010
,
0010
0000
1000
0100
0000
0000
1000
0000
0001
0100
0000
0000
,
0010
0000
0100
0001
0000
0000
1001
0000
0000
0110
0000
0000
,
0010
0000
1000
0001
0000
0000
0010
0000
0100
1000
0000
0000
,
0001
0000
0100
0010
0000
0000
1010
0000
0000
0011
0000
0000
,
0001
0000
0100
0010
0000
0100
0001
0000
1000
0100
0000
0000
,
1000
0000
0001
1000
0000
0010
1000
0000
0001
0100
0000
0000
,
0001
0000
0001
0010
0000
0010
0100
0000
0100
1000
0000
1000
,
0001
0200
0320
0230
,
0301
1000
0000
0010
0000
1000
0001
0000
,
0010
0100
0000
1100
0000
0000
0011
0000
,
0001
0100
0000
0010
0000
0100
0001
0000
,
1000
0001
0000
0100
0000
0001
1000
0000
,
0100
1000
0000
0010
1000
0000
0100
0000
,
1000
0001
0000
0101
0000
0000
1010
0000
,
0010
0100
0000
0001
0000
1000
0100
0000
,
1000
0001
0000
0010
0000
0001
0100
0000
,
0010
0001
1000
0001
0000
0100
0010
0000
,
1000
0100
1000
0010
0000
0100
0001
0000
,
0010
0100
1000
0010
0000
1000
0001
0000
,
0100
0010
0100
0001
0000
1000
0010
0000
,
1000
0001
0000
0110
0000
0100
0010
0000
,
0100
0001
0000
0011
0000
1000
0010
0000
,
1000
0010
0000
1001
0000
0001
0100
0000
,
1020
0000
0000
0000
1030
0000
0000
0001
0200
0000
0000
0000
0310
0000
0100
0000
,
0002
0000
0013
0100
2000
0000
3010
1000
,
2200
3300
0002
1003
,
0020
0000
0130
0001
2000
0000
3100
0010
,
0022
0000
0033
0000
1000
0001
1000
0100
,
0020
0000
0031
0100
0002
0000
1003
0100
,
2000
0000
3010
0100
0002
0000
1003
0000
,
0020
0000
1030
0001
2000
0000
3100
0010
,
0002
0100
1000
0013
,
1001
0000
0010
0100
0000
0000
0000
0010
,
0000
0000
0010
1000
0000
0000
0000
0110
,
0110
0000
0100
0001
0000
0000
0000
0001
,
0000
0000
1000
0100
0000
0000
1010
0000
,
0101
0000
0010
0001
0000
0000
0000
0100
,
0000
0000
0001
1000
0000
0000
1100
0000
,
0011
0000
1000
0001
0000
1000
0000
0100
,
0000
1000
0001
1000
0001
0000
0110
0000
,
1001
0000
0000
1000
0010
0000
0100
0000
0000
0000
0001
0000
0000
0000
0010
0000
,
0000
0000
0000
0100
1000
0000
0001
0000
0000
0000
0010
0000
0001
0000
1000
0000
,
0010
0000
0000
1000
0100
0000
0010
0000
0000
0000
0001
0000
0000
0000
1000
0000
,
0000
0000
0000
0001
0100
0000
0010
0000
1020
0000
0000
0000
1030
0000
0100
0000
,
0001
0000
0000
0010
0001
0000
1000
0000
0000
0000
0100
0000
0000
0000
0010
0000
,
0000
0000
0000
0001
0100
0000
0010
0000
0000
0000
1000
0000
0100
0000
1000
0000
,
0001
0000
0000
0010
0001
0000
1000
0000
0000
0000
0010
0000
0000
0000
0100
0000
,
0210
0000
0301
0100
1000
0010
0100
0001
,
0011
0000
0000
0001
1000
0000
0010
0000
0000
0000
0010
0000
1000
0000
0100
0000
,
0010
0000
0000
0001
0100
0000
0010
0000
0000
0000
1000
0000
0001
0000
0100
0000
,
0010
0000
0000
1000
0001
0000
0010
0000
0000
0000
0001
0000
1000
0000
0100
0000
,
0010
0000
0000
0001
0100
0000
0010
0000
2010
0000
0000
0000
3100
0000
0010
0000
,
0001
0000
0000
0100
0010
0000
1000
0000
0000
0000
0100
0000
1000
0000
0001
0000
,
0010
0000
0000
0001
1000
0000
0001
0000
0000
0000
0010
0000
0100
0000
1000
0000
,
0001
0000
0000
0010
0001
0000
1000
0000
0000
0000
0010
0000
1000
0000
0100
0000
,
0020
0000
0032
0000
1003
0100
0010
0001
,
1001
0000
0000
0000
;

//---------------dance-single - ----------------
#NOTES:
     dance-single:
     :
     Hard:
     14:
     :
0000
0000
0000
0000
,
0000
0000
0000
0000
,
0000
0000
0000
0000
,
0000
0000
0000
0000
,
1000
0100
0001
0020
0000
0000
0000
0000
,
0000
0000
0000
0030
,
0001
0100
1000
0020
0000
0000
0000
0000
,
0000
0000
0000
0030
,
2002
0000
0000
0000
3003
0000
0000
0010
1000
0000
0100
0000
0010
0000
0001
0000
,
0202
0000
0000
0000
0303
0000
0000
0001
1000
0000
0100
0000
1000
0000
0010
0000
,
2020
0000
0000
0000
3030
0000
0000
1000
0100
0000
0010
0000
0001
0000
0100
0000
,
0220
0000
0000
0000
0330
0000
0000
0001
1000
0000
0100
0000
0010
0000
0100
0000
,
2200
0000
0000
0000
3300
0000
0000
1000
0010
0000
0100
0000
0001
0000
0010
0000
,
0022
0000
0000
0000
0033
0000
0000
0010
0001
0000
1000
0000
0010
0000
0100
0000
,
0001
0000
0000
0000
0001
0000
1000
0100
1000
0000
0010
0000
0100
0000
0001
0000
,
0011
0101
1001
1010
,
2100
0000
0000
0000
3010
0000
0100
0001
0100
0000
0010
0000
1000
0000
0001
0000
,
0020
0000
0000
0000
0031
0000
0100
0010
0100
0000
0001
0000
1000
0000
0100
0000
,
2000
0000
0000
0000
3001
0000
1000
0010
1000
0000
0100
0000
0010
0000
0001
0000
,
0200
0000
0000
0000
0301
0000
1000
0010
1000
0000
0001
0000
0010
0000
0100
0000
,
2000
0000
0000
0000
3010
0000
0100
0001
0100
0000
0010
0000
1000
0000
0001
0000
,
0020
0000
0000
0000
0031
0000
0100
0010
0100
0000
0001
0000
1000
0000
0100
0000
,
0110
0000
0001
0100
0110
0010
1000
0001
,
0101
1100
0202
0303
,
1001
0000
0000
0100
0010
0000
1000
0100
1000
0000
0001
0000
0010
0000
0100
0000
,
0010
0000
0000
0001
1000
0000
0100
0010
0100
0000
1000
0000
0001
0000
0100
0000
,
0010
0000
0000
1000
0100
0000
1000
0001
1000
0000
0010
0000
0100
0000
0001
0000
,
1000
0000
0000
0001
0010
0000
0100
0010
0100
0000
1000
0000
0001
0000
0100
0000
,
0010
0000
0000
1000
0010
0000
0100
0001
0100
0000
0001
0000
1000
0000
0100
0000
,
0010
0000
0000
0100
0010
0000
0001
0100
0001
0000
1000
0000
0010
0000
0100
0000
,
0101
1010
1100
0011
,
1001
0000
0000
0110
0000
0000
1001
0000
0000
0110
0000
0001
,
1000
0000
0100
1000
0000
0000
0010
0200
0000
0301
0000
1000
,
0010
0000
0100
0010
0000
0000
1000
0100
1000
0001
0000
0100
,
0010
0000
1000
0001
0000
0000
0010
0200
0000
1300
0000
0001
,
0010
0000
0001
0100
0000
0000
0001
0010
0100
1000
0000
0010
,
1000
0000
0100
0010
0000
0000
0001
2000
0000
3001
0000
0100
,
0010
0000
1000
0010
0000
0000
0100
0001
1000
0001
0000
0100
,
0010
0000
1000
0100
0000
1000
0001
0100
0001
0010
0000
0100
,
1000
0002
2003
3100
,
1001
0010
1000
0001
0000
0100
0100
0000
,
0001
0010
0100
1100
0000
1000
0101
0000
,
0010
1000
0100
0010
0000
0001
0001
0000
,
0100
0001
0010
0001
0000
1000
1000
0000
,
0010
1000
0001
1000
0000
0100
0100
0000
,
0010
0001
1000
1010
0000
0100
0011
0000
,
0001
0100
0010
1000
0000
0001
0001
0000
,
1000
0001
0010
0100
0000
1000
0002
0000
,
0013
0001
0100
0001
0010
0100
1000
0010
,
1000
0100
0010
0001
0100
0010
1000
0001
,
0010
1000
0010
0001
0100
0010
0100
0001
,
0010
0100
0001
0100
1000
0010
0100
0001
,
0010
0001
0100
1000
0100
0010
0100
1000
,
0100
0001
0010
0100
0001
0100
1000
0001
,
0100
0010
1000
0001
0010
0100
1000
0001
,
0100
0000
0001
1000
0001
0000
0000
0010
0100
0010
0100
0000
1000
0000
0001
0000
,
0021
0000
0031
0100
1000
0100
0001
0010
,
1200
0000
1300
0001
0200
0010
0310
0000
,
1020
0000
0130
0001
0010
1000
0010
0001
,
2001
0000
0000
0000
3100
0000
0010
0000
0002
0000
1000
0000
1003
0000
0010
0100
,
0020
0000
1030
0001
1000
0100
0001
0100
,
2000
0000
3010
0100
0002
0010
0013
0000
,
0102
0000
0013
1000
0010
0100
0010
0001
,
1002
0000
0000
0000
0103
0000
0010
1000
0010
0000
0100
0000
0001
0000
0000
0000
,
1001
0000
1000
0001
0000
0100
0000
0010
,
0000
0000
1000
0001
0000
1000
0100
0110
,
0110
0000
0001
0100
0000
0010
0000
1000
,
0000
0000
0000
0000
0100
0000
1000
0000
0000
0000
0001
0000
0010
0100
0010
0100
,
0010
0000
0000
0001
1000
0000
0100
0000
0000
0000
0010
0000
0000
0000
0100
0000
,
0000
0000
0000
1000
0001
0000
0100
0000
0000
0010
1000
0000
0001
0000
0101
0000
,
0101
0000
0000
0100
0010
0000
1000
0000
0000
0000
0001
0000
0000
0000
0100
0000
,
0000
0010
0010
0010
0010
0000
0110
0000
,
1001
0000
1000
0100
0010
0000
0001
0000
0000
0000
0100
0000
0010
0000
1000
0000
,
0100
0000
1000
0001
0010
0000
0001
0000
0000
0100
0010
0000
1000
0000
0100
0000
,
0010
0000
0001
0100
0010
0000
1000
0000
0000
0000
0100
0000
1000
0000
0001
0000
,
0010
0000
0001
1000
0100
0000
0010
0000
1200
0000
0000
0000
1300
0001
1000
0001
,
0100
0000
0010
1000
0001
0000
0010
0000
0000
0001
0100
0000
0010
0000
1000
0000
,
0100
0000
0010
0001
1000
0000
0001
0000
0000
0010
0100
0000
1000
0000
0010
0000
,
0100
0000
0001
0010
0100
0000
1000
0000
0000
0010
1000
0000
0001
0000
0010
0000
,
0200
0000
0000
0000
1300
0010
0100
0010
1000
0100
1000
0000
0001
0100
0001
0000
,
0010
0000
0001
1000
0001
0000
0100
0000
0000
0010
1000
0000
0100
0010
0001
0000
,
0200
0000
0000
0000
0301
1000
0001
0000
0000
0010
0100
0000
1000
0001
0010
0000
,
0100
0000
0010
0001
1000
0000
0010
0000
0000
1000
0001
0000
0100
0010
1000
0000
,
0001
0000
0100
0010
1000
0001
0010
0000
0012
0000
0000
0000
1003
0100
1000
0000
,
0001
0000
0010
0100
1000
0100
1000
0000
0000
0010
0100
0000
0001
0010
0001
0000
,
1000
0000
0010
0100
0001
0000
0010
0000
0000
0001
1000
0000
0001
0000
0100
0000
,
0010
0000
1000
0010
0100
0000
0001
0000
0000
0010
0001
0000
1000
0100
1000
0000
,
0001
0010
1000
0100
0001
0010
1000
0100
,
1001
0000
0000
0000
;

//---------------dance-single - ----------------
#NOTES:
     dance-single:
     :
     Challenge:
     17:
     :
0000
0000
0000
0000
,
0000
0000
0000
0000
,
0000
0000
0000
0000
,
0000
0000
0000
0000
,
2000
3200
0302
0023
0000
0000
0000
0000
,
0000
0000
0000
0030
,
0002
0203
2300
3020
0000
0000
0000
0000
,
0000
0000
0000
0030
,
1001
0000
0000
0000
0001
0000
1000
0100
1000
0000
0010
0000
0100
0000
0001
0000
,
0010
0000
0000
0000
0100
0000
1000
0010
1000
0000
0001
0000
0010
0000
0100
0000
,
0010
0000
0000
0000
0001
0000
1000
0010
1000
0000
0100
0000
0010
0000
0001
0000
,
1000
0000
0000
0000
0001
0000
0100
0010
0100
0000
0001
0000
1000
0000
0010
0000
,
0100
0000
0000
0000
0010
0000
1000
0100
1000
0000
0001
0000
0010
0000
0100
0000
,
0010
0000
0000
0000
0100
0000
1000
0010
1000
0000
0001
0000
0010
0000
0100
0000
,
1000
0000
0000
0000
0010
0000
0100
0001
0100
0000
0010
0000
1000
0000
0001
0000
,
0011
0101
1010
1100
,
1001
0000
0010
1000
0100
0000
0010
0001
0100
0000
0010
0000
1000
0000
0001
0000
,
1000
0000
0100
0010
0001
0000
0100
0010
1000
0000
0001
0000
1000
0000
0100
0000
,
0010
0000
0001
1000
0010
0000
1000
0100
0010
0000
0001
0000
1000
0000
0010
0000
,
0100
0000
0010
1000
0001
0000
0100
0001
0010
0000
0100
0000
1000
0000
0010
0000
,
0100
0000
0001
0010
0100
0000
1000
0001
0010
0000
0001
0000
0100
0000
0010
0000
,
1000
0000
0100
1000
0001
0000
0010
0001
0100
0000
0001
0000
1000
0000
0010
0000
,
0100
0000
0001
0010
0100
0000
1000
0001
0010
0000
0001
0000
0100
0000
0010
0000
,
1010
0101
2200
3300
,
1001
0000
0010
1000
0100
0000
0010
0001
1000
0000
0010
0000
0100
0000
0001
0000
,
0010
0000
0001
0100
0010
0000
1000
0100
0010
0000
0001
0000
1000
0000
0010
0000
,
0100
0000
0010
1000
0001
0000
1000
0001
0010
0000
0100
0000
1000
0000
0001
0000
,
0100
0000
0010
1000
0100
0000
1000
0001
0010
0000
0100
0000
1000
0000
0001
0000
,
1000
0000
0010
0100
0001
0000
1000
0100
0010
0000
0001
0000
0100
0000
0010
0000
,
1000
0000
0100
0010
0001
0000
1000
0001
0010
0000
0001
0000
0100
0000
0010
0000
,
1000
0000
0010
1000
0001
0000
0010
0100
1000
0000
0010
0000
0100
0000
0001
0000
,
0011
0000
0000
0110
0000
0000
1100
0000
0000
0001
1000
0001
,
1000
0000
0010
0100
0000
0010
1000
0001
0010
0001
0010
0100
,
1000
0000
0001
1000
0000
0010
0100
0001
0010
0100
0000
1000
,
0010
0000
0100
0001
0000
0010
0001
1000
0100
1000
0001
0010
,
0100
0000
1000
0010
0000
1000
0001
0010
0100
1000
0000
0001
,
0010
0000
0001
1000
0000
0100
0010
0100
1000
0001
0010
0001
,
0100
0010
1000
0001
0000
0010
0001
1000
0100
1000
0000
0010
,
0100
0001
0100
0001
0010
0100
1000
0001
1000
0010
0100
0001
,
0010
0000
0000
0000
0001
0000
0000
1000
0100
0000
0000
0000
0100
0000
0010
0000
,
1000
0010
1000
0001
0010
0100
1000
0000
,
0010
0000
1000
0000
0001
0000
0010
0100
0010
0000
0001
0000
1000
0100
1000
0000
,
0010
0000
1000
0000
0100
0000
0010
0001
0010
0000
0100
0000
1000
0001
1000
0000
,
0010
0000
1000
0000
0100
0000
0010
0001
1000
0000
0010
0000
0100
0000
0001
0000
,
0010
0000
0001
0000
0100
0000
0010
1000
0010
0000
0100
0000
0001
0000
0000
0000
,
0010
0000
0001
0000
1000
0000
0100
0010
0100
0000
1000
0000
0001
0010
0001
0000
,
0100
0000
0010
0000
1000
0000
0100
0010
0001
0000
1000
0001
0100
0000
0000
0000
,
0010
0000
1000
0000
0100
0000
1000
0001
1000
0000
0010
0000
0200
0000
0000
0000
,
0301
0000
0010
0001
1000
0000
0100
1000
0010
0000
0100
0001
1000
0000
0010
1000
,
0100
0000
1000
0001
1000
0000
0100
0010
0001
0000
0100
0010
1000
0000
0001
0000
,
0010
0000
0001
1000
0001
0000
0100
0010
1000
0000
0100
1000
0010
0000
0100
0001
,
0010
0000
0100
1000
0001
0000
1000
0010
0100
0001
0100
0001
0100
0000
0010
0000
,
1000
0000
0100
0010
0100
0000
1000
0001
0010
0000
0001
1000
0100
0000
0010
0100
,
0010
0000
0001
0100
0001
0000
1000
0010
1000
0100
0010
0100
1000
0000
0001
0000
,
0010
0001
1000
0001
0010
0000
0100
1000
0001
1000
0100
1000
0001
0000
0100
0010
,
1000
0001
1000
0001
0010
0001
0010
0001
0010
0100
0010
0100
1000
0100
1000
0100
,
0020
0000
0031
0100
0010
1000
0100
0010
,
0002
0000
0000
0000
1003
0010
1000
0100
2000
0000
0001
0000
3001
0000
0100
0000
,
0020
0000
1030
0001
0010
0100
1000
0010
,
0200
0000
0001
0000
0301
0000
0010
0100
1000
0000
0001
0000
1000
0010
0100
0001
,
2000
0000
3010
1000
0001
0100
0001
0010
,
0200
0000
0000
0000
1300
0010
0100
0010
2000
0000
0000
0000
3001
0010
0001
0000
,
0200
0000
0000
0000
0310
1000
0010
1000
0010
0000
1000
0001
0010
0000
0100
0000
,
2000
0000
0000
0000
3010
0100
0001
0010
0100
0000
1000
0000
0001
1000
0010
0000
,
1001
0000
1000
0100
1000
0000
0001
0000
0000
0010
0100
0000
0000
0000
0010
0000
,
0001
0000
1000
0010
1000
0000
0001
0000
0000
0100
0010
0000
1000
0000
0110
0000
,
0110
0000
0001
0010
0001
0000
1000
0000
0000
0100
0010
0000
0001
0000
1000
0000
,
0010
0000
0100
0001
0100
0000
0010
0000
0000
1000
0001
0000
1000
0100
0010
0001
,
0100
0000
0010
1000
0010
0000
0100
0000
0000
0001
0010
0000
0001
0000
1000
0000
,
0100
0000
0010
0001
0010
0000
0100
0000
0000
1000
0010
0000
0100
0000
0001
0010
,
0100
0000
1000
0010
1000
0000
0001
0000
0000
0010
0001
0000
1000
0000
0100
0000
,
1000
1010
1010
1010
1010
0000
0101
0000
,
1001
0000
0010
1000
0100
0000
0010
0000
0001
0100
0001
0000
0010
0100
1000
0000
,
0010
0000
1000
0001
1000
0000
0100
0000
0010
0001
0100
0000
0001
0000
1000
0100
,
0010
0000
0001
0100
0001
0000
1000
0000
0010
0000
1000
0100
1000
0000
0001
0000
,
0010
0000
0001
0100
0001
1000
0100
0010
0002
0000
0000
0000
1003
0100
0010
0001
,
0100
0000
0010
1000
0001
0000
1000
0000
0100
0010
0001
0000
1000
0001
0100
0000
,
0010
0000
1000
0100
0010
0000
0001
0000
0100
0010
1000
0000
0001
0000
0010
0001
,
0100
0000
0010
1000
0001
0000
0010
0000
0001
1000
0100
0000
1000
0001
0010
0000
,
0210
0000
0000
0000
1300
0001
1000
0001
0100
0010
1000
0001
0100
0010
1000
0001
,
0010
0000
0001
1000
0010
1000
0001
0000
0100
0010
1000
0000
0001
0100
0001
0000
,
0010
0000
0100
1000
0010
0100
0010
0000
0100
0001
1000
0000
0001
0010
0001
1000
,
0010
0000
1000
0100
0010
0100
1000
0000
0001
0010
0001
0000
0100
0001
1000
0000
,
0010
0000
1000
0001
0010
0001
0100
0010
2000
0000
0000
0000
3001
0010
0100
1000
,
0001
0000
0010
0001
0100
0010
0100
0010
1000
0100
1000
0010
1000
0001
0100
0001
,
0010
0000
0001
1000
0100
1000
0010
0000
0100
0001
0010
0000
0001
1000
0001
0100
,
0010
0001
1000
0100
0001
0010
0100
1000
0001
1000
0100
0010
1000
0010
0001
0100
,
0010
1000
0010
0100
0010
0001
0010
1000
0010
0001
0010
0100
0010
1000
0010
0000
,
1001
0000
0000
0000
;
