#TITLE:A Little Respect;
#ARTIST:Erasure;
#BANNER:A Little Respect-bn.png;
#BACKGROUND:A Little Respect-bg.png;
#JACKET:A Little Respect-jacket.png;
#MUSIC:A Little Respect.ogg;
#SAMPLESTART:23.394;
#SAMPLELENGTH:20;
#DISPLAYBPM:114;
#BPMS:0=114.13;
#BGCHANGES:;

//---------------dance-single - ----------------
#NOTES:
     dance-single:
     :
     Beginner:
     3:
     :
0000
0000
0000
0000
,
0000
0000
0000
0000
,
0010
0000
0100
0000
,
0001
0000
1000
0000
,
0010
0000
0000
0000
,
0000
0000
1000
0000
,
0001
0000
0100
0000
,
0010
0000
1000
0000
,
0100
0000
0000
0000
,
0000
0000
1000
0000
,
0001
0000
0000
0000
,
0000
0000
0100
0000
,
0010
0010
0010
0000
,
0000
0000
1000
0000
,
0001
0001
0001
0000
,
0000
0000
0100
0000
,
1001
0000
0010
0000
,
1000
1000
0000
0000
,
0010
0000
1000
0000
,
0100
0000
0001
0000
,
0110
0000
0001
0000
,
0100
0000
0010
0000
,
1000
0000
0100
0000
,
1000
0000
0001
0000
,
0020
0000
0000
0000
,
0030
0000
0001
0000
,
2000
0000
3000
0000
,
0002
0000
0003
0000
,
2002
0000
0000
0000
,
3003
0000
0000
0000
,
0010
0000
1000
0000
,
0100
0000
0010
0000
,
0001
0000
0100
0000
,
0001
0000
0010
0000
,
0100
0000
1000
0000
,
0010
0000
0100
0000
,
0010
0000
1000
0000
,
0001
0000
0010
0000
,
0001
0000
0100
0000
,
0010
0000
1000
0000
,
0100
0100
0100
0000
,
1000
0000
0001
0000
,
1000
1000
1000
0000
,
0010
0000
0100
0000
,
0110
0000
0001
0000
,
0010
0010
0000
0000
,
0010
0000
1000
0000
,
0100
0000
0001
0000
,
1001
0000
0010
0000
,
1000
0000
0100
0000
,
1000
0000
0001
0000
,
0010
0000
0001
0000
,
0200
0000
0000
0000
,
0300
0000
0010
0000
,
2000
0000
3000
0000
,
0002
0000
0003
0000
,
2002
0000
0000
0000
,
0000
0000
0000
0000
,
3003
0000
0000
0000
;

//---------------dance-single - ----------------
#NOTES:
     dance-single:
     :
     Easy:
     6:
     :
0000
0000
0000
0000
,
0000
0000
0000
0000
,
0010
0010
1000
1000
,
0100
0100
0001
0001
,
0010
0000
0001
0000
,
0100
0010
1000
0001
,
0010
0001
0100
1000
,
0010
0000
1000
0001
,
0100
0000
0010
0000
,
0100
0000
0001
0010
,
0001
1000
0100
0000
,
0010
0001
0010
0100
,
1000
0010
1000
0000
,
0100
0010
0100
1000
,
0010
0100
0001
0000
,
0010
0000
0001
1000
,
1001
0000
0010
0100
,
0010
1000
0100
0000
,
0010
0010
1000
1000
,
0100
0100
0001
0001
,
1001
0000
0010
1000
,
0100
0010
0100
1000
,
0110
0000
0001
0010
,
0001
0100
0010
1000
,
1010
0000
0001
0000
,
0100
0000
0010
1000
,
0101
0000
0010
0000
,
0001
0100
0010
1000
,
1001
0010
1000
0001
,
0010
0001
0010
0100
,
1000
0010
1000
0001
,
0100
0010
1000
0001
,
0010
0001
0100
0010
,
0000
1000
0100
1000
,
0001
0010
0001
0100
,
0000
0010
0100
0001
,
0010
0001
0100
1000
,
0000
1000
0010
1000
,
0100
0010
0001
0100
,
0000
0001
1000
0010
,
1000
0100
1000
0001
,
0010
0001
0100
0010
,
1000
0100
1000
0010
,
1000
0001
0100
0010
,
0110
0000
0001
0010
,
0001
1000
0100
0000
,
0010
0010
1000
1000
,
0100
0100
0001
0001
,
1001
0000
0010
1000
,
0100
1000
0010
0100
,
0110
0000
0001
0010
,
0001
0010
0100
1000
,
1010
0000
1000
0000
,
0100
0000
1000
0001
,
0101
0010
1000
0001
,
1000
0100
0010
0001
,
2002
0000
0000
0000
,
0000
0000
0000
0000
,
3003
0000
0000
0000
;

//---------------dance-single - ----------------
#NOTES:
     dance-single:
     :
     Medium:
     10:
     :
0000
0000
0000
0000
,
0000
0000
0000
0000
,
0010
0010
1000
1000
,
0010
0000
0010
0100
0001
1000
0001
0200
,
0000
0320
0000
0000
1030
0100
0001
0000
,
0010
0001
0010
0100
1000
0010
1000
0002
,
0000
0203
0000
0320
0000
1030
0100
0000
,
1000
0000
0001
1000
0010
0100
0010
1000
,
0001
0001
0100
0100
,
0001
0000
0001
0010
0001
0100
0010
1000
,
0000
0100
0020
0000
0031
0100
1000
0000
,
0010
2000
0000
3200
0000
0320
0000
0032
,
0000
0203
0000
0310
1000
0001
0100
0000
,
0010
0200
0000
0302
0000
2003
0000
3020
,
0000
2030
0000
3100
0010
0001
1000
0000
,
0001
0000
0000
0000
0100
0000
0000
0000
0010
0000
0000
1000
0000
0000
0001
0000
,
1000
0000
1000
0000
0000
0000
0000
0000
0010
0000
0000
0100
0000
0000
0001
0000
,
0010
0100
0110
0000
0001
0000
1000
0000
,
0010
0000
0000
0010
0000
0000
0010
0000
1000
0000
0000
1000
0000
0000
1000
0000
,
0100
0000
0000
0100
0000
0000
0100
0000
0001
0000
0000
0001
0000
0000
0001
0000
,
1001
0000
0010
1000
0000
0100
0010
0001
,
0000
0020
0000
0230
0000
2300
0000
3002
,
0000
0103
0001
0020
0000
0130
1000
0020
,
0000
2030
0000
3002
0000
0203
0000
0320
,
0000
1030
0100
1000
0001
0000
0101
0000
,
0010
0000
1000
0000
0100
0000
0000
0000
1000
0000
0000
0001
0000
0000
1000
0000
,
0010
0100
0001
1000
0001
0000
1100
0000
,
0010
1000
0100
0010
0001
0100
0001
1000
,
0010
1000
0100
0010
0001
0000
0001
0100
,
0010
0000
0010
1000
0001
0000
0001
0010
,
0100
0000
1000
0010
1000
0000
0100
0010
,
0001
0000
1000
0001
0010
0100
1000
0002
,
0000
0103
0010
1000
0010
0000
0100
0001
,
0010
0000
0001
1000
0001
0010
0100
2000
,
0000
3020
0000
1030
0100
0010
0001
0000
,
0100
0010
0100
0010
1000
0001
1000
0001
,
0010
0000
0001
0100
0001
0000
1010
0000
,
0100
1000
0100
1000
0001
0010
0001
0020
,
0000
0031
2000
0000
3020
0000
1030
0001
,
0100
0101
0000
0011
0000
0110
0000
1100
,
0000
1010
0000
1000
0010
0100
0001
0000
,
0010
0011
0000
1001
0000
0101
0000
0110
,
0000
1010
0000
1000
0100
0001
0010
0000
,
0001
0000
0100
0000
1000
0000
0000
0000
0010
0000
0000
1000
0000
0000
0001
0000
,
0100
0000
0100
0000
0000
0000
0010
0000
1000
0000
0000
0001
0000
0000
1000
0000
,
0100
0010
0110
0000
0001
0000
1000
0000
,
0010
0000
0000
0010
0000
0000
0010
0000
1000
0000
0000
1000
0000
0000
1000
0000
,
0100
0000
0000
0100
0000
0000
0100
0000
0001
0000
0000
0001
0000
0000
0001
0000
,
1001
0000
0010
1000
0100
0010
0001
1000
,
0000
1010
0000
0101
0000
0011
0000
1100
,
0001
0000
0100
0010
1000
0010
1000
0001
,
0000
1001
0000
1010
0000
1100
0000
0011
,
0000
0100
0001
0010
0001
0000
1000
0100
,
0010
0000
0001
0000
0100
0000
0000
0000
0010
0000
0000
1000
0000
0000
0001
0000
,
1000
0100
0010
0001
0100
0000
0100
0010
,
1000
0100
0010
0001
1000
0010
0100
0001
,
2002
0000
0000
0000
,
0000
0000
0000
0000
,
3003
0000
0000
0000
;

//---------------dance-single - ----------------
#NOTES:
     dance-single:
     :
     Hard:
     13:
     :
0000
0000
0000
0000
,
0000
0000
0000
0000
,
0010
0000
0000
1000
0000
0000
0100
0000
0010
0000
0000
0001
0000
0000
0100
0000
,
0010
0000
0000
1000
0000
0000
0001
0000
1000
0000
0100
0000
1000
0000
0001
0000
,
0100
0000
0010
0000
1000
0000
0001
0000
0100
0000
0000
0001
0000
0000
0010
0000
,
0001
0100
0010
0100
1000
0100
0001
0020
,
0000
0031
0100
0010
1000
0100
0002
0000
,
0013
0000
0000
0001
0000
0000
1000
0000
1000
0000
0010
0000
1000
0000
0100
0000
,
0010
0000
0000
0001
0000
0000
1000
0000
0100
0000
0000
0010
0000
0000
0100
0000
,
1000
0000
0000
0001
0000
0000
0100
0000
0100
0000
0010
0000
1000
0000
0002
0000
,
0000
0000
0013
0100
0020
0000
0000
0000
0031
0000
0000
1000
0000
0000
0100
0000
,
1000
0010
0100
0010
0001
0010
0100
0010
,
0001
0000
0010
0000
1000
0000
0100
0000
0000
0010
0001
0000
0100
0000
0010
0000
,
1000
0100
0001
0100
0010
0100
0001
0100
,
1000
0000
0010
0000
0100
0000
0001
0000
0000
1000
0010
0000
0100
0000
0001
0000
,
0010
0000
0000
0001
0000
0000
1000
0000
0010
0000
1000
0100
0000
1000
0100
0000
,
0010
0000
0010
0000
0001
0000
0100
0000
0010
0000
1000
0001
0000
1000
0001
0000
,
0100
0010
1000
0001
0010
0100
1000
0000
,
0010
0000
1000
0001
0000
1000
0001
0000
0100
0000
0010
1000
0000
0010
1000
0000
,
0100
0000
0010
0001
0000
0010
0001
0000
1000
0000
0010
0100
0000
0010
0100
0000
,
1001
0000
0000
0000
0010
0000
1000
0000
0100
0010
0001
0000
1000
0000
0100
0000
,
1000
0010
0100
0010
0001
0010
1000
0100
,
0010
0000
0001
0000
0100
0000
0010
0000
1000
0001
0100
0000
0010
0000
1000
0000
,
0100
0010
0001
0100
0001
0010
0001
1000
,
0010
0000
1000
0100
2000
0000
0000
0000
3002
0000
0000
0000
0103
0000
0010
0000
,
1000
0000
0010
0100
0010
0000
0000
0000
1000
0000
0001
0100
0000
0001
0100
0000
,
0010
1000
1100
0000
0011
0001
0100
0010
,
1000
0000
0100
0000
0001
0000
0100
0000
0010
0000
0100
0000
1000
0001
1000
0001
,
1000
0000
0010
0100
0001
0000
0010
0000
1000
0000
0100
0000
1000
0000
0001
0000
,
0100
0000
0010
1000
0010
0000
0100
0000
0001
0000
0010
0000
0001
0000
1000
0000
,
0100
0000
0010
0001
0010
0000
1000
0000
0010
0000
0001
0000
1000
0000
0100
0000
,
1000
0000
0010
0000
0100
0000
0010
0000
1000
0000
0100
0000
1000
0001
1000
0001
,
0010
0001
0100
0010
1010
0000
1000
0001
,
0100
0000
0101
0010
1000
0100
1000
0001
,
0100
0000
0010
0000
1000
0000
0001
0000
0010
0001
0100
0000
0010
0000
1000
0000
,
0100
0010
0001
1000
0010
1000
0100
0001
,
0100
0000
0010
0001
0010
0000
0000
0000
0100
0000
1000
0010
1000
0000
0001
0000
,
0100
0010
0100
0010
1000
0100
1000
0001
,
0010
0000
0001
1000
0100
0000
0000
0000
0110
0000
0001
0000
0100
0000
0010
0000
,
1000
0100
0010
1000
0010
0001
0100
0001
,
0010
0000
0100
0000
1000
0000
0001
0100
0000
0010
1000
0000
0100
0000
0010
0000
,
0001
1000
0010
0100
1000
0100
0001
0010
,
0001
0000
1000
0000
0100
0000
1000
0010
0000
0100
0001
0000
0010
0000
0100
0000
,
1000
0000
0010
0000
0100
0000
0000
0000
0110
0000
0001
1000
0000
0001
1000
0000
,
0100
0000
0010
0000
0001
0000
1000
0000
1000
0000
0010
0100
0000
0100
0001
0000
,
0010
0000
0001
0000
0100
0000
0001
0000
1000
0000
0010
0100
0010
0000
1000
0000
,
0100
0000
0010
0001
0000
0010
0001
0000
0100
0000
0010
1000
0000
0010
1000
0000
,
0001
0000
0010
0100
0000
0010
0100
0000
1000
0000
0001
0100
0000
0001
0100
0000
,
1001
0000
0000
0000
0010
0000
1000
0001
1000
0000
0100
0000
0010
0000
0001
0000
,
0100
0010
0100
1000
0100
0001
0010
0100
,
1000
0000
0010
0100
0010
0000
1000
0000
0001
0000
0010
0001
1000
0000
0100
0000
,
0010
1000
0010
0001
0010
1000
0010
0100
,
1000
0000
0001
0000
1000
0010
1000
0000
0100
0000
0010
0001
0010
0000
0100
0000
,
1000
0000
0010
0100
0010
0000
0000
0000
1000
0000
0001
0100
0000
0001
0100
0000
,
0010
1000
0100
0010
0001
0100
0001
1000
,
0010
1000
0100
0001
0100
0010
0001
1000
,
2002
0000
0000
0000
,
0000
0000
0000
0000
,
3003
0000
0000
0000
;
