#TITLE:777;
#ARTIST:EeL;
#BANNER:777-bn.png;
#BACKGROUND:777-bg.png;
#JACKET:777-jacket.png;
#MUSIC:777.ogg;
#SAMPLESTART:30;
#SAMPLELENGTH:20;
#DISPLAYBPM:200;
#BPMS:0=200;
#BGCHANGES:;

//---------------dance-single - ----------------
#NOTES:
     dance-single:
     :
     Beginner:
     4:
     :
0000
0000
0000
0000
,
0000
0000
0000
0000
,
0000
0000
0000
0000
,
0000
0000
0000
0000
,
0000
0000
0000
0000
,
1000
1000
1000
0000
,
0000
0000
0010
0000
,
0100
0100
0100
0000
,
0001
0000
1000
0000
,
0001
0000
0100
0000
,
0000
0000
0010
0000
,
1000
0000
0001
0000
,
0000
0000
0010
0000
,
0001
0000
0100
0000
,
0000
0000
0001
0000
,
1000
0000
0010
0000
,
0100
0100
0100
0000
,
0001
0000
1000
0000
,
0000
0000
0100
0000
,
0010
0000
0001
0000
,
0000
0000
1000
0000
,
0010
0000
1000
0000
,
0000
0000
0001
0000
,
0100
0000
0010
0000
,
1000
1000
1000
0000
,
0010
0000
0000
1000
,
1000
0000
0000
0001
,
0001
0000
0100
0000
,
0010
0000
1000
0000
,
0100
0000
0000
0010
,
0010
0000
0001
0000
,
1000
0000
0001
0000
,
0100
0000
0010
0000
,
1000
0000
0000
0100
,
0100
0000
0000
0010
,
0010
0000
0001
0000
,
1000
0000
0001
0000
,
0100
0000
0000
0000
,
0010
0010
0000
0000
,
1000
1000
1000
0000
,
0000
0000
0100
0000
,
0010
0010
0010
0000
,
0001
0001
0001
0000
,
0100
0100
0100
0000
,
0000
0000
0010
0000
,
1000
1000
1000
0000
,
0001
0001
0001
0000
,
0010
0000
0000
0000
,
0001
0000
1000
0000
,
0001
0000
0000
0000
,
0100
0000
0010
0000
,
1000
0000
1000
0000
,
0001
0000
0010
0000
,
0100
0000
0100
0000
,
1000
1000
1000
1000
,
0000
0000
0010
0000
,
0010
0000
0010
0000
,
1000
0000
0001
0000
,
1000
0000
0001
0000
,
0100
0000
0010
0000
,
0100
0000
0010
0000
,
1000
0000
0100
0000
,
0010
0000
0001
0000
,
0100
0000
0010
0000
,
1000
0000
0001
0000
,
0010
0000
0100
0000
,
1000
0000
1000
0000
,
0001
0000
0010
0000
,
0001
0000
0100
0000
,
0010
0000
1000
0000
,
0001
0000
0100
0000
,
0001
0000
0000
0000
,
0010
0000
0000
0000
,
0100
0000
0000
0000
,
1000
0000
0000
0000
,
0010
0000
0000
0000
,
1000
0000
0000
0000
,
0001
0000
0000
0000
,
0100
0000
0010
0000
,
2000
0000
3000
0000
,
0002
0000
0003
0000
,
0010
0000
0001
0000
,
0100
0100
0100
0000
,
0020
0000
0030
0000
,
0200
0000
0300
0000
,
0010
0000
1000
0000
,
0100
0100
0100
0000
,
0001
0001
0000
0000
;

//---------------dance-single - ----------------
#NOTES:
     dance-single:
     :
     Easy:
     7:
     :
0000
0000
0000
0000
,
0000
0000
0000
0000
,
0000
0000
0000
0000
,
0000
0000
0000
0000
,
0000
0000
0000
0000
,
1000
0001
1001
0000
,
0000
0010
0001
1000
,
0010
0100
0110
0000
,
0001
1000
1001
0110
,
0001
0001
1000
1000
,
0000
0010
1000
0001
,
0010
0010
0100
0100
,
0000
1000
0010
1000
,
0001
0001
0010
0010
,
0000
0001
1000
0100
,
1000
1000
0010
0010
,
0100
0001
1001
0000
,
1000
1000
0100
0100
,
0000
1000
0001
0010
,
0001
0001
0100
0100
,
0000
0001
0010
0100
,
1000
0010
0100
0001
,
0000
0010
0001
1000
,
0001
0100
0010
1000
,
0001
0100
0110
0000
,
2000
0001
0000
3001
,
0020
0100
0000
0130
,
0002
0003
1000
0100
,
1000
0001
0100
0100
,
0020
1000
0000
1030
,
0001
0010
0001
0001
,
1000
0100
0010
0010
,
0001
0100
0001
1000
,
0020
0100
0000
0130
,
0002
1000
0000
1003
,
0200
0300
0010
0001
,
0100
0010
1000
1000
,
0002
0010
0000
0013
,
1001
0110
1000
0001
,
0010
0100
1001
0000
,
0000
1000
0001
1000
,
0010
0100
0110
0000
,
0001
0010
0001
0000
,
1000
0100
1001
0000
,
0000
1000
0010
0001
,
0100
0010
0110
0000
,
1000
0001
1000
0000
,
0000
0001
0000
0001
,
0000
1000
0000
1000
,
0000
0010
0000
0010
,
0000
0100
0000
0100
,
0001
0010
0001
1000
,
0010
1000
0100
0010
,
0001
0100
0001
0010
,
0100
1000
0001
0100
,
0010
1000
0001
0000
,
0010
0100
1000
0010
,
1000
0001
1000
0000
,
0100
0010
0001
0100
,
0010
1000
0100
0000
,
1000
0001
1000
0001
,
0010
0100
1000
0000
,
0010
0010
0100
0100
,
0001
0100
1000
0100
,
0001
0010
0001
1000
,
0020
0000
0000
0130
0000
0000
0000
0000
,
0000
0000
0000
0000
,
0001
0010
0001
0100
,
0010
1000
0100
0010
,
0002
0000
0000
0003
,
1000
0001
0100
0000
,
0010
0000
1000
0000
,
0100
0000
0010
0000
,
0001
0000
0100
0000
,
0001
0000
1000
0000
,
0010
0000
1000
0000
,
0100
0000
0010
0000
,
0001
0000
0100
0000
,
0001
0001
1000
1000
,
0002
0000
0000
0200
0000
0000
0303
0000
,
0020
0000
0000
2000
0000
0000
3030
0000
,
0002
0000
0000
2003
0000
0000
3010
0000
,
1001
0110
2002
3003
,
0002
0000
0000
0020
0000
0000
0033
0000
,
2000
0000
0000
0200
0000
0000
3300
0000
,
0020
0000
0000
0230
0000
0000
0301
0000
,
0110
1001
0220
0330
,
1000
0001
0000
0000
;

//---------------dance-single - ----------------
#NOTES:
     dance-single:
     :
     Medium:
     11:
     :
0000
0000
0000
0000
,
0000
0000
0000
0000
,
0000
0000
0000
0000
,
0000
0000
0000
0000
,
0000
0000
0000
0000
,
1010
1010
1010
0000
,
0000
0001
1000
0001
0010
0100
1000
0001
,
0100
0100
0100
0000
,
0001
1000
0010
1000
0001
0000
0001
0000
,
0011
0110
1100
1100
,
0000
0001
0000
1000
0001
0000
0100
0000
,
1010
0101
1001
1001
,
0000
0010
0000
1000
0001
0100
0001
0000
,
0011
1001
0101
0101
,
0000
0010
0000
1000
0100
0000
0001
0000
,
1001
1010
1100
1100
,
0001
1000
0100
1000
0001
0000
0000
0000
,
0101
0011
1001
1001
,
0000
0100
0000
0010
1000
0000
0001
0000
,
1100
0011
0101
0101
,
0000
0010
0000
0100
0001
1000
0001
0000
,
1100
0101
0110
0110
,
0000
0001
0000
0010
0100
0000
1000
0000
,
1001
0011
1010
1010
,
0100
1000
0001
1000
0100
0000
0000
0000
,
0012
0000
0200
0000
0303
1000
0001
0000
,
2010
0000
0200
0000
3300
0001
1000
0000
,
0210
0000
0000
0302
0000
1003
0100
0010
,
0001
0200
0000
0320
0000
0000
1030
0000
,
2100
0000
0002
0000
3003
0100
0010
0000
,
1000
0001
1000
0001
0000
0100
0010
0000
,
1001
0000
1000
0010
0000
0100
0001
0000
,
0010
0200
0000
2300
0000
3001
0100
0000
,
0201
0000
0020
0000
0330
1000
0001
0000
,
1200
0000
0020
0000
0330
0001
1000
0000
,
0012
0000
0000
2003
0000
3010
0100
0001
,
0010
0200
0000
2300
0000
3001
0100
0000
,
2010
0000
0002
0000
3003
0010
0100
0000
,
1001
1001
0110
1001
,
0011
0011
0011
0000
,
0000
1000
0100
1000
0010
0100
0001
1000
,
0100
0100
0100
0000
,
1000
0001
0010
0001
1000
0000
0000
0000
,
1100
1100
1100
0000
,
0000
0010
0100
0001
1000
0010
1000
0100
,
0010
0010
0010
0000
,
0001
0010
0001
1000
0100
0000
0000
0000
,
1000
1001
0001
1001
,
1000
0100
1000
0000
0001
0100
0001
0000
,
0100
0110
0010
0110
,
1000
0010
1000
0000
0001
0010
0001
0000
,
1000
0001
0100
0000
0001
1000
0010
0000
,
1000
0100
0010
0000
0001
0010
0100
0000
,
1000
0001
1000
0000
0010
0100
0010
0000
,
0101
1100
0101
1100
,
0001
0100
0000
0010
0000
1000
0000
0001
,
0000
1000
0000
0100
0000
0010
0000
0001
,
0000
0010
0000
0001
0000
0100
0000
1000
,
0000
0010
0000
0100
0000
0001
0000
1000
,
0000
0010
0000
0010
0000
0010
0000
0010
,
0000
0100
0000
0100
0000
0100
0000
0100
,
0000
0001
0000
0001
0000
1000
0000
1000
,
0000
0001
0000
0010
0000
0100
0000
1000
,
0010
0000
0100
0000
0001
0000
1000
0001
,
0000
0001
0100
0000
1010
0000
1010
0000
,
1000
0000
0100
0000
0010
0000
0001
1000
,
0000
1000
0010
0100
0010
0000
0000
0000
,
0100
0000
0001
0000
0010
0000
0001
1000
,
0000
1000
0100
0000
0011
0000
0011
0000
,
1000
0000
0001
0000
0010
0000
0001
0100
,
0000
0100
0010
1000
0001
0000
0000
0000
,
0010
0001
0100
0010
,
1000
0100
1000
0001
,
0010
0001
0100
0010
,
1000
0001
1000
0100
,
0010
0001
0010
0100
,
1000
0010
1000
0001
,
0100
0010
0100
0001
,
0011
1100
0101
1010
,
0002
0000
0103
0020
0000
1030
0001
0000
,
2000
0000
3100
0020
0000
0031
1000
0000
,
0002
0000
1003
0020
0000
0130
0001
1000
,
0001
1000
0200
0000
0320
0000
0031
0000
,
0200
0000
0301
0020
0000
0130
1000
0000
,
0002
0000
1003
0200
0000
1300
0010
0000
,
0200
0000
0301
0020
0000
0031
1000
0100
,
1000
0100
0020
0000
0032
0000
0003
0000
,
1000
0100
0001
0000
0000
0000
0000
0000
;

//---------------dance-single - ----------------
#NOTES:
     dance-single:
     :
     Hard:
     14:
     :
0000
0000
0000
0000
,
0000
0000
0000
0000
,
0000
0000
0000
0000
,
0000
0000
0000
0000
,
0000
0000
0000
0000
,
1010
1001
1010
0001
,
1000
0010
1000
0001
0010
0100
1000
0001
,
0101
0110
0101
1000
,
0010
0000
0100
0000
0010
0000
1000
0000
0001
0000
0000
0000
0001
0100
0001
0100
,
0001
0000
0011
0000
1100
0001
1000
0000
,
0010
1000
0000
1000
0001
0010
0100
0000
,
0110
0000
0011
0000
0110
1000
0001
0000
,
0100
0001
0000
0001
1000
0100
0010
0000
,
0011
0000
1001
0000
1100
0010
0100
0000
,
1000
0010
0000
0010
0100
0001
1000
0000
,
1100
0000
1010
0000
0110
0001
1000
0000
,
0010
1000
0100
1000
0001
0000
1001
0000
,
1000
0100
1000
0010
1000
0001
0100
0000
,
0010
1000
0000
0001
1000
0100
0010
0000
,
0001
0010
0001
0100
0001
1000
0100
0000
,
0010
0001
0000
0100
0010
1000
0001
0000
,
1000
0001
1000
0010
1000
0100
0010
0000
,
0001
0100
0000
0001
1000
0100
0010
0000
,
0001
1000
0001
0100
0001
0010
0100
0000
,
1000
0001
0010
0100
1000
0000
1100
0000
,
0011
0000
0100
0010
0000
1000
0001
0000
,
1010
0000
0001
1000
0000
0010
1000
0001
,
0110
0000
1000
0010
0000
0100
0001
0010
,
0001
0100
1000
0010
1000
0001
0100
0000
,
1010
0000
0100
1000
0010
0100
0001
0000
,
1000
0001
1000
0010
1000
0001
0100
0000
,
0010
1000
0010
1000
0000
0100
0010
0000
,
0001
0100
0001
0010
0100
1000
0001
0000
,
1001
0000
0010
0001
1000
0001
0100
0000
,
0101
0000
0010
0100
1000
0001
0100
0000
,
0110
0000
0010
1000
0000
0100
1000
0001
,
0010
0001
1000
0001
0100
0010
1000
0000
,
0100
1000
0001
1000
0010
0100
0001
0000
,
1001
0000
0000
0000
1001
0000
0000
0000
0110
0000
0000
0000
1000
0001
1000
0001
,
1000
0000
1100
0000
0101
0001
0100
0000
,
0010
1000
0100
0010
0001
0100
0001
1000
,
1010
0000
0101
0000
1010
0001
1000
0000
,
0100
0010
0001
0100
1000
0010
0100
0000
,
0110
0000
1010
0000
0110
0001
0010
0000
,
0001
0100
1000
0001
1000
0100
0010
0001
,
0101
0000
0000
0000
0011
0000
0000
0000
0101
0000
0000
0000
0010
0000
1000
0001
,
1000
0100
0001
0010
0100
0000
0110
0000
,
0001
0100
1000
0000
0001
0010
1000
0000
,
0001
0100
0010
0100
1000
0010
0100
0010
,
1000
0100
0001
0000
1000
0010
0001
0000
,
0100
0000
0001
0000
0010
0000
0001
0000
0100
0000
1000
0000
0010
0000
1000
0001
,
1000
0100
0010
0001
0100
0010
1000
0000
,
0001
1000
0010
0100
1000
0010
0001
0000
,
0100
0001
0010
0100
1000
0010
1000
0001
,
1000
0000
0100
0000
0010
0000
0001
0000
0100
0000
0010
0000
1000
0001
1000
0001
,
1000
0000
0010
0100
1000
0100
0010
0100
,
1000
0100
0001
0100
0010
0100
0001
0100
,
1000
0100
0010
0100
1000
0100
0010
0100
,
1000
0100
0001
0100
0010
0100
1000
0100
,
0001
0010
1000
0010
0100
0010
1000
0010
,
0001
0010
0100
0010
0001
0010
1000
0010
,
0001
0100
0010
0100
0001
0010
0100
0010
,
0001
0000
1000
0010
1000
0000
0001
0000
0100
0000
0010
0000
0100
0000
0010
0000
,
1001
0000
1010
0000
1100
0000
0001
1000
,
0000
0010
1000
0100
1000
0001
1000
0001
,
0011
0000
0110
0000
1100
0000
0010
0100
,
0000
0001
1000
0001
0010
0000
0110
0000
,
1001
0000
0001
0100
0010
0000
1000
0001
,
0000
1000
0100
0001
1000
0010
0001
0000
,
1010
0000
1100
0000
0011
0000
0100
0010
,
0000
0000
1000
0000
0001
0000
0010
0000
0100
0000
0000
0000
1000
0000
0010
0100
,
0020
0000
2030
0000
3002
0000
0013
0100
,
0000
1000
0002
0000
0203
0000
0320
0000
,
2030
0000
3002
0000
0203
0000
0310
2000
,
0000
3001
1000
0100
0020
0000
0032
0000
,
0203
0000
0302
0000
2003
0000
3010
2000
,
0000
3001
2000
0000
3200
0000
0320
0000
,
0032
0000
2003
0000
3002
0000
1003
0010
,
1000
0000
0100
0000
1000
0001
1000
0000
0010
0000
0100
0000
0001
1000
0001
0000
,
0020
0001
0031
1000
0002
0100
0103
0000
,
0020
1000
1030
0001
0200
0010
0310
0000
,
2000
0100
3100
0020
0001
0031
0100
0100
,
0100
0010
2000
0000
3002
0100
0103
0000
,
0002
1000
1003
0100
0020
0001
0031
0000
,
2000
0001
3001
1000
0020
0100
0130
0000
,
0002
0010
0013
0200
1000
1300
0001
0001
,
0001
0000
0100
0000
0020
0000
0000
0000
1030
0100
1000
0100
1000
0100
1000
0100
,
2000
0001
3001
0000
0000
0000
0000
0000
;
