#VERSION:0.83;
#TITLE:777 (GFDM mix);
#SUBTITLE:;
#ARTIST:EeL;
#TITLETRANSLIT:;
#SUBTITLETRANSLIT:;
#ARTISTTRANSLIT:;
#GENRE:;
#ORIGIN:;
#CREDIT:;
#BANNER:777 (GFDM mix)-bn.png;
#BACKGROUND:777 (GFDM mix)-bg.png;
#PREVIEWVID:;
#JACKET:777 (GFDM mix)-jacket.png;
#CDIMAGE:;
#DISCIMAGE:;
#LYRICSPATH:;
#CDTITLE:;
#MUSIC:777 (GFDM mix).ogg;
#OFFSET:-1.215000;
#SAMPLESTART:10.860000;
#SAMPLELENGTH:20.000000;
#SELECTABLE:YES;
#DISPLAYBPM:200.000000;
#BPMS:0.000=200.000;
#STOPS:;
#DELAYS:;
#WARPS:;
#TIMESIGNATURES:0.000=4=4;
#TICKCOUNTS:0.000=4;
#COMBOS:0.000=1;
#SPEEDS:0.000=1.000=0.000=0;
#SCROLLS:0.000=1.000;
#FAKES:;
#LABELS:0.000=Song Start;
#BGCHANGES:;
#KEYSOUNDS:;
#ATTACKS:
;

//---------------dance-single - ----------------
#NOTEDATA:;
#CHARTNAME:;
#STEPSTYPE:dance-single;
#DESCRIPTION:;
#CHARTSTYLE:;
#DIFFICULTY:Hard;
#METER:17;
#RADARVALUES:0.923228,1.285196,1.171689,0.366153,0.173923,706.000000,578.000000,128.000000,40.000000,0.000000,0.000000,0.000000,0.000000,0.000000,0.923228,1.285196,1.171689,0.366153,0.173923,706.000000,578.000000,128.000000,40.000000,0.000000,0.000000,0.000000,0.000000,0.000000;
#CREDIT:;
#DISPLAYBPM:200.000000;
#NOTES:
0000
0000
0000
0000
,
0000
0000
0000
0000
,
0000
0000
0000
0000
,
0000
0000
0000
0000
,
0000
0000
0000
0000
,
0000
0000
0000
0000
,
0000
0000
0000
0000
,
1000
0010
0100
0000
0001
0010
0100
0000
1000
0010
0100
0000
0001
0010
0100
0000
,
1100
0100
0110
0010
0011
0001
0100
0000
,
0010
1000
0010
0100
0001
0010
1000
0001
,
0011
0010
0110
0100
1100
1000
0001
0000
,
0100
0000
0010
0000
1000
0000
0001
0000
0010
0000
0100
0000
1000
0010
0100
0001
,
0010
1100
0010
0101
0010
1100
0010
0101
,
1000
1010
0001
0011
1000
1010
0001
0011
,
0100
1001
0010
1001
0100
1001
0010
1001
,
0010
0011
0100
1100
0101
0010
1001
0000
,
1000
0010
0001
1000
0100
0001
0010
0100
,
0000
1000
0010
1000
0100
0001
0010
0000
,
0001
0010
1000
0001
0100
1000
0010
0100
,
0000
0010
1000
0100
0001
1000
0100
0000
,
0010
0001
1000
0001
0010
1000
0100
0001
,
0000
1000
0010
0001
0010
1000
0100
0000
,
0001
0010
0100
0010
0001
0100
1000
0000
,
0001
0100
0010
0100
0001
0000
1000
0100
0010
0000
0000
0000
0110
0000
0000
0000
,
1001
1000
1010
0010
0110
0100
0101
0001
,
0011
0001
1001
1000
1100
0001
0100
0000
,
0101
0001
1001
1000
1100
0100
0110
0010
,
0011
0001
0101
0001
1001
0100
0010
0000
,
1010
0010
0110
0100
0101
0001
0011
0010
,
0110
0100
1100
1000
1010
0001
0100
0000
,
0011
0100
1010
0100
0011
0100
1010
0000
,
0001
0100
0010
1000
0100
0000
0010
0001
1000
0000
0000
0000
1001
0000
0000
0000
,
2010
0000
0100
0000
0001
0001
3010
0000
,
0102
0000
0010
0000
1000
0100
0103
1000
,
1100
0010
0001
0200
0000
0010
0310
1000
,
0001
0010
1000
0001
0100
0010
1000
0000
,
0012
0000
0100
0000
0010
1000
1003
0000
,
0110
0001
0010
1001
1000
0100
0001
0000
,
1010
1000
0100
0001
0010
1000
0100
0000
,
1001
0000
0110
0000
0000
0000
1001
0000
0000
0000
0001
0000
0001
1000
0010
0100
,
0002
0000
0010
0000
1000
0010
0103
0000
,
0201
0000
1000
0000
0010
1000
0301
0100
,
0110
0001
0010
2000
0000
0010
3100
0001
,
0011
0000
0100
0000
1000
0000
0020
0000
0000
0000
0130
0000
0001
0010
0100
1000
,
0020
0100
1000
0000
0001
1000
0130
0000
,
0101
1100
0010
0010
,
1010
0010
0110
0100
0101
0001
1000
0000
,
0001
0010
0001
0100
1000
0010
0001
0100
,
0101
0001
0011
0001
1001
0100
0010
0000
,
1010
0000
0100
0000
0101
0000
0010
0000
1001
0000
0000
0000
1000
0100
0010
0001
,
0100
0010
0110
0001
1010
0100
0001
0000
,
1000
0001
0010
1000
0100
0010
0100
0001
,
1100
1000
1001
0001
0011
0010
0100
0000
,
1100
0110
0011
0110
1100
0000
0000
0000
,
2001
0000
3010
2000
0001
0100
3200
0000
,
0010
0000
0001
0001
1000
0000
0001
0000
,
2300
0000
3001
0100
0020
0000
1030
0100
,
0002
0000
0010
0000
1003
0000
0002
0000
0000
0000
0103
0000
0010
0000
1000
0001
,
0100
0010
1010
0100
0001
0010
1001
0100
,
0010
1000
0101
0001
0010
0100
1100
0001
,
1000
0010
1000
0010
0100
0001
0100
0001
0010
0100
0010
0100
1000
0001
1000
0001
,
0100
1000
0100
1000
0100
0010
0100
0010
0100
0001
0100
0001
0010
0000
0000
0000
,
1000
0110
0001
0011
0100
1010
0001
1100
,
0010
1001
0010
0101
1000
1100
0001
0011
,
0100
1010
0001
0011
1000
0110
0001
0011
,
0100
0110
0010
0011
1000
1001
0100
0110
,
0001
0010
1000
0100
0011
1001
1010
0000
,
0101
0100
0110
0010
1010
1000
1100
0001
,
0011
0010
1001
0001
0101
0100
0110
1000
,
1100
0110
0011
1001
1010
0110
0101
1001
,
0012
0000
2003
0000
3200
0000
1300
0001
,
0010
1000
0010
0100
0010
1000
0010
0001
,
0200
0000
0320
0000
2030
0000
3001
0010
,
1000
0001
1000
0100
0001
0000
0110
0000
,
2001
0000
3010
1000
0200
0000
0310
0001
,
0100
1000
0100
0001
0010
1000
0001
0000
,
2000
0000
3200
0000
0320
0000
0031
0100
,
1000
0010
1000
0100
0001
0000
0000
0000
,
0020
0000
2030
0000
3200
0000
1300
0001
,
0000
0010
0001
0100
1000
0100
0001
1000
,
0200
0000
0320
0000
0032
0000
1003
0001
,
0010
1000
0010
0001
0100
0000
1010
0000
,
0102
0000
1003
0100
0002
0000
0013
0100
,
0000
1000
0010
1000
0100
0001
0010
0000
,
2000
0000
3002
0000
2003
0000
3010
0100
,
0001
0010
1000
0100
0001
1000
0001
0000
,
0100
0010
0100
0010
0100
0010
0000
0000
0000
0200
0000
0000
,
0000
0310
0000
0200
0000
0000
0000
0000
0000
0310
0000
0000
;

//---------------dance-single - ----------------
#NOTEDATA:;
#CHARTNAME:;
#STEPSTYPE:dance-single;
#DESCRIPTION:;
#CHARTSTYLE:;
#DIFFICULTY:Medium;
#METER:13;
#RADARVALUES:0.645998,0.722923,0.951997,0.659075,0.000000,494.000000,390.000000,104.000000,72.000000,0.000000,0.000000,0.000000,0.000000,0.000000,0.645998,0.722923,0.951997,0.659075,0.000000,494.000000,390.000000,104.000000,72.000000,0.000000,0.000000,0.000000,0.000000,0.000000;
#CREDIT:;
#DISPLAYBPM:200.000000;
#NOTES:
0000
0000
0000
0000
,
0000
0000
0000
0000
,
0000
0000
0000
0000
,
0000
0000
0000
0000
,
0000
0000
0000
0000
,
0000
0000
0000
0000
,
0000
0000
0000
0000
,
1000
0100
0001
0100
1000
0100
0001
0100
,
1100
0110
0011
0000
,
0000
0010
1000
0010
0100
0001
1000
0010
,
1010
1001
0101
0000
,
0001
0010
1000
0010
0001
0000
0000
0000
,
0000
1010
0000
1001
0000
0011
0000
0110
,
0000
1100
0000
0101
0000
1001
0000
0011
,
0000
1100
0000
1001
0000
0110
0000
0101
,
0000
1100
0000
0101
1010
0000
1001
0000
,
0010
1000
0010
0100
0001
0010
1000
0000
,
0000
0001
0000
1000
0001
0100
0010
0000
,
1000
0100
0010
0100
1000
0001
0010
0000
,
0000
0100
0000
0010
0001
0100
1000
0000
,
0001
0010
0001
0100
0001
1000
0100
0000
,
0000
0010
0000
0001
0100
0001
1000
0000
,
0001
0010
0100
0010
0001
0100
1000
0000
,
0001
0100
0010
1000
0100
0000
1001
0000
,
0011
0101
1010
1100
,
0001
0100
0010
1000
0100
0010
0001
0000
,
1010
1001
1100
0011
,
1000
0001
0010
0100
0010
0001
1000
0000
,
0110
1001
1010
0011
,
1000
0100
0001
0010
0100
1000
0001
0000
,
1001
0011
0110
1100
,
0001
0010
1000
0100
0001
0000
1001
0000
,
0120
0000
2000
0000
3030
0100
0001
0000
,
0012
0000
0200
0000
0303
1000
0001
0000
,
2010
0000
0000
0002
3000
1003
0001
0100
,
0010
0100
0000
0102
0000
0000
0013
0000
,
2100
0000
0002
0000
3003
1000
0100
0000
,
0010
0001
0010
0200
0000
1300
0001
0000
,
1000
0020
0000
0230
0000
0301
0100
1000
,
1001
0110
0000
1001
0000
0010
0100
0000
,
0102
0000
0010
0000
1003
0100
0001
0000
,
1020
0000
0001
0000
1030
0100
0010
0000
,
0012
0000
0000
2000
0003
3001
1000
0100
,
0010
0001
0000
0210
0000
0000
1300
0000
,
2001
0000
0010
0000
3001
0100
1000
0000
,
1100
0101
0010
0010
,
1001
1010
1100
0000
,
0000
0001
0010
1000
0001
0010
0100
1000
,
1001
0101
0011
0000
,
0100
0001
1000
0001
0100
0000
0000
0000
,
0110
1001
0110
0000
,
0000
1000
0100
0010
0001
1000
0001
0010
,
0011
0110
1100
0000
,
0010
1000
0100
0001
1001
0000
0000
0000
,
0020
0000
0000
2030
0000
3001
0200
0000
,
0000
0010
0000
0301
,
2000
0000
3000
0001
0200
0000
0300
0000
,
0202
0000
0303
2020
0000
3030
2200
3300
,
2002
3003
0022
0033
0220
0330
2200
3300
,
0202
0303
2020
3030
2002
3003
0220
0330
,
1000
0010
0100
0010
0100
0001
1000
0001
,
0010
0100
1000
0001
1000
0010
0100
0001
,
0000
0011
0000
1001
0000
0110
0000
1010
,
0000
1100
0000
0011
0000
1001
0000
0101
,
2000
0000
3000
1100
0000
0011
0000
0101
,
2000
0000
3001
0100
1000
0010
0100
0001
,
0010
1000
0010
0100
0010
0001
0100
0000
,
0010
1000
0010
0100
0010
1000
0001
0010
,
0100
1000
0001
0100
0010
1000
0001
0010
,
1000
0010
0001
0100
0001
1000
0010
0100
,
0002
0000
2003
0000
3020
0000
1030
0100
,
0000
0010
0001
0000
1100
0000
0101
0000
,
0020
0000
0230
0000
0302
0000
1003
0010
,
0000
1000
0100
0010
0001
0000
0110
0000
,
1002
0000
0203
0000
0320
0000
1030
0001
,
0000
1000
0100
0000
0011
0000
1010
0000
,
0002
0000
2003
0000
3200
0000
0310
0001
,
0000
0100
0001
1000
0010
0000
0000
0000
,
2000
0000
3200
0000
0320
0000
0031
1000
,
0000
0001
0100
0000
0110
0000
0101
0000
,
0002
0000
0000
2000
0000
0000
0000
0000
,
0000
0000
3003
1100
,
0021
0000
0230
0000
2300
0000
3001
0100
,
0000
0001
1000
0000
1010
0000
0101
0000
,
2100
0000
3002
0000
2003
0000
3010
1000
,
0000
0001
1000
0100
0010
0000
2002
0000
,
0000
0000
0000
0000
,
0000
0000
0000
3003
;

//---------------dance-single - ----------------
#NOTEDATA:;
#CHARTNAME:;
#STEPSTYPE:dance-single;
#DESCRIPTION:;
#CHARTSTYLE:;
#DIFFICULTY:Easy;
#METER:7;
#RADARVALUES:0.405383,0.602436,0.475999,0.805536,0.000000,310.000000,258.000000,52.000000,88.000000,0.000000,0.000000,0.000000,0.000000,0.000000,0.405383,0.602436,0.475999,0.805536,0.000000,310.000000,258.000000,52.000000,88.000000,0.000000,0.000000,0.000000,0.000000,0.000000;
#CREDIT:;
#DISPLAYBPM:200.000000;
#NOTES:
0000
0000
0000
0000
,
0000
0000
0000
0000
,
0000
0000
0000
0000
,
0000
0000
0000
0000
,
0000
0000
0000
0000
,
0000
0000
0000
0000
,
0000
0000
0000
0000
,
2000
3002
2003
3002
,
0013
1001
0110
0000
,
0000
0100
0001
0010
,
1001
1010
1100
0000
,
1001
0101
0011
0000
,
1100
0110
0011
0000
,
0000
1000
0001
0010
,
1001
0110
1001
0000
,
0010
1000
0100
0001
,
0010
0010
0001
1000
,
0000
1010
0000
0101
,
1000
0100
0001
0001
,
0000
0011
0000
1100
,
0100
0100
1000
0010
,
0000
0110
0000
1001
,
1000
1000
0001
0001
,
0010
0001
0100
0000
,
0002
0023
0230
2300
,
3020
2030
3002
0003
,
2000
3020
0230
0302
,
2003
3002
0023
0030
,
0200
0320
0032
0203
,
0320
2030
3002
0003
,
2000
3200
0320
0032
,
0103
1001
0110
0000
,
2020
0000
0030
3001
,
0022
0000
0030
1003
,
0020
0000
0000
2030
0000
0000
3200
0000
,
1300
0001
0000
2000
0000
0000
3010
0000
,
2002
0000
3000
0013
,
0002
0000
0000
0203
0000
0000
1300
0000
,
0200
0000
0000
0320
0000
0000
1030
0000
,
0001
1000
0000
0020
0000
0000
0130
0000
,
0220
0000
0300
1030
,
2200
0000
0300
3001
,
0020
0000
0000
0032
0000
0000
2003
0000
,
3010
1000
0000
0002
0000
0000
0103
0000
,
0202
0000
0003
0310
,
1001
0110
0010
0010
,
1001
1010
1100
0000
,
0000
0001
0010
1000
,
0101
1010
1100
0000
,
1001
0101
0011
0000
,
0110
1001
0110
0000
,
0000
0010
1000
0100
,
1100
1010
1001
0000
,
0011
0101
1001
0000
,
0020
0000
0000
2030
0000
0000
3200
0000
,
0000
0000
0000
0300
,
2000
0000
3000
0001
0200
0000
0300
0000
,
0002
0000
0000
2003
0000
0000
3020
0000
,
2030
3200
0320
0032
,
2003
3020
0230
0302
,
0013
0001
0100
1000
,
0001
0000
0010
0000
1000
0001
0100
0000
,
0010
1000
0100
0001
,
0010
0001
0100
0010
,
2000
0000
3000
0001
0020
0000
0030
0001
,
0200
0000
0000
0320
0000
0000
1030
0000
,
1100
0000
0011
0000
0001
0100
1000
0000
,
0001
0010
1000
0000
0101
0000
1010
0000
,
0002
0023
0230
2300
,
3020
2030
3002
0203
,
0301
0010
0100
0010
,
0001
0100
1000
0001
,
2000
0000
0000
0020
0000
0000
0000
0000
,
0000
0000
3030
0100
,
0100
0001
0010
1000
,
0001
1000
0010
0100
,
0001
0010
1000
0010
,
0100
0001
0100
0000
,
0001
0010
0001
0100
,
1000
0010
1000
0001
,
0200
0000
0000
0020
0000
0000
0000
0000
,
0000
0000
0330
1000
,
1000
0001
0010
0100
,
1000
0010
1000
0001
,
0100
0010
0100
0001
,
0010
0100
2000
0002
,
0000
0000
0000
0000
,
0000
0000
0000
3003
;

//---------------dance-single - ----------------
#NOTEDATA:;
#CHARTNAME:;
#STEPSTYPE:dance-single;
#DESCRIPTION:;
#CHARTSTYLE:;
#DIFFICULTY:Beginner;
#METER:5;
#RADARVALUES:0.196153,0.274729,0.000000,0.109846,0.000000,150.000000,150.000000,0.000000,12.000000,0.000000,0.000000,0.000000,0.000000,0.000000,0.196153,0.274729,0.000000,0.109846,0.000000,150.000000,150.000000,0.000000,12.000000,0.000000,0.000000,0.000000,0.000000,0.000000;
#CREDIT:;
#DISPLAYBPM:200.000000;
#NOTES:
0000
0000
0000
0000
,
0000
0000
0000
0000
,
0000
0000
0000
0000
,
0000
0000
0000
0000
,
0000
0000
0000
0000
,
0000
0000
0000
0000
,
0000
0000
0000
0000
,
1000
0000
0001
0000
,
0100
0100
0100
0000
,
0000
0000
0010
0000
,
0010
0000
1000
0000
,
0001
0001
0001
0000
,
1000
1000
1000
0000
,
0000
0000
0010
0000
,
0100
0000
0100
0000
,
0001
0001
0001
0000
,
0010
0010
0010
0010
,
0000
0000
0000
0000
,
0001
0001
0001
0001
,
0000
0000
0000
0000
,
0100
0100
0100
0100
,
0000
0000
0000
0000
,
1000
1000
1000
0000
,
0001
0000
0100
0000
,
0010
0000
0010
0000
,
1000
0000
0001
0000
,
1000
0000
0100
0000
,
0010
0000
0001
0000
,
0100
0000
0010
0000
,
0100
0000
0001
0000
,
0010
0000
1000
0000
,
0100
0100
0100
0000
,
2000
0000
3000
0000
,
0002
0000
0003
0000
,
0010
0000
0010
0000
,
0001
0000
1000
0000
,
0020
0000
0030
0000
,
0200
0000
0300
0000
,
0002
0000
0003
0000
,
1000
0000
0001
0000
,
2000
0000
3000
0000
,
0200
0000
0300
0000
,
0010
0000
0001
0000
,
1000
0000
0001
0000
,
0200
0000
0300
0000
,
0010
0010
0000
0000
,
1000
1000
1000
0000
,
0000
0000
0001
0000
,
0001
0000
0100
0000
,
0010
0010
0010
0000
,
0100
0100
0100
0000
,
0000
0000
0001
0000
,
0001
0000
0010
0000
,
1000
1000
1000
0000
,
0002
0000
0000
0000
,
0000
0000
0003
0000
,
1000
0000
0001
0000
,
0010
0000
0100
0000
,
1000
0000
0010
0000
,
1000
0000
0001
0000
,
0200
0000
0000
0000
,
0000
0000
0300
0000
,
0010
0000
1000
0000
,
0000
0001
0000
0000
,
2000
0000
3000
0000
,
0010
0000
0100
0000
,
0001
0000
0010
0000
,
1000
1000
1000
0000
,
0100
0000
0010
0000
,
0001
0001
0001
0001
,
0001
0000
0100
0000
,
1000
0000
0010
0000
,
0100
0000
0001
0000
,
0010
0010
0010
0000
,
0001
0000
0100
0000
,
1000
0000
0010
0000
,
1000
0000
0001
0000
,
0100
0100
0100
0000
,
0001
0000
0010
0000
,
0001
0000
0100
0000
,
1000
0000
0020
0000
,
0000
0000
0030
0000
,
0100
0000
0001
0000
,
1000
0000
0100
0000
,
0010
0000
0000
0000
,
0000
0000
0001
0001
;

//---------------dance-single - ----------------
#NOTEDATA:;
#CHARTNAME:;
#STEPSTYPE:dance-single;
#DESCRIPTION:;
#CHARTSTYLE:;
#DIFFICULTY:Challenge;
#METER:19;
#RADARVALUES:1.135074,1.405684,1.373073,0.000000,0.585845,868.000000,718.000000,150.000000,0.000000,0.000000,0.000000,0.000000,0.000000,0.000000,1.135074,1.405684,1.373073,0.000000,0.585845,868.000000,718.000000,150.000000,0.000000,0.000000,0.000000,0.000000,0.000000,0.000000;
#CREDIT:;
#DISPLAYBPM:200.000000;
#NOTES:
// measure 0
0000
0000
0000
0000
,  // measure 1
0000
0000
0000
0000
,  // measure 2
0000
0000
0000
0000
,  // measure 3
0000
0000
0000
0000
,  // measure 4
0000
0000
0000
0000
,  // measure 5
0000
0000
0000
0000
,  // measure 6
0000
0000
0000
0000
,  // measure 7
1000
0001
0100
0010
0001
1000
0100
1000
0001
0010
0100
0001
1000
0001
0010
0100
,  // measure 8
1000
0000
0010
0000
0001
0100
0010
0000
1000
0000
0100
0000
0001
0010
1000
0000
,  // measure 9
0001
0000
0010
0000
1000
0001
0100
0000
0010
0000
1000
0000
0100
0010
0001
0000
,  // measure 10
0100
0000
0010
0000
1000
0001
0010
0000
0100
0000
0010
0000
0001
0100
1000
0000
,  // measure 11
0010
0000
1000
0000
0001
0010
0100
0000
1000
0000
0001
0000
0100
0010
1000
0001
,  // measure 12
0010
0011
0100
1100
0010
1001
0100
0101
,  // measure 13
0001
0000
0011
0000
1000
0000
0110
0000
0001
0000
0011
0000
0100
0000
1001
1000
,  // measure 14
0010
1010
0001
1100
0010
0101
1000
1100
,  // measure 15
0011
0110
1100
0110
0011
0100
1001
0000
,  // measure 16
1000
0010
0100
0001
0001
1000
0100
0010
,  // measure 17
0001
0010
0010
0100
0001
1000
1000
0100
,  // measure 18
0001
0100
0001
1000
0100
0010
1000
0010
,  // measure 19
0010
0100
0001
0001
0100
0010
1000
1000
,  // measure 20
0100
0010
0001
0001
0100
1000
0010
1000
,  // measure 21
0001
0010
0100
0001
1000
0010
1000
0100
,  // measure 22
0010
1000
0010
0100
0100
0001
0001
1000
,  // measure 23
0001
0010
0100
1000
0001
0000
0100
0010
1000
0000
0001
1000
0010
0000
0100
0000
,  // measure 24
0001
1000
0010
0000
0100
1000
0100
0000
1000
0001
0010
0000
1000
0100
0001
0000
,  // measure 25
0100
0001
0010
0000
0001
1000
0001
0000
1000
0100
0010
0000
0100
0000
1000
0000
,  // measure 26
1000
0001
0100
0000
0010
0100
1000
0000
0100
0010
0001
0000
0001
1000
0010
0000
,  // measure 27
0010
0100
0010
0000
0001
1000
0001
0000
0100
0001
0100
0000
1000
0000
1000
0000
,  // measure 28
1000
0001
0010
0000
0100
1000
0010
0000
0001
0010
0001
0000
0100
0001
1000
0000
,  // measure 29
0100
0010
1000
0000
0100
0010
0001
0000
1000
0100
0010
0000
0010
0000
0001
0000
,  // measure 30
0001
0010
0001
0000
0100
0001
1000
0000
0010
1000
0100
0000
1000
0100
0010
0000
,  // measure 31
0001
0010
0100
0010
0001
0100
0010
0100
0001
0000
0000
0000
1001
0000
0000
0000
,  // measure 32
1010
0100
0001
1000
1001
0010
0100
1000
,  // measure 33
1100
0010
0001
1000
0110
0001
1000
0010
,  // measure 34
0101
1000
0001
0010
1001
0100
1000
0001
,  // measure 35
0010
0000
0100
0000
1000
0000
0001
0100
0001
0000
1000
0100
1000
0000
0001
0000
,  // measure 36
0011
1000
0100
0010
1001
0010
0100
1000
,  // measure 37
1100
0001
0010
0100
0110
1000
0001
0100
,  // measure 38
0101
0000
0010
0000
1000
0000
0001
0000
1010
0000
0100
0000
0001
0000
1000
0100
,  // measure 39
1001
0000
0110
0000
0000
0000
1001
0000
0000
0000
0010
0000
1000
0100
0010
0001
,  // measure 40
1001
0100
0010
1000
0101
0001
0010
0100
,  // measure 41
1100
0000
0001
0000
1000
0000
0010
0000
0110
0000
0001
0000
0010
0000
1000
0100
,  // measure 42
1100
0010
1000
0001
0101
0010
1000
0100
,  // measure 43
0011
0000
1000
0000
0001
0000
0100
0000
1001
0000
0010
0000
1000
0100
0010
0001
,  // measure 44
0101
0010
1000
0100
0110
0001
0100
0010
,  // measure 45
1010
0101
0010
0010
,  // measure 46
1001
0001
0011
0010
0110
0100
1000
0000
,  // measure 47
0001
1010
0110
0101
0011
0110
1100
1001
,  // measure 48
0101
0001
0011
0010
0110
0100
1000
0000
,  // measure 49
1001
0000
0110
0000
1010
0000
1100
0000
0011
0000
0100
0000
0001
0010
1000
0100
,  // measure 50
1001
0010
0101
1000
1100
0001
0100
0000
,  // measure 51
0010
1010
0110
0101
1001
0011
0110
1100
,  // measure 52
1001
0000
0010
0000
0101
0000
1000
0000
1100
0000
0001
0000
0100
0010
1000
0000
,  // measure 53
0011
0110
1100
0110
0011
0000
0000
0000
,  // measure 54
1000
0010
0001
1000
0100
0001
0010
0000
,  // measure 55
0001
0100
1010
0100
0001
0010
1100
0000
,  // measure 56
1001
0000
0010
0000
1000
0000
0001
0000
0110
0000
1000
0000
0100
0000
0010
0001
,  // measure 57
1000
0000
0010
0000
0001
0000
0100
0000
0010
0000
1000
0000
0100
0000
0010
0001
,  // measure 58
1001
0010
1010
0100
0101
0001
0011
1000
,  // measure 59
1100
0010
1001
0100
0110
0001
1010
0100
,  // measure 60
0001
0100
1000
0010
1000
0010
1000
0001
0001
0010
1000
0010
0100
0100
0001
0100
,  // measure 61
1000
0001
0100
0010
1000
1000
0100
0010
0100
1000
0001
0001
0010
0010
0100
0001
,  // measure 62
1000
1010
0001
0101
0001
0011
0100
1100
,  // measure 63
0001
1001
0010
1010
1000
1100
0001
0011
,  // measure 64
1000
0110
1000
1100
0001
0011
0100
0110
,  // measure 65
1000
1001
0010
1010
0100
0110
0001
1010
,  // measure 66
0001
0110
1000
0110
0001
0011
1000
0101
,  // measure 67
0100
0000
1001
0000
0010
0000
1001
0000
1000
0000
0110
1000
0001
0000
1100
0000
,  // measure 68
0011
0000
1001
0000
1010
0000
0110
0000
0101
0000
0011
0000
1001
0000
1010
0100
,  // measure 69
0101
1001
0011
1100
0101
1010
1100
0011
,  // measure 70
1100
0000
1010
0000
1001
0010
1000
0100
,  // measure 71
0010
0001
0100
0010
1000
0100
0001
1000
,  // measure 72
1001
0000
0011
1000
1100
0001
0100
0010
,  // measure 73
1000
0100
0001
0010
1001
0000
1010
0000
,  // measure 74
0101
0000
0011
1000
1010
0100
0001
0010
,  // measure 75
1000
0001
0010
1000
0100
0010
0001
0000
,  // measure 76
0101
0000
1010
0000
0011
0000
1000
0001
,  // measure 77
0010
0000
1000
0000
0100
0000
0001
1000
1100
0000
0000
0000
0000
0000
0000
0000
,  // measure 78
0001
0010
1000
0100
0010
0100
1000
0010
0100
0001
1000
0001
,  // measure 79
1000
0100
0010
0001
1000
0001
0010
1000
0001
0100
0010
0100
,  // measure 80
0001
0000
0010
0000
0100
0000
1000
0000
0010
0000
0000
0000
0100
0001
0100
0001
,  // measure 81
0100
0010
0100
0010
1000
0000
0001
0000
0010
0000
0000
0000
0110
0000
0000
0000
,  // measure 82
1000
0000
0010
0000
0100
0001
0010
0000
1000
0000
0100
0000
0010
0000
0001
0100
,  // measure 83
0001
0000
0000
0000
0000
0000
1000
0000
0000
0010
0000
0000
1000
0000
0000
0000
0100
0000
0000
0000
0010
0000
0000
0000
0001
0000
0000
0000
0100
0000
0000
0000
0010
0000
0000
0000
1000
0000
0000
0000
0001
0000
0000
0000
1000
0000
0000
0000
,  // measure 84
0001
0000
0000
0100
0000
0000
1000
0000
0000
0000
0000
0000
0010
0000
0000
0000
0100
0000
0001
0000
1000
0000
0001
0000
,  // measure 85
1000
0010
1000
0010
0100
0001
0100
0001
1000
0100
1000
0100
0010
0001
0010
0001
,  // measure 86
0100
0100
0100
0100
0100
0100
0000
0000
0000
0100
0000
0000
,  // measure 87
0000
0100
0000
0100
0000
0000
0000
0000
0000
0100
0000
0000
;
