#VERSION:0.83;
#TITLE:3y3s;
#SUBTITLE:;
#ARTIST:SEIRYU;
#TITLETRANSLIT:;
#SUBTITLETRANSLIT:;
#ARTISTTRANSLIT:;
#GENRE:;
#ORIGIN:;
#CREDIT:;
#BANNER:3y3s-bn.png;
#BACKGROUND:3y3s-bg.png;
#PREVIEWVID:;
#JACKET:3y3s-jacket.png;
#CDIMAGE:;
#DISCIMAGE:;
#LYRICSPATH:;
#CDTITLE:;
#MUSIC:3y3s.ogg;
#OFFSET:0.000000;
#SAMPLESTART:94.333336;
#SAMPLELENGTH:15.000000;
#SELECTABLE:YES;
#DISPLAYBPM:191.000000;
#BPMS:0.000=191.000;
#STOPS:39.500=1.257,
204.000=2.513;
#DELAYS:;
#WARPS:;
#TIMESIGNATURES:0.000=4=4;
#TICKCOUNTS:0.000=4;
#COMBOS:0.000=1;
#SPEEDS:0.000=1.000=0.000=0;
#SCROLLS:0.000=1.000;
#FAKES:;
#LABELS:0.000=Song Start;
#BGCHANGES:;
#KEYSOUNDS:;
#ATTACKS:
;

//---------------dance-single - ----------------
#NOTEDATA:;
#CHARTNAME:;
#STEPSTYPE:dance-single;
#DESCRIPTION:;
#CHARTSTYLE:;
#DIFFICULTY:Hard;
#METER:16;
#RADARVALUES:0.845037,1.216707,0.610815,0.353630,0.458111,736.000000,660.000000,76.000000,44.000000,0.000000,0.000000,0.000000,0.000000,0.000000,0.845037,1.216707,0.610815,0.353630,0.458111,736.000000,660.000000,76.000000,44.000000,0.000000,0.000000,0.000000,0.000000,0.000000;
#CREDIT:;
#DISPLAYBPM:191.000000;
#NOTES:
// measure 0
0000
0000
0000
0000
,  // measure 1
0000
0000
0000
0000
,  // measure 2
0000
0000
0000
0000
,  // measure 3
0000
0000
0000
0000
,  // measure 4
0000
0000
0000
0000
,  // measure 5
0000
0000
0000
0000
,  // measure 6
0000
0000
0000
0000
,  // measure 7
0000
0000
0000
0000
,  // measure 8
0010
0000
0000
0001
0100
0000
0000
1000
,  // measure 9
0100
0000
0000
0000
0000
0010
0010
0010
,  // measure 10
1001
0010
1000
0100
0010
0001
0100
0001
,  // measure 11
1000
0001
1000
0100
0010
0001
0100
0010
,  // measure 12
1000
0001
0010
0001
0100
0001
1000
0100
,  // measure 13
0010
0000
0100
0000
1000
0000
0010
0000
0100
0000
0001
0000
1000
0001
1000
0001
,  // measure 14
1000
0100
1000
0010
1000
0100
1000
0010
,  // measure 15
1000
0001
1000
0010
1000
0001
1000
0010
,  // measure 16
1000
0100
1000
0001
1000
0100
1000
0001
,  // measure 17
2002
0000
0000
3003
,  // measure 18
0010
0000
1000
0000
0100
0000
0010
0000
0001
0000
1000
0000
0001
0100
0001
0100
,  // measure 19
0010
0000
0100
0000
0001
0000
1000
0000
0010
0000
1000
0000
0100
0010
0100
0010
,  // measure 20
0001
0000
1000
0000
0010
0000
1000
0000
0100
0000
0010
0000
0001
1000
0001
1000
,  // measure 21
0100
0000
1000
0000
0010
0000
1000
0000
0010
0000
0100
0000
0001
0010
0001
0010
,  // measure 22
0100
0000
1000
0000
0010
0000
0100
0000
0001
0000
0010
0000
0001
1000
0010
1000
,  // measure 23
0001
0000
0100
0000
0010
0000
1000
0000
0100
0000
0010
0000
0100
1000
0010
1000
,  // measure 24
0100
0010
0001
0100
0101
1000
1100
0001
,  // measure 25
1002
0100
1000
0103
,  // measure 26
0010
1000
0000
1000
0010
0000
0100
0000
0000
0000
0101
0000
0000
1100
0000
0000
,  // measure 27
1000
0001
0000
0001
1000
0000
0100
0000
0000
0000
1100
0000
0000
0011
0000
0000
,  // measure 28
0001
0100
0000
0100
0001
0000
0010
0000
0000
0000
0110
0000
0000
1100
0000
0000
,  // measure 29
1000
0001
0000
0001
1000
0000
0010
0000
0000
0000
1010
0000
0000
0011
0000
0000
,  // measure 30
1000
0100
0000
0010
0001
0000
0100
0000
0010
1000
0000
0001
1000
0000
0010
0000
,  // measure 31
0100
0001
0000
0100
0001
0000
0010
0000
0100
1000
0000
0010
1000
0000
0001
0000
,  // measure 32
1000
0100
1000
0000
0001
0100
0001
0000
1000
0010
1000
0000
0001
0010
0001
0000
,  // measure 33
0100
0010
0100
0000
0001
1000
0001
0000
1001
0000
0010
0000
1000
0100
0010
0001
,  // measure 34
0100
0010
0100
0001
2000
3200
0320
0032
,  // measure 35
0103
0001
0010
0100
1100
0001
0101
0100
,  // measure 36
0010
1000
0100
0010
0002
2003
3020
0230
,  // measure 37
0301
0101
1000
1100
0010
0110
1001
0100
,  // measure 38
0001
1000
0001
0100
0020
0230
0302
2003
,  // measure 39
3100
1000
0010
1000
1010
0001
0011
0100
,  // measure 40
0010
1000
0001
0010
0002
0203
0320
2030
,  // measure 41
3010
0000
0010
0000
0100
0000
0100
0000
1001
0000
1001
0000
1000
0001
1000
0001
,  // measure 42
0020
0032
0203
0320
1030
0002
2003
3200
,  // measure 43
0310
0110
0100
0110
0001
0101
1100
1000
,  // measure 44
0002
2003
3200
0320
0031
0200
0320
2030
,  // measure 45
3100
0000
1100
0000
0001
0000
0101
0000
0110
0000
1001
0000
1000
0001
0010
0100
,  // measure 46
1000
0100
0000
1000
0100
0000
0001
0100
0000
0001
0100
0000
1001
0000
0000
0000
,  // measure 47
1000
0010
0000
1000
0010
0000
0001
0010
0000
0001
0010
0000
1001
0000
0000
0000
,  // measure 48
1000
0100
1000
0000
0001
0100
0001
0000
1000
0010
1000
0000
0001
0010
0001
0000
,  // measure 49
1000
0100
1000
0100
0010
0001
0010
0001
1000
0010
1000
0010
0100
0001
0100
0001
,  // measure 50
0010
0001
0010
0001
1000
0001
1000
0001
0100
0010
0100
0010
1000
0100
1000
0100
,  // measure 51
0020
0100
0000
0100
0001
0001
0031
0000
,  // measure 52
1001
0001
0100
0010
0000
1000
0100
0010
,  // measure 53
0001
0011
1100
0101
,  // measure 54
1001
0010
1000
0100
0000
1000
0001
0100
,  // measure 55
0010
0000
0110
0000
0101
0000
1000
1010
,  // measure 56
0000
1000
0100
0001
0000
1000
0010
0100
,  // measure 57
0001
0000
0011
0000
1100
0000
0010
0100
,  // measure 58
1000
0000
1000
0100
0001
0000
0001
0100
,  // measure 59
0010
0000
0000
0000
0000
1000
1000
1000
,  // measure 60
1100
1000
0100
0010
0001
0010
0100
1000
,  // measure 61
1010
0101
0011
1100
,  // measure 62
0110
0010
0100
1000
0010
0100
0001
1000
,  // measure 63
1100
0000
0011
0000
1100
0000
0101
1001
,  // measure 64
0010
1000
0100
0010
0001
1000
0001
0100
,  // measure 65
0110
0000
1010
0000
1100
0000
0001
1000
,  // measure 66
1010
0000
0010
0100
0101
0000
0001
1000
,  // measure 67
2001
0000
0010
0000
0100
0001
0001
3001
,  // measure 68
1001
0000
0010
1000
1100
0000
0001
0100
,  // measure 69
0101
0000
0010
0100
0001
0010
0100
1000
,  // measure 70
0001
0100
0001
0100
0010
1000
0010
1000
0001
0010
0001
0010
0100
1000
0100
1000
,  // measure 71
0010
0100
0010
0100
0001
1000
0001
1000
0010
1000
0010
1000
0001
0100
0001
0100
,  // measure 72
0020
0000
0000
0000
,  // measure 73
0000
0000
0000
0030
,  // measure 74
1001
0010
0100
1000
0001
0100
0010
1000
,  // measure 75
0001
0010
0001
0000
1000
0100
1000
0000
0010
1000
0010
0000
0100
0001
0100
0000
,  // measure 76
0110
0001
0010
0100
0010
0100
1000
0010
,  // measure 77
0100
0001
0100
0000
0001
1000
0001
0000
1000
0010
1000
0000
0010
0100
0010
0000
,  // measure 78
1010
1000
0100
0001
1000
0010
0100
0001
,  // measure 79
0010
0001
0010
0000
0100
1000
0100
0000
1000
0010
1000
0000
0001
0100
0001
0000
,  // measure 80
2001
0000
3100
1000
2100
0000
3001
0100
,  // measure 81
0201
0000
1000
0000
0001
0010
0010
0310
,  // measure 82
0110
0010
1000
0100
0010
0001
0100
0001
,  // measure 83
1000
0100
0010
0000
0100
0010
0001
0000
0100
0001
1000
0000
0001
1000
0010
0000
,  // measure 84
1010
1000
0001
0010
0001
1000
0100
0010
,  // measure 85
0100
1000
0010
0000
0100
0001
1000
0000
0001
0010
0100
0000
1000
0001
0010
0000
,  // measure 86
0000
0001
0100
0010
0000
1000
0100
0010
,  // measure 87
0001
1000
0001
0000
1000
0010
1000
0000
0010
0100
0010
0000
0100
0001
0100
0000
,  // measure 88
0210
0000
0310
1000
1020
0000
0130
0001
,  // measure 89
0012
0000
0000
0000
0000
0100
0100
0103
,  // measure 90
2002
0000
0000
0000
,  // measure 91
0000
0000
0000
3003
;

//---------------dance-single - ----------------
#NOTEDATA:;
#CHARTNAME:;
#STEPSTYPE:dance-single;
#DESCRIPTION:;
#CHARTSTYLE:;
#DIFFICULTY:Challenge;
#METER:18;
#RADARVALUES:1.056296,1.216707,0.851926,0.257185,0.807722,920.000000,814.000000,106.000000,32.000000,0.000000,0.000000,0.000000,0.000000,0.000000,1.056296,1.216707,0.851926,0.257185,0.807722,920.000000,814.000000,106.000000,32.000000,0.000000,0.000000,0.000000,0.000000,0.000000;
#CREDIT:;
#DISPLAYBPM:191.000000;
#NOTES:
0000
0000
0000
0000
,
0000
0000
0000
0000
,
1001
0001
0100
1000
0000
0010
0100
0001
,
0010
0011
0110
1100
,
1001
0010
1000
0100
0000
0010
0001
0100
,
0001
0000
1010
0000
0101
0000
0010
0110
,
0000
0010
1000
0001
0000
1000
0100
0010
,
0001
0000
0101
0000
1100
0000
1000
0001
,
0010
0000
0000
0001
0100
0000
0000
1000
,
0100
0000
0000
0000
0000
0010
0010
0010
,
1001
1000
0100
0010
0001
0100
0010
1000
,
0001
0000
1000
0000
0010
0000
0100
0000
0010
1000
0010
0100
0001
1000
0100
0000
,
0010
0001
0100
0001
1000
0010
1000
0001
,
0010
0000
0100
0000
1000
0000
0010
0000
1000
0001
0010
0100
0010
0001
0100
0000
,
0101
0001
0011
0001
0101
0001
0011
0010
,
0110
0100
1100
1000
1010
1000
1100
1000
,
1001
0001
0101
0100
0110
0010
1010
1000
,
1002
0100
0010
0103
,
0001
0000
1000
0000
0100
0000
0010
0000
0001
0100
0001
0010
0100
1000
0010
1000
,
0010
0000
1000
0000
0001
0000
0010
0000
0001
0100
0001
0100
0010
1000
0100
1000
,
0100
0000
1000
0000
0010
0000
0100
0000
0010
1000
0001
1000
0001
0010
0001
0100
,
0010
0000
0100
0000
0001
0000
1000
0000
0100
0010
0001
0010
0100
1000
0001
1000
,
0010
0000
1000
0000
0100
0000
0010
0000
0001
0100
0001
0100
0010
1000
0001
1000
,
0010
0000
1000
0000
0100
0000
0010
0000
0100
1000
0001
1000
0001
0100
0001
0010
,
0001
0010
0100
1000
1010
0001
0011
1000
,
2001
0010
0100
3010
,
1000
0100
0000
0100
0001
0000
1000
0010
0000
0010
0001
0000
0110
0000
0110
0000
,
0010
1000
0000
1000
0100
0000
0010
0001
0000
0001
0100
0000
0101
0000
0101
0000
,
0001
1000
0000
1000
0010
0000
0100
0010
0000
0100
0001
0000
1001
0000
1001
0000
,
0100
1000
0000
0001
0010
0000
0001
0100
0000
0010
1000
0000
1010
0000
1010
0000
,
1000
0100
0000
0010
0001
0000
0100
0010
1000
0001
0000
0100
0010
0000
1000
0001
,
0010
0001
0000
0100
0001
0000
1000
0010
1000
0100
0000
1000
0001
0000
0100
0010
,
1000
0100
1000
0100
0010
0100
0010
0100
0010
0001
0010
0001
1000
0001
1000
0001
,
0010
0001
0100
0001
1000
0010
1000
0100
0010
0000
0010
0000
0010
0100
0001
1000
,
0100
0010
0100
1000
1100
1001
0101
1001
,
0010
0000
1000
0000
0100
0000
0010
0000
0001
0010
0100
1000
0010
0100
0001
0000
,
0010
0001
0100
0001
0011
0110
1100
1010
,
1000
0000
0001
0000
0100
0000
0001
0000
0010
0100
1000
0100
1000
0010
0100
0000
,
0010
1000
0001
0100
0110
0101
0011
0110
,
1000
0000
0010
0000
1000
0000
0001
0000
0010
0100
1000
0100
1000
0001
0100
0000
,
0010
1000
0001
0100
1100
0011
0110
1001
,
0010
0000
0100
0000
0001
0000
0010
0000
0100
1000
0010
1000
0100
0010
0001
0100
,
0002
0023
0230
2300
3010
1010
0101
1001
,
1000
0000
0001
0000
0010
0000
0001
0000
0100
0001
0010
0100
1000
0001
1000
0010
,
0200
0320
2030
3002
0013
0011
1100
0110
,
0001
0000
0100
0000
0001
0000
1000
0000
0100
1000
0010
0100
0001
0010
0100
1000
,
0010
1000
0000
1000
0100
0000
0010
0001
0000
0001
0100
0000
1001
0000
0000
0000
,
0100
0010
0000
0010
1000
0000
1000
0001
0000
0001
0100
0000
0101
0000
1100
0000
,
1000
0100
1000
0100
1000
0001
1000
0001
0010
0001
0010
0001
0010
0100
0010
0100
,
1000
0010
0100
0001
0100
0001
0010
1000
0001
0010
1000
0100
1000
0010
0100
0001
,
0010
0100
0010
0001
1000
0100
1000
0001
0100
0001
1000
0010
0001
0010
0100
1000
,
0020
0100
0000
0100
1000
0001
1030
0000
,
1001
0010
1000
0001
0010
0100
1000
0001
,
0101
1100
0011
1010
,
0110
0010
1000
0100
0010
0100
1000
0001
,
0011
0000
1010
0000
1100
0000
1001
0011
,
0010
0001
0100
0001
1000
0010
1000
0100
,
1100
0000
0011
0000
0101
0000
1010
0010
,
0210
0000
0301
0100
1020
0000
1030
0001
,
1002
0000
0010
0000
0100
1000
1000
1003
,
1001
1000
0010
0001
1000
0100
0010
0001
,
0101
0100
0110
0010
1010
1000
1100
0000
,
0011
0010
0001
0100
0010
1000
0100
0010
,
0110
0100
1010
0001
1001
0100
0110
1010
,
1000
0001
1000
0100
0010
0001
0100
1000
,
1010
0001
0101
1000
1100
0010
0110
0001
,
0021
0000
0031
0100
0102
0000
0013
1000
,
2100
0000
0001
0000
0100
0010
0010
3010
,
1001
1000
0100
0010
0011
0001
0100
1000
,
1010
0001
0010
0100
0110
0010
0001
1000
,
0001
0100
0010
1000
0100
0010
0100
0010
1000
0100
0001
0010
0001
1000
0001
1000
,
0010
0001
1000
0100
0010
0001
0100
1000
0010
0100
1000
0001
0010
0100
1000
0001
,
0020
0000
0000
0000
,
0000
0000
0000
0030
,
0110
0000
0001
0000
0010
0000
0100
0000
1000
0010
0100
0001
1000
0000
0100
0000
,
0010
1000
0010
1000
0001
1000
0001
1000
0100
1000
0100
1000
0010
0000
0000
0000
,
1010
0000
1000
0000
0001
0000
0010
0000
0001
1000
0100
0010
0001
0000
0100
0000
,
0001
0100
0001
0100
0001
1000
0001
1000
0001
0010
0001
0010
0001
0000
1100
0000
,
0010
0000
1000
0000
0100
0000
0001
0000
0010
0001
0100
0010
1000
0000
0100
0000
,
1000
0001
1000
0001
0010
0001
0010
0001
0100
0001
0100
0001
0100
0000
0010
0000
,
1020
1000
1030
0100
0210
0010
0310
0001
,
1002
0100
0100
0000
1000
0010
0010
0013
,
0001
0010
0100
1000
0010
0000
0100
0000
0001
1000
0100
0000
1000
0001
0010
0000
,
0001
0010
0001
0010
1000
0010
1000
0010
0001
0010
1000
0010
0001
0000
0000
0000
,
0100
0010
1000
0010
0100
0000
0001
0000
0010
0001
0100
0000
0001
1000
0100
0000
,
1000
0010
1000
0010
0001
0010
0001
0010
1000
0010
0001
0010
1000
0000
0100
0000
,
0000
0200
0320
2030
3000
0002
2003
3020
,
1030
0010
1000
0010
1000
0100
1000
0100
0010
0001
0010
0001
0100
0001
0100
0001
,
1000
0010
0100
0001
0100
0001
0010
0100
1000
0010
1000
0001
0100
0010
0001
1000
,
0020
0000
0000
0000
0000
2030
3002
0203
,
0020
0000
0000
0000
,
0000
0000
0000
0330
;

//---------------dance-single - ----------------
#NOTEDATA:;
#CHARTNAME:;
#STEPSTYPE:dance-single;
#DESCRIPTION:;
#CHARTSTYLE:;
#DIFFICULTY:Beginner;
#METER:4;
#RADARVALUES:0.202074,0.294959,0.096444,0.048222,0.000000,176.000000,164.000000,12.000000,6.000000,0.000000,0.000000,0.000000,0.000000,0.000000,0.202074,0.294959,0.096444,0.048222,0.000000,176.000000,164.000000,12.000000,6.000000,0.000000,0.000000,0.000000,0.000000,0.000000;
#CREDIT:;
#DISPLAYBPM:191.000000;
#NOTES:
0000
0000
0000
0000
,
0000
0000
0000
0000
,
0000
0000
0000
0000
,
0000
0000
0000
0000
,
0000
0000
0000
0000
,
0000
0000
0000
0000
,
0000
0000
0000
0000
,
0000
0000
0000
0000
,
0000
0000
0000
0000
,
0000
0000
0000
0000
,
1001
0000
0000
0000
,
0010
0000
0000
0000
,
1001
0000
0000
0000
,
0100
0000
0000
0000
,
0001
0000
0000
0000
,
1000
0000
0000
0000
,
0010
0000
0000
0000
,
0200
0000
0000
0300
,
0010
0000
0010
0000
,
0100
0000
0100
0000
,
0001
0000
0001
0000
,
1000
0000
1000
0000
,
1001
0000
0000
0000
,
0110
0000
0000
0000
,
1001
0000
0010
0010
,
0020
0000
0000
0030
,
1001
0000
0000
0001
,
0000
0000
0000
0001
,
0000
0000
0000
0001
,
0000
0000
0000
0001
,
0000
0010
0000
0010
,
0000
0100
0000
0100
,
0000
0010
0000
0100
,
0000
0000
0001
0001
,
1000
0000
0010
0010
,
0000
0000
0100
0100
,
0000
0000
0001
0001
,
0000
0000
1000
1000
,
0000
0000
0100
0100
,
0000
0000
0010
0010
,
0000
0000
1000
1000
,
0000
0000
0010
0010
,
1000
1000
0000
0001
,
0000
0000
0100
0100
,
0010
0010
0000
1000
,
0000
0000
0001
0001
,
1000
0000
0100
0000
,
0010
0000
0001
0000
,
0100
0000
0010
0000
,
2000
0000
0000
0000
,
0000
0000
0000
3000
,
0010
0000
0000
0000
,
1001
0000
0000
0000
,
0100
0100
0100
0000
,
0110
0000
0000
0000
,
0010
0010
0010
0000
,
1001
0000
0000
0000
,
1000
1000
1000
0000
,
0001
0000
0001
0000
,
0001
0000
0000
0000
,
1000
1000
1000
0000
,
0001
0001
0001
0000
,
0010
0010
0010
0000
,
0100
0100
0100
0000
,
0010
0010
0010
0000
,
0001
0001
0001
0000
,
0100
0000
0100
0000
,
0100
0000
0000
0000
,
1000
0000
0001
0000
,
1000
0000
0001
0000
,
0100
0000
0010
0000
,
0100
0000
0010
0000
,
0020
0000
0000
0000
,
0030
0000
0000
0000
,
1000
1000
1000
0000
,
0001
0001
0001
0001
,
0100
0100
0100
0000
,
0010
0010
0010
0010
,
0010
0010
0010
0000
,
1000
1000
1000
1000
,
0001
0000
1000
0000
,
0110
0000
0000
0000
,
0100
0100
0100
0000
,
0001
0001
0001
0001
,
0010
0010
0010
0000
,
0100
0100
0100
0100
,
1000
1000
1000
0000
,
0100
0100
0100
0100
,
1000
0000
0001
0000
,
0110
0000
0000
0000
,
2002
0000
0000
0000
,
0000
0000
0000
3003
;

//---------------dance-single - ----------------
#NOTEDATA:;
#CHARTNAME:;
#STEPSTYPE:dance-single;
#DESCRIPTION:;
#CHARTSTYLE:;
#DIFFICULTY:Easy;
#METER:7;
#RADARVALUES:0.352481,0.589918,0.369704,0.176815,0.000000,307.000000,261.000000,46.000000,22.000000,0.000000,0.000000,0.000000,0.000000,0.000000,0.352481,0.589918,0.369704,0.176815,0.000000,307.000000,261.000000,46.000000,22.000000,0.000000,0.000000,0.000000,0.000000,0.000000;
#CREDIT:;
#DISPLAYBPM:191.000000;
#NOTES:
0000
0000
0000
0000
,
0000
0000
0000
0000
,
0000
0000
0000
0000
,
0000
0000
0000
0000
,
0000
0000
0000
0000
,
0000
0000
0000
0000
,
0000
0000
0000
0000
,
0000
0000
0000
0000
,
0010
0000
1000
0000
,
0001
0000
0000
0100
,
1001
1000
0100
0010
,
0001
0100
0001
1000
,
0010
1000
0001
0010
,
0100
1000
0010
0100
,
0001
0011
1000
1010
,
0001
0101
1000
1100
,
1001
0110
1001
0110
,
2002
0000
0000
3003
,
1000
1010
0001
0101
,
0100
0011
0010
1100
,
0001
1001
0100
0110
,
1000
0100
0010
0001
,
1002
0100
0000
0103
,
2001
0100
0000
3100
,
1001
0000
1100
0101
,
2002
0000
0000
3003
,
0010
0010
0000
0000
,
0100
0100
0000
0000
,
0001
0001
0000
0000
,
1000
1000
0000
0000
,
0001
0001
0010
0010
,
0100
0100
1000
1000
,
0010
1000
0100
0001
,
1000
0001
0110
1001
,
0010
1000
0001
0001
,
0010
0100
1000
1000
,
0001
1000
0010
0010
,
1000
0010
0100
0100
,
0001
1000
0100
0100
,
0010
0100
1000
1000
,
0010
1000
0001
0001
,
1000
0100
0010
0010
,
0001
1000
0010
0100
,
0001
0010
0100
1000
,
0010
1000
0001
0100
,
0001
1000
0100
0010
,
1000
1000
1000
0000
,
0001
0001
0001
0000
,
0100
0100
0100
0000
,
2000
0000
0000
3000
,
0002
0000
0000
0003
,
0020
0000
0100
0130
,
1001
0000
0000
0000
,
1000
1000
0001
0001
,
0110
0000
0000
0000
,
0100
0100
0010
0010
,
1010
0000
0000
0000
,
0010
0010
1000
1000
,
0101
0000
1100
0000
,
0011
0000
0000
1000
,
0001
0001
1000
1000
,
0010
0010
0010
0010
,
1000
1000
0001
0001
,
0100
0100
0100
0100
,
0010
0010
0100
0100
,
0001
0001
0001
0001
,
1000
0000
1000
0000
,
1000
0000
0000
0000
,
0010
0000
0010
0000
,
0100
0000
0100
0000
,
0001
0001
0001
0001
,
1000
1000
1000
1000
,
0020
0000
0000
0000
,
0000
0000
0000
0030
,
1001
0100
0001
0100
,
1000
1100
0001
0101
,
0110
0010
1000
0001
,
1000
1010
0001
0011
,
1001
0100
0001
0010
,
1000
0011
0100
1010
,
1100
0000
0101
0000
,
0110
0000
0000
0010
,
1001
0100
0001
1000
,
0020
0230
0302
1003
,
1100
0001
0100
0010
,
2000
3200
0320
0031
,
0011
0100
0001
1000
,
0020
0230
0302
2003
,
3010
0000
0010
0000
,
0010
0000
0000
1000
,
2002
0000
0000
0000
,
0000
0000
0000
3003
;

//---------------dance-single - ----------------
#NOTEDATA:;
#CHARTNAME:;
#STEPSTYPE:dance-single;
#DESCRIPTION:;
#CHARTSTYLE:;
#DIFFICULTY:Medium;
#METER:12;
#RADARVALUES:0.536185,0.626788,0.321481,0.482222,0.060278,467.000000,427.000000,40.000000,60.000000,0.000000,0.000000,0.000000,0.000000,0.000000,0.536185,0.626788,0.321481,0.482222,0.060278,467.000000,427.000000,40.000000,60.000000,0.000000,0.000000,0.000000,0.000000,0.000000;
#CREDIT:;
#DISPLAYBPM:191.000000;
#NOTES:
0000
0000
0000
0000
,
0000
0000
0000
0000
,
0000
0000
0000
0000
,
0000
0000
0000
0000
,
0000
0000
0000
0000
,
0000
0000
0000
0000
,
0000
0000
0000
0000
,
0000
0000
0000
0000
,
0010
0000
0000
0001
0100
0000
0000
1000
,
0100
0000
0000
0000
0000
0010
0010
0010
,
1001
0100
0010
1000
,
0001
0010
0100
1000
,
0010
1000
0100
0001
,
1000
0001
0010
0100
,
1000
0100
0010
0000
0100
0010
0001
0000
,
1000
0001
0100
0000
0001
1000
0010
0000
,
1000
0100
0001
0000
1000
0010
0001
0000
,
2002
0000
0000
3003
,
0010
1000
0100
0000
0010
0001
0100
0000
,
0001
0100
1000
0000
0001
0010
1000
0000
,
0100
0010
0100
0000
1000
0010
1000
0000
,
0001
1000
0001
0000
0100
0001
0100
0000
,
1002
0100
1000
0103
,
2001
0100
0001
3100
,
2001
3010
1010
0101
,
2002
0000
0000
3003
,
0010
0000
0000
0100
0000
0000
0001
0000
0000
1000
0000
0000
0001
0000
0001
0000
,
1000
0000
0000
0100
0000
0000
0010
0000
0000
0001
0000
0000
0100
0000
0100
0000
,
0010
0000
0000
1000
0000
0000
0100
0000
0000
0001
0000
0000
1000
0000
1000
0000
,
0010
0000
0000
1000
0000
0000
0001
0000
0000
0100
0000
0000
0010
0000
0010
0000
,
1000
0000
0000
0100
0000
0000
1000
0000
0001
0000
0000
0100
0000
0000
0001
0000
,
1000
0000
0000
0010
0000
0000
1000
0000
0001
0000
0000
0010
0000
0000
0001
0000
,
1000
0010
0100
0001
1000
0100
0010
0001
,
1002
0000
0100
0000
1000
1000
1003
0000
,
0001
0000
1000
0000
0010
0100
0001
1000
,
0000
2010
0000
3001
1000
1000
1000
0000
,
0010
0000
0100
0000
0001
0010
0100
1000
,
0000
2001
0000
3100
1000
1000
1000
0000
,
0100
0000
1000
0000
0010
1000
0001
0100
,
0000
0012
0000
1003
0001
0001
0001
0000
,
0100
0000
0001
0000
0100
0010
1000
0001
,
0000
0020
0000
0032
0100
0100
0103
0000
,
0001
0010
0100
1000
0000
0010
0100
0010
,
0000
2001
0000
3010
1000
1000
1000
0000
,
0100
1000
0010
1000
0000
0001
0010
0100
,
0000
0210
0000
0310
0100
0100
0100
0000
,
0010
0000
0000
0100
0000
0000
0001
0000
1000
0000
0000
0000
0110
0000
0000
0000
,
1000
0000
0000
0100
0000
0000
0010
0000
0000
0001
0000
0000
1001
0000
0000
0000
,
0002
2003
3020
0230
,
0310
0001
1000
0100
0010
1000
0001
0100
,
0001
0010
1000
0001
0100
1000
0010
0100
,
0020
0000
0000
0000
0100
0100
0130
0000
,
1001
0000
1000
0100
0000
1000
0001
0100
,
0010
0010
1100
0101
,
1001
0000
0010
1000
0000
0001
1000
0010
,
0100
0100
0110
1001
,
0110
0000
1000
0001
0000
0010
0100
1000
,
0100
0100
1100
0011
,
2001
0000
0000
0001
3002
0000
0000
1000
,
2000
0000
0000
0000
3003
0010
0100
0001
,
1000
0100
1000
0001
0000
0001
0100
0000
,
0110
0110
1001
1001
,
0010
1000
0001
1000
0000
0001
0010
0000
,
0011
0011
1100
1100
,
1000
0001
0100
0010
0000
0010
1000
0000
,
1010
1010
0101
0101
,
1002
0000
0000
1000
2003
0000
0000
0001
,
0002
0000
0000
0000
3003
1000
0001
0100
,
0002
0000
0000
1000
2003
0000
0000
0010
,
3020
0000
0000
0100
0000
1000
0000
0130
,
1000
0100
0010
0001
1000
0001
0100
0010
,
0100
0010
1000
0010
0001
0100
1000
0001
,
0020
0000
0000
0000
,
0000
0000
0000
0030
,
1000
0001
0010
0100
1000
0010
0100
0001
,
0020
0230
0302
2003
,
3010
1000
0100
0010
0001
0100
0001
1000
,
0020
0000
2030
0000
3002
0000
0103
0200
,
0000
0310
1000
0001
0000
1000
0100
0010
,
0002
0000
2003
0000
3020
0000
1030
0001
,
2000
0000
3100
1000
0020
0000
0130
0001
,
0200
0000
0010
0000
0301
1000
0010
0100
,
0001
0010
0100
1000
0010
0100
0001
1000
,
0200
2300
3002
0023
,
0031
1000
0100
0010
0100
0010
0001
1000
,
0002
0000
0023
0000
0230
0000
1300
2000
,
0000
3010
1000
0001
0000
1000
0100
0010
,
0002
0000
0023
0000
0230
0000
1300
0001
,
2000
0000
3010
1000
0002
0000
0013
0001
,
0200
0000
0000
0000
0000
0310
1000
0001
,
2002
0000
0000
0000
,
0000
0000
0000
3003
;
