#TITLE:39th St. Strut;
#ARTIST:oo39.com;
#BANNER:39th St. Strut-bn.png;
#BACKGROUND:39th St. Strut-bg.png;
#JACKET:39th St. Strut-jacket.png;
#MUSIC:39th St. Strut.ogg;
#OFFSET:-0.039;
#SAMPLESTART:8.135;
#SAMPLELENGTH:20;
#DISPLAYBPM:118;
#BPMS:0=118;
#BGCHANGES:;

//---------------dance-single - ----------------
#NOTES:
     dance-single:
     :
     Beginner:
     1:
     :
0000
0000
0000
0000
,
0000
0000
0000
0000
,
0000
0000
0000
0000
,
0000
0000
0000
0000
,
1000
0000
0000
0000
,
0100
0000
0000
0000
,
1000
0000
0000
0000
,
0001
0000
1001
0000
,
0000
0000
1000
0000
,
0000
0000
0010
0000
,
0000
0000
1000
0000
,
0000
0000
0001
0000
,
0010
0000
0010
0000
,
0000
0000
0001
0000
,
0000
0000
1000
0000
,
0000
0000
0010
0000
,
0000
0000
0100
0000
,
0001
0000
1000
0000
,
1001
0000
0000
0000
,
0001
0000
0100
0000
,
0010
0000
0110
0000
,
0000
0000
0000
0000
,
0000
0000
1000
0000
,
0100
0000
0010
0000
,
0001
0000
0001
0000
,
1000
0000
1000
0000
,
0000
0000
0100
0000
,
0000
0000
0010
0000
,
0000
0000
0001
0000
,
0000
0000
0100
0000
,
0000
0000
0010
0000
,
0000
0000
1000
0000
,
0000
0000
0001
0000
,
0000
0000
0010
0000
,
0000
0000
0100
0000
,
1000
0000
0001
0000
,
1000
0000
0000
0000
,
0100
0000
0010
0000
,
0100
0000
0000
0000
,
1000
0000
0000
0000
,
0001
0000
0000
0000
,
0100
0000
0000
0000
,
0010
0000
0000
0000
,
0110
0000
0000
0000
;

//---------------dance-single - ----------------
#NOTES:
     dance-single:
     :
     Easy:
     4:
     :
0000
0000
0000
0000
,
0000
0000
0000
0000
,
0000
0000
0000
0000
,
0000
0000
0000
0000
,
1000
0001
0000
0000
,
0001
1000
0000
0000
,
0100
0010
0000
0000
,
0010
0100
1000
0001
,
1000
0000
1001
0000
,
0100
0000
0010
1000
,
0100
0000
0110
0000
,
0001
0000
1000
0100
,
0001
0000
0100
1000
,
0000
0000
0001
0010
,
0000
0000
0001
1000
,
0000
0000
0001
0100
,
0010
1000
0100
0000
,
0110
0000
0001
0000
,
1001
0000
0010
0000
,
0110
0000
1000
0100
,
0010
0001
2000
0000
,
0000
3000
0000
0000
,
0000
0000
1000
0001
,
0100
0000
0010
0000
,
0100
0010
0100
0010
,
0001
1000
0001
1000
,
0000
1000
1001
0001
,
0000
0000
1000
0100
,
0000
0000
0010
0001
,
0000
0000
0100
0001
,
1000
0100
0010
0100
,
0000
0000
0100
1000
,
0000
0000
1000
0010
,
0000
0000
0010
0100
,
0001
1000
0100
0000
,
0110
0000
0010
0001
,
1000
0000
0001
0000
,
1001
0000
0001
0100
,
0010
1000
0100
0000
,
1000
0000
0001
0000
,
1000
0000
0010
0000
,
0100
0000
0001
0000
,
1000
0000
0100
0010
,
0110
0000
0000
0000
;

//---------------dance-single - ----------------
#NOTES:
     dance-single:
     :
     Medium:
     9:
     :
0000
0000
0000
0000
,
0000
0000
0000
0000
,
0000
0000
0000
0000
,
0000
0000
0000
0000
,
1000
0000
0000
0001
0000
1000
0100
0000
,
0010
0000
0000
0100
0000
0010
0001
0000
,
0100
0000
0000
0010
0000
0100
0001
0000
,
1000
0000
0100
0000
0010
0000
0001
0000
0100
0000
0000
0001
0000
0000
1001
0000
,
0000
0000
0001
1000
,
0010
0100
0010
0000
0100
0001
1000
0010
,
0100
0001
1000
0000
1100
0000
0101
0000
,
1000
0100
1000
0000
0001
0100
1000
0100
,
0001
0010
0100
0000
1000
0000
0000
0100
,
0000
0001
0100
0000
1000
0000
0000
0001
,
0010
0100
1000
0000
0001
0000
0000
1000
,
0000
0000
0110
0000
0100
0000
0000
0001
,
0000
0100
0010
0000
0110
0000
1000
0000
,
0001
0100
0000
0001
0100
0000
0010
1000
,
0000
0010
1000
0000
1001
0000
0110
0000
,
1000
0100
0000
1000
0100
0000
0010
0001
,
0000
0000
1000
0000
0000
0010
0000
0000
0100
0000
0000
0000
0000
0000
0000
0000
,
1001
0000
0100
0000
,
1010
0000
0100
0001
,
0010
0100
0010
0000
0100
1000
0001
0100
,
0010
1010
1100
0101
,
0011
0000
1001
0000
0010
0100
0010
0000
,
0000
1000
0100
0000
0001
0000
0000
0100
,
0000
1000
0001
0000
0010
0000
0000
0001
,
0000
0100
0010
0000
1000
0000
0000
0001
,
0000
1000
0100
0000
0010
0000
0000
0001
,
0100
0010
1000
0000
0001
0000
0000
0100
,
0000
1000
0100
0000
0001
0000
0000
0010
,
0000
0100
1000
0000
0010
0000
0000
0100
,
0000
0001
1000
0000
0001
0000
0000
0010
,
0000
0100
1000
0001
0100
0000
0110
0000
,
0001
0100
0000
0010
1000
0000
1001
0000
,
1000
0100
0000
0010
0001
0000
0110
0000
,
1000
0100
0000
0001
0100
0000
0110
0000
,
0001
0000
0000
0100
0000
0000
0010
0000
0000
0000
0000
0000
1000
0000
0001
0000
,
1000
0000
0000
0000
0010
0000
0000
0000
0000
1000
0000
1000
0000
0000
0000
0000
,
0001
0000
0100
0000
0010
0000
0000
1000
0000
1000
0000
1000
0000
0000
0000
0000
,
0100
0000
0000
0000
0110
0000
0000
0000
0000
0001
0000
0001
0000
0000
0000
0000
,
1000
0000
0100
0000
0010
0000
0000
0100
0000
0000
1000
0000
0001
0000
0100
0000
,
0010
0000
0000
0000
;

//---------------dance-single - ----------------
#NOTES:
     dance-single:
     :
     Hard:
     11:
     :
0000
0000
0000
0000
,
0000
0000
0000
0000
,
0000
0000
0000
0000
,
0000
0000
0000
0000
,
0100
1000
0000
0001
0000
0100
0001
0000
0000
0000
0000
0000
1000
0000
0001
0000
,
0010
0001
0000
1000
0000
0010
1000
0000
0000
0000
1010
0000
1010
0000
0000
0000
,
0001
0100
0000
0001
0000
1000
0100
0000
0000
0000
0000
0000
1000
0000
0001
0000
,
0100
0000
0010
0000
1000
0000
0100
0000
0010
0000
0000
0100
0000
0000
1000
0001
,
0000
0000
0000
0000
0000
0000
0000
0000
0001
0100
0000
0010
0000
1000
0000
0100
,
1000
0000
0001
0000
0100
0000
0000
0000
0010
0000
0010
0000
1000
0000
0100
1000
,
0000
0100
0001
0000
0100
0000
0000
0000
1000
0001
1000
0000
0010
0000
0100
0001
,
0000
1000
0010
0000
1000
0100
1000
0000
0000
0000
0000
0000
0100
0000
0010
0000
,
0001
0000
1000
0000
0001
0010
0000
0000
0001
1000
0000
0010
0000
1000
0001
0000
,
0000
0000
0010
0100
0010
0100
0000
0000
0010
0000
0001
0100
0000
0010
1000
0000
,
0000
0010
0000
0010
0100
0000
0000
0000
1000
0100
0000
0010
0000
0100
1000
0000
,
0000
0001
0000
1000
0001
0000
0000
0000
0100
0000
0010
0000
1000
0000
0000
0000
,
1001
0000
1100
0000
0100
0010
0001
0000
,
1000
0010
0000
0100
0001
0000
1000
0100
,
0010
0000
0001
1000
0000
0001
0000
0100
0010
0000
0000
0000
0110
0000
0000
0000
,
1001
0000
0000
0000
0100
0000
0000
0000
0010
1000
0000
0100
0000
1000
0010
0000
,
0100
0000
0001
0000
0000
1001
0000
0000
1000
0000
0100
0000
0001
0000
0000
0000
,
0100
1000
0110
0101
,
1010
0000
0000
0000
1001
0000
0000
0000
0001
0000
0000
0000
1000
0000
0100
0010
,
0000
0100
0010
0000
0001
0000
0100
0000
0010
0000
0000
0000
0110
0000
0001
0000
,
1000
0000
0000
0001
1000
0000
0000
0001
0100
0000
0000
0001
0010
0000
0000
0001
,
1000
0000
0100
0000
0001
0000
0100
0000
1000
0001
1000
0001
0010
0000
0000
0000
,
0000
0000
0100
0000
0110
0000
0000
0000
0100
1000
0000
0001
0000
0100
0001
0000
,
0010
0000
0100
0000
0000
0000
0000
0000
1000
0001
0000
1000
0000
0001
1000
0000
,
0010
0000
0100
0000
0000
0000
0000
0000
0001
0010
0000
0001
0000
0100
0010
0000
,
1000
0000
0000
0000
0000
0000
0000
0000
0100
1000
0000
0010
0000
0100
0001
0000
,
0100
0000
0010
0000
1000
0000
0001
0000
0010
0100
0000
1000
0000
0001
1000
0001
,
1000
0000
0000
0000
0110
0000
0000
0000
0001
0100
0000
0010
0000
1000
0100
1000
,
0100
0000
0000
0000
1000
0000
0001
0000
0100
0010
0000
0100
0000
0001
1000
0000
,
0000
0000
1100
0000
1100
0000
0000
0000
0001
0000
1000
0100
0000
0001
0000
0100
,
1000
0001
0100
0010
1000
0000
1001
0000
,
1000
0010
0000
0100
0001
0000
0010
0100
,
0000
1000
0001
0000
0100
0000
0101
0000
,
1000
0100
0000
0010
0001
0000
1000
0010
,
0100
0000
0000
0110
0000
0000
1001
0000
0000
0000
0000
0000
0101
0000
0000
0000
,
1000
0000
0100
0000
0010
0000
0000
0000
0000
0100
1000
0001
0100
0000
0000
0000
,
0001
0000
0100
0000
0010
0000
1000
0100
0000
1000
0000
0001
0000
0000
0010
0000
,
0100
0000
0000
0000
1000
0000
0100
1000
0000
0001
0100
0001
0010
0000
0100
0000
,
1000
0000
0001
0000
0100
0000
0000
0101
0000
0000
1000
0000
0001
0010
0100
1000
,
0001
0000
0000
0000
;

//---------------dance-single - ----------------
#NOTES:
     dance-single:
     :
     Challenge:
     14:
     :
0000
0000
0000
0000
,
0000
0000
0000
0000
,
0000
0000
0000
0000
,
0000
0000
0000
0000
,
0010
0001
0000
1000
0000
0001
0010
0100
0000
1000
0100
1000
0002
0000
0000
0000
,
0013
0000
0001
0100
0000
0010
1000
0010
0000
1000
0100
1000
0001
0100
0000
0001
,
1000
0100
0000
0010
0000
0001
1000
0001
0000
0100
0010
0100
0010
1000
0001
0000
,
1000
0100
0010
0001
1000
0100
0010
0001
0100
0000
0000
0010
0000
0000
1000
0001
,
0000
0010
0200
0000
0000
0000
0300
0000
1000
0002
0000
0000
0013
0001
0010
0100
,
0000
1000
0100
1000
0000
0000
0000
0000
0001
2000
0000
0000
3010
1000
0010
0100
,
0000
0100
0002
0000
2003
0100
0000
0000
3010
0200
0000
0000
0310
1000
0001
1000
,
0000
0100
0010
0001
0000
0000
0000
0000
1000
0020
0000
0000
0130
0001
0000
0000
,
1001
0000
0110
0000
1000
0001
0000
0100
0010
1000
0000
0001
0000
1000
0100
0010
,
0000
0001
1000
0001
0100
0000
0000
0000
0010
0000
0100
0001
0000
0001
1000
0100
,
0000
0110
0000
0010
0001
1000
0000
1000
0010
1000
0000
0001
0000
0010
0001
0100
,
0000
0001
0000
1000
0100
0010
0000
0000
0001
0000
1000
0010
0000
0100
0001
1000
,
0020
0000
0230
0000
0310
1000
0001
0100
0010
1000
0000
1000
0100
0000
0000
0000
,
1100
0000
0000
0000
0000
0000
0000
0000
0011
0000
0000
0000
0000
0000
0000
0000
0000
0000
0100
0000
0000
0010
0000
0000
1000
0000
0000
0001
0000
0000
1000
0000
0000
0001
0000
0000
1000
0000
0000
0000
0000
0000
0001
0000
0000
0100
0000
0000
,
0001
0100
0001
0000
0010
0100
0000
1000
0010
0100
0010
0100
0010
2000
0002
0000
,
0000
3003
0000
0000
0100
0000
0100
0001
1000
0100
1000
0100
0010
0001
0010
0001
,
0100
0000
0010
1000
0000
1000
0001
0000
1001
0000
0000
0010
0100
0001
0000
1000
,
0000
0001
0100
0000
0010
0000
1000
0000
0100
0010
0000
0100
0010
0001
0000
1000
,
0000
0001
0100
0000
0010
0000
0000
1000
0010
1000
0000
0001
0100
0010
0100
0001
,
0000
1000
0100
1000
0000
0010
0100
0000
0001
0020
0000
0000
0130
1000
0000
1000
,
0020
2030
3200
0302
,
0023
2030
3200
0302
,
0013
0000
0100
0000
2000
0000
0000
0000
3001
0100
0000
0010
0000
1000
0001
1000
,
0100
0000
0100
0010
0000
0001
0000
1000
0001
0100
0001
0100
0000
0010
1000
0001
,
1000
0000
0100
0010
0100
1000
0000
0001
0100
0010
0000
1000
0000
0001
1000
0100
,
0010
0000
0001
1000
0000
0010
0000
1000
0100
0010
0001
0100
0000
0001
1000
0010
,
0100
0000
0001
1000
0001
0100
0000
0010
1000
0100
0000
1000
0000
0010
0100
0001
,
0010
0000
0001
1000
0100
0010
0000
0001
1000
0010
1000
0010
0000
1000
0100
0010
,
0001
0000
0100
0001
1000
0010
0000
0010
0100
0001
0010
0001
0000
0010
0100
1000
,
0001
0000
1000
0010
0000
1000
0000
0001
1000
0100
0010
0001
0000
0100
0010
0000
,
1010
0000
0101
0000
1000
0001
0000
0100
0010
1000
0010
1000
0100
0000
0000
0000
,
0011
0000
0000
0000
0000
0000
0000
0000
1100
0000
0000
0000
0000
0000
0000
0000
0000
0000
0001
0000
0000
1000
0000
0000
0010
0000
0000
0100
0000
0000
0010
0000
0000
0100
0000
0000
0010
0000
0000
0000
0000
0000
1000
0000
0000
0100
0000
0000
,
1000
0100
1000
0000
0001
0000
0000
0010
0001
0100
0010
0100
0002
2000
0000
0000
,
0000
3003
0000
0000
0010
0000
0010
1000
0100
0010
0100
0010
0001
1000
0001
1000
,
0010
0100
0000
0010
0000
0000
1000
0001
0100
0000
0010
1000
0010
1000
0010
1000
,
0001
0200
0000
0000
0310
1000
0010
0100
0000
0001
1000
0001
0000
0000
0000
0000
,
0010
0200
0000
0000
1300
0001
1000
0100
0000
0100
0020
0000
0032
1000
0000
0000
,
0103
0020
0000
0000
0130
0001
1000
0010
0000
1000
0001
1000
0010
0100
0001
0100
,
0010
1000
0000
0000
0001
0100
0000
0000
1010
0000
0101
0000
1000
0001
0000
0100
,
0010
0000
1000
0100
1000
0010
0100
0002
0003
0000
0000
0000
0000
0000
0000
0000
;

//---------------dance-double - ----------------
#NOTES:
     dance-double:
     :
     Easy:
     5:
     :
00000000
00000000
00000000
00000000
,
00000000
00000000
00000000
00000000
,
00000000
00000000
00000000
00000000
,
00000000
00000000
00000000
00000000
,
10000000
01000000
00000000
00000000
,
01000000
00010000
00000000
00000000
,
00001000
00000100
00000000
00000000
,
00000100
00000001
00000010
00000100
,
00000010
00000000
00000110
00000000
,
00000100
00000000
00010000
00001000
,
00010000
00000000
00011000
00000000
,
01000000
00000000
00100000
10000000
,
01000000
00000000
00100000
00001000
,
00000000
00000000
00010000
00000010
,
00000000
00000000
00001000
00000001
,
00000000
00000000
00000100
00001000
,
00010000
00100000
01000000
00000000
,
01100000
00000000
10000000
00000000
,
00010000
00000000
00100000
00000000
,
00001000
00000000
00010000
00000100
,
00001000
00000010
00000200
00000000
,
00000000
00000300
00000000
00000000
,
00000110
00000000
00000001
00001000
,
00000100
00000000
00010000
00000000
,
00001000
00010000
00011000
00011000
,
00100000
01000000
01100000
01100000
,
00000000
10010000
01000000
00100000
,
00000000
00000000
10000000
01000000
,
00000000
00000000
00100000
00010000
,
00000000
00000000
00001000
00000010
,
00000100
00000001
00000010
00000100
,
00000000
00000000
00010000
00001000
,
00000000
00000000
01000000
00100000
,
00000000
00000000
10000000
01000000
,
00100000
00001000
00010000
00000000
,
00011000
00000000
00001000
00010000
,
00000010
00000000
00000100
00000000
,
00000110
00000000
00000001
00000100
,
00000010
00010000
00001000
00000000
,
00100000
00010000
00000000
10000000
,
00100000
01000000
00000000
00001000
,
00010000
00000100
00000000
00001000
,
00000010
00000100
00000000
00000001
,
00001001
00000000
00000000
00000000
;

//---------------dance-double - ----------------
#NOTES:
     dance-double:
     :
     Medium:
     8:
     :
00000000
00000000
00000000
00000000
,
00000000
00000000
00000000
00000000
,
00000000
00000000
00000000
00000000
,
00000000
00000000
00000000
00000000
,
10000000
00000000
00000000
00010000
00000000
01000000
00001000
00000000
,
00010000
00000000
00000000
00000010
00000000
00001000
00000001
00000000
,
00000100
00000000
00000000
00000010
00000000
00001000
00000100
00000000
,
00010000
00000000
00001000
00000000
01000000
00000000
00010000
00000000
00100000
00000000
00000000
01000000
00000000
00000000
01100000
00000000
,
00000000
00000000
10000000
01000000
,
00100000
00010000
00100000
00000000
00001000
00010000
00000100
00001000
,
00000001
00000010
00000100
00000000
00001001
00000000
00000110
00000000
,
00001000
00000010
00001000
00000000
00000001
00000100
00001000
00010000
,
01000000
10000000
00100000
00000000
10000000
00000000
00000000
01000000
,
00000000
00100000
00001000
00000000
00010000
00000000
00000000
00000100
,
00001000
00000001
00000100
00000000
00000001
00000000
00000000
00001000
,
00000000
00000000
00000110
00000000
00010000
00000000
00000000
00001000
,
00000000
01000000
00100000
00000000
10010000
00000000
10000000
00000000
,
01000000
00010000
00000000
01000000
00010000
00000000
00001000
00010000
,
00000000
00001000
00010000
00000000
00001100
00000000
00000110
00000000
,
00000001
00000100
00000000
00000001
00000100
00000000
00000010
00010000
,
00000000
00000000
00001000
00000000
00000000
00100000
00000000
00000000
01000000
00000000
00000000
00000000
00000000
00000000
00000000
00000000
,
10010000
00000000
01000000
00000000
,
00011000
00000000
00000100
00001000
,
00000001
00000100
00000001
00000000
00000100
00001000
00010000
01000000
,
10000000
10100000
00110000
00011000
,
00001010
00000000
00000011
00000000
00000010
00000100
00001000
00000000
,
00000000
00000100
00010000
00000000
00001000
00000000
00000000
01000000
,
00000000
00010000
10000000
00000000
00100000
00000000
00000000
00010000
,
00000000
00001000
00010000
00000000
00000010
00000000
00000000
00001000
,
00000000
00000001
00000100
00000000
00000010
00000000
00000000
00010000
,
00001000
00100000
00010000
00000000
10000000
00000000
00000000
01000000
,
00000000
00010000
00001000
00000000
00010000
00000000
00000000
00001000
,
00000000
00000100
00000010
00000000
00001000
00000000
00000000
00000001
,
00000000
00000100
00001000
00000000
00010000
00000000
00000000
00001000
,
00000000
00100000
01000000
10000000
00010000
00000000
00101000
00000000
,
00010000
00001000
00000000
00000010
00000001
00000000
00001001
00000000
,
00000100
00001000
00000000
00010000
00100000
00000000
01100000
00000000
,
10000000
01000000
00000000
00010000
00001000
00000000
00011000
00000000
,
00010000
00001000
00000000
00000100
00000000
00000000
00000001
00001000
,
00000001
00000000
00000000
00000000
00000010
00000000
00000000
00000000
00000000
00000100
00000000
00000100
00000000
00000000
00000000
00000000
,
00010000
00000000
00001000
00000000
01000000
00000000
00000000
00100000
00000000
00100000
00000000
00100000
00000000
00000000
00000000
00000000
,
10000000
00000000
00000000
00000000
01100000
00000000
00000000
00000000
00000000
00001000
00000000
00001000
00000000
00000000
00000000
00000000
,
00010000
00000000
00000100
00000000
00000010
00000000
00000000
00000001
00000000
00000000
00000100
00000000
00000010
00000000
00010000
00000000
,
00001000
00000000
00000000
00000000
;

//---------------dance-double - ----------------
#NOTES:
     dance-double:
     :
     Hard:
     12:
     :
00000000
00000000
00000000
00000000
,
00000000
00000000
00000000
00000000
,
00000000
00000000
00000000
00000000
,
00000000
00000000
00000000
00000000
,
01000000
10000000
00000000
00010000
00000000
00100000
00001000
00000000
00000000
00000000
00000000
00000000
00010000
00000000
00001000
00000000
,
00010000
00000100
00000000
00001000
00000000
00000010
00000100
00000000
00000000
00000000
00001001
00000000
00001001
00000000
00000000
00000000
,
00000001
00000100
00000000
00001000
00000000
00010000
00001000
00000000
00000000
00000000
00000000
00000000
00010000
00000000
00100000
00000000
,
10000000
00000000
01000000
00000000
00100000
00000000
00010000
00000000
01000000
00000000
00000000
00001000
00000000
00000000
00010000
00000100
,
00000000
00000000
00000000
00000000
00000000
00000000
00000000
00000000
00001000
00000010
00000000
00000100
00000000
00000010
00000000
00001000
,
00000001
00000000
00000100
00000000
00000010
00000000
00000000
00000000
00010000
00000000
00010000
00000000
00001000
00000000
01000000
00100000
,
00000000
01000000
00010000
00000000
10000000
00000000
00000000
00000000
01000000
10000000
01000000
00000000
00100000
00000000
00001000
00010000
,
00000000
00001000
00010000
00000000
00000100
00000010
00000100
00000000
00000000
00000000
00000000
00000000
00000010
00000000
00000001
00001000
,
00000000
00001000
00000100
00000000
00000000
00000000
00000000
00000000
00010000
00001000
00000000
00100000
00000000
00001000
00010000
00000000
,
00000000
00000000
00001000
01000000
00001000
01000000
00000000
00000000
00100000
10000000
00000000
01000000
00000000
10000000
00100000
00000000
,
01000000
00000000
00001000
00000000
00010000
00000000
00000000
00000000
00000010
00010000
00000000
00001000
00000000
00010000
00000010
00000000
,
00000000
00000100
00000000
00000001
00001000
00000000
00000000
00000000
00000100
00000000
00000010
00000000
00000001
00000000
00000000
00000000
,
00001100
00000000
00011000
00000000
01000000
00100000
10000000
00000000
,
00010000
00100000
00000000
01000000
10000000
00000000
00100000
10000000
,
01000000
00000000
00100000
00001000
00000000
00010000
00000000
00001000
00100000
00000000
00000000
00000000
00011000
00000000
00000000
00000000
,
00001010
00000000
00000000
00000000
00000100
00000000
00000000
00000000
00000001
00001000
00000000
00000100
00000000
00001000
00000001
00000000
,
00001000
00000000
00000100
00000000
00000000
00011000
00000000
00000000
00010000
00000000
01000000
00000000
10000000
00000000
00000000
00000000
,
00100000
10000000
01010000
00011000
,
00001010
00000000
00000000
00000000
00001001
00000000
00000000
00000000
00000100
00000000
00000000
00000000
00010000
00000000
00001000
00010000
,
00000000
00001000
00010000
00000000
00001000
00000000
00100000
00000000
01000000
00000000
00000000
00000000
10000000
00000000
01000000
00000000
,
00010000
00000000
00000000
00001000
00010000
00000000
00000000
00000100
00010000
00000000
00000000
00001000
00010000
00000000
00000000
00000010
,
00010000
00000000
00001000
00000000
00000100
00000000
00000001
00000000
00001000
00000001
00001000
00000001
00000010
00000000
00000000
00000000
,
00000000
00000000
00000110
00000000
00000110
00000000
00000000
00000000
00010000
00001000
00000000
00010000
00000000
00001000
00010000
00000000
,
01000000
00000000
00100000
00000000
00000000
00000000
00000000
00000000
00010000
10000000
00000000
00010000
00000000
10000000
00010000
00000000
,
01000000
00000000
00001000
00000000
00000000
00000000
00000000
00000000
00010000
00001000
00000000
00010000
00000000
00000100
00001000
00000000
,
00000010
00000000
00000000
00000000
00000000
00000000
00000000
00000000
00000100
00000001
00000000
00000100
00000000
00000010
00001000
00000000
,
00000100
00000000
00010000
00000000
00001000
00000000
00100000
00000000
00010000
10000000
00000000
01000000
00000000
00100000
01000000
00100000
,
01000000
00000000
00000000
00000000
10010000
00000000
00000000
00000000
00010000
01000000
00000000
00001000
00000000
00010000
00001000
00010000
,
00001000
00000000
00000000
00000000
00010000
00000000
00000100
00000000
00001000
00000100
00000000
00000010
00000000
00000001
00001000
00000000
,
00000000
00000000
00001001
00000000
00001001
00000000
00000000
00000000
00001000
00000000
00000001
00000100
00000000
00001000
00000000
00010000
,
00001000
00010000
01000000
10000000
00100000
00000000
01100000
00000000
,
10000000
01000000
00000000
00100000
00010000
00000000
00001000
00000010
,
00000000
00000100
00000001
00000000
00001000
00000000
00001001
00000000
,
00000001
00000100
00000000
00000010
00001000
00000000
00010000
00100000
,
01000000
00000000
00000000
10000000
00000000
00000000
00010000
00000000
00000000
00000000
00000000
00000000
10010000
00000000
00000000
00000000
,
10000000
00000000
00100000
00000000
00010000
00000000
00000000
00000000
00000000
00001000
00010000
00001000
00010000
00000000
00000000
00000000
,
00001000
00000000
00000010
00000000
00000001
00000000
00000100
00000001
00000000
00001000
00000000
00000001
00000000
00000000
00000100
00000000
,
00001000
00000000
00000000
00000000
00010000
00000000
00001000
01000000
00000000
00010000
01000000
00010000
00100000
00000000
01000000
00000000
,
10000000
00000000
00010000
00000000
01000000
00000000
00000000
00011000
00000000
00000000
00010000
00000000
00000100
00001000
00000010
00000100
,
00000001
00000000
00000000
00000000
;
