#TITLE:30 Lives (Up-Up-Down-Dance Mix);
#ARTIST:The Motion Sick;
#BANNER:30 Lives (Up-Up-Down-Dance Mix).png;
#BACKGROUND:30 Lives (Up-Up-Down-Dance Mix)-bg.png;
#JACKET:30 Lives (Up-Up-Down-Dance Mix)-jacket.png;
#MUSIC:30 Lives (Up-Up-Down-Dance Mix).ogg;
#SAMPLESTART:45.83;
#SAMPLELENGTH:20;
#DISPLAYBPM:144;
#BPMS:0=144;
#BGCHANGES:0=30 Lives (Up-Up-Down-Dance Mix).avi=1=0=0=0,
;

//---------------dance-single - ----------------
#NOTES:
     dance-single:
     :
     Beginner:
     2:
     :
0000
0000
0000
0000
,
0000
0000
0000
0000
,
0000
0000
0000
0000
,
0000
0000
0000
0000
,
0000
0000
0000
0000
,
1000
0000
0000
0000
,
0001
0000
0000
0000
,
0100
0000
0000
0000
,
0010
0000
0000
0000
,
1000
0000
0000
0000
,
0001
0000
0000
0000
,
0010
0000
0000
0000
,
0100
0000
0000
0000
,
1000
0000
0000
0000
,
0001
0000
0000
0000
,
1000
0000
0000
0000
,
0010
0000
0000
0000
,
0100
0000
0100
0000
,
0001
0000
0000
0000
,
0010
0000
0000
0000
,
0001
0000
0000
0000
,
0100
0000
0000
0000
,
0010
0000
0000
0000
,
1000
0000
0000
0000
,
0100
0000
0000
0000
,
0010
0000
0100
0000
,
0110
0000
0000
0000
,
0100
0000
0000
0000
,
1000
0000
0000
0000
,
0001
0000
0000
0000
,
0100
0000
0000
0000
,
0001
0000
0000
0000
,
0100
0000
0000
0000
,
0010
0000
0000
0000
,
1000
0000
0000
0000
,
0100
0000
0000
0000
,
0010
0000
0000
0000
,
0100
0000
0000
0000
,
0010
0000
0100
0000
,
1000
0000
0001
0000
,
1001
0000
0000
0000
,
1001
0000
0000
0000
,
0010
0000
0100
0000
,
1000
0000
0001
0000
,
1001
0000
0000
0000
,
1001
0000
0000
0000
,
1000
0000
0000
0000
,
0100
0000
0000
0000
,
0010
0000
0000
0000
,
0001
0000
0000
0000
,
0010
0000
0000
0000
,
0100
0000
0000
0000
,
1000
0000
0000
0000
,
0001
0000
0000
0000
,
0100
0000
0000
0000
,
0010
0000
0000
0000
,
1000
0000
0000
0000
,
0100
0000
0000
0000
,
0010
0000
0000
0010
,
0010
0000
0000
0010
,
0001
0000
0000
0001
,
1000
0000
0000
1000
,
0001
0000
0000
0000
,
0000
0000
0000
0000
;

//---------------dance-single - ----------------
#NOTES:
     dance-single:
     :
     Easy:
     4:
     :
0000
0000
0000
0000
,
0000
0000
0000
0000
,
0000
0000
0000
0000
,
0000
0000
0000
0000
,
0000
0000
0000
0000
,
1000
0000
0001
0000
,
1000
0000
0001
0000
,
0100
0000
0010
0000
,
0100
0000
0010
0000
,
0000
1000
0000
0000
,
1001
0000
0000
0001
,
0000
0100
0000
0010
,
0000
1000
0000
0100
,
0000
0010
0000
0000
,
1001
0000
0000
0100
,
0000
0010
0000
0100
,
0000
0100
0000
0001
,
0000
1000
0000
0001
,
0010
0000
0001
0000
,
0100
0000
0010
0000
,
1000
0000
0100
0000
,
1001
0000
0000
1000
,
0001
0000
0100
0000
,
0001
0000
1000
0000
,
0100
0000
0000
0010
,
0010
0000
0100
0000
,
1000
0000
0000
0100
,
0010
0000
0000
0001
,
0000
0000
0100
0000
,
0001
0000
1000
0000
,
1001
0000
0000
0010
,
0100
0000
0000
1000
,
0000
0000
0001
0000
,
0100
0000
0010
0000
,
0110
0000
0010
0000
,
0100
0000
0001
0000
,
1000
0000
0001
0000
,
0010
0000
1001
0000
,
0020
0030
0200
0300
,
1000
0001
1000
0001
,
2002
0000
0000
3003
,
2002
0000
0000
3003
,
0020
0030
0200
0300
,
1000
0001
1000
0001
,
2002
0000
0000
3003
,
2002
0000
0000
3003
,
0001
0000
0000
0100
,
0010
0000
0000
1000
,
0000
0000
0100
0000
,
1000
0000
0001
0000
,
1001
0000
0000
0010
,
0100
0000
0000
0001
,
0000
0000
1000
0000
,
0100
0000
0010
0000
,
0110
0000
0100
0000
,
1000
0000
0000
0000
,
0001
0000
1000
0000
,
0001
0000
0000
0000
,
0100
0000
0000
0010
,
1000
0000
0000
0100
,
0010
0000
0001
0000
,
1000
0000
0001
1000
,
0001
0000
0000
0000
,
0000
0000
0000
0000
;

//---------------dance-single - ----------------
#NOTES:
     dance-single:
     :
     Medium:
     7:
     :
0000
0000
0000
0000
,
0000
0000
0000
0000
,
0000
0000
0000
0000
,
0000
0000
0000
0000
,
0000
0000
0000
0000
,
1000
0001
1000
0001
,
0000
0100
0000
0010
0000
0100
0000
0000
,
0001
1000
0001
1000
,
0000
0010
0000
0100
0000
0010
0000
0000
,
1000
0000
0001
0000
1000
0100
1000
0000
,
0000
0000
0001
0000
0100
0001
0100
0000
,
0000
0000
0010
0000
1000
0001
1000
0000
,
1000
0000
0100
0000
0010
0001
0010
0000
,
0001
0000
0100
0000
0010
1000
0010
0000
,
0000
0000
0001
0000
1000
0100
1000
0000
,
0000
0000
0100
0000
0010
0001
0010
0000
,
0001
0000
1000
0000
0100
0010
0100
0000
,
1000
0000
0001
0000
0010
0100
0010
0000
,
0002
1000
1003
0000
,
2000
0001
3001
0000
,
0200
0010
0310
0000
,
1001
1001
1010
0011
,
0020
0100
0130
0000
,
0200
0010
0310
0000
,
0002
1000
1003
0000
,
1100
1100
0101
0110
,
0020
0030
1000
0001
,
0020
0030
0100
1000
,
0002
0000
0003
0000
1000
0100
1000
0000
,
0002
0000
0003
0000
0010
0100
0010
0000
,
0200
0300
1000
0001
,
0200
0300
0010
1000
,
0200
0000
0300
0000
1000
0001
1000
0000
,
0200
0000
0300
0000
1000
0010
1000
0000
,
0100
0000
0000
0000
0000
0010
0001
0100
,
0000
0000
0100
0000
0000
0010
1000
0100
,
0000
0000
1000
0000
0001
0001
0000
1000
,
0000
0000
0100
0000
0010
0010
0000
0000
,
0010
0010
0100
0100
,
1000
0001
1000
0001
,
2000
0000
3001
0000
0000
1000
0000
0000
,
0200
0000
0000
0300
,
0010
0010
0100
0100
,
1000
0001
1000
0001
,
0200
0000
0310
0000
0000
0100
0000
0000
,
0110
0000
0000
0001
1000
0001
1000
0001
,
1000
0100
0010
0000
,
0001
0100
0010
0000
,
1000
0001
0010
0000
,
0002
0003
1000
0100
,
1000
0010
0100
0000
,
0001
0010
0100
0000
,
1000
0001
0100
0000
,
0020
0030
1000
0100
,
0010
0000
0001
1000
0001
0000
0000
0000
,
0100
0000
0010
1000
0010
0000
0000
0000
,
1000
0000
0100
0010
0001
0000
0000
0000
,
0100
0000
0010
1000
0001
0000
0000
0000
,
1000
0000
0000
0000
0000
0001
0100
1000
,
0000
0000
0000
0000
0000
0100
0001
0010
,
0000
0000
0100
0000
0010
0001
0000
1000
,
0000
0000
0010
0100
0000
0001
0000
1001
,
0000
0000
0000
0000
;

//---------------dance-single - ----------------
#NOTES:
     dance-single:
     :
     Hard:
     8:
     :
0000
0000
0000
0000
,
0000
0000
0000
0000
,
0000
0000
0000
0000
,
0000
0000
0000
0000
,
0000
0000
0000
0000
,
1000
0000
0001
0000
0010
0000
0001
1000
,
0000
0010
0000
1010
0000
0011
0000
0001
,
0000
0100
0000
0101
0000
1100
0000
1000
,
0000
0001
0000
1001
0000
0110
0000
0000
,
0000
0000
1000
0100
1000
0001
0100
0001
,
1000
0000
1001
0000
0000
1000
1000
0000
,
0100
0000
0110
0000
0000
0001
0000
0000
,
0100
0000
0010
0000
1010
0000
1000
0001
,
0000
0000
1000
0010
1000
0001
0010
0001
,
0100
0000
0110
0000
0000
0100
0001
0000
,
1000
0000
1001
0000
0000
1000
0100
1000
,
0000
0000
0001
0000
0100
0000
0010
0010
,
0000
1010
0011
0000
,
0010
0000
0101
0000
0101
0000
0100
0010
,
0000
0000
1100
0000
1100
0000
0100
0010
,
0000
0000
1001
0000
1001
0000
0100
0010
,
0000
0000
1010
0000
0000
0100
1000
0010
,
0000
0000
0101
0000
0001
0010
0001
0100
,
0000
0000
0010
1000
0000
0001
0000
0010
,
0001
0000
1100
0000
0101
0000
1000
0001
,
0000
1000
0000
0001
0100
0001
0100
1000
,
0100
0000
0110
0000
0000
1000
0100
0000
,
0010
0110
0000
1001
,
1100
0000
1000
0100
0000
1000
0100
0010
,
0001
0000
0000
0100
0000
0000
0110
0000
,
0101
0000
1000
0000
0000
0001
0100
0000
,
0010
0110
0000
1001
,
0101
0000
0001
0100
0000
0001
0100
0010
,
1000
0000
0000
0100
0000
0000
0010
0000
,
0001
0000
1001
0000
0000
0001
0100
0001
,
0000
0000
0101
0000
0000
1000
0100
1000
,
0000
0000
1100
0000
0100
1000
0000
0001
,
0000
0000
0100
0001
0000
0010
0000
0100
,
0010
0010
0100
0100
,
1000
0001
1000
0001
,
0110
0000
1001
0000
0000
1010
0000
0000
,
0022
0000
0000
0033
,
0010
0010
0100
0100
,
1000
0001
1000
0001
,
0110
0000
1001
0000
0000
1010
0000
0000
,
0011
0000
0000
0001
0010
0001
0010
1000
,
0010
0000
0110
0000
1000
0100
1000
0000
,
0001
0100
0110
1010
,
0100
0000
1000
0100
0000
1000
0100
0010
,
0001
0000
0000
0101
0000
0000
0001
0000
,
1001
0000
1000
0000
0001
0100
0001
0000
,
1000
0100
0110
0011
,
0100
0000
0001
0100
0000
0001
0100
0010
,
1000
0000
0000
1100
0000
0000
1000
0000
,
0001
0100
1000
0100
0001
0000
0010
0000
,
0100
0101
1100
0001
,
1000
0100
0001
0100
1000
0000
0010
0000
,
0100
0010
1010
0011
,
1000
0000
1001
0000
0000
1000
0100
0001
,
0000
0000
0110
0000
0000
1000
0010
0001
,
0000
0000
0010
0000
1000
0001
0000
1001
,
0000
0000
0100
0010
0000
0100
0000
0110
,
0000
0000
0000
0000
;

//---------------dance-single - ----------------
#NOTES:
     dance-single:
     :
     Challenge:
     12:
     :
0000
0000
0000
0000
,
0000
0000
0000
0000
,
0000
0000
0000
0000
,
0000
0000
0000
0000
,
0000
0000
0000
0000
,
1000
0010
0100
0010
0001
0010
1000
0001
,
0000
0010
0001
0100
0000
0010
1000
0100
,
0000
1000
0001
0010
0000
0001
1000
0100
,
0000
1000
0010
0100
0001
0010
0001
1000
,
0100
0000
1000
0001
0010
0001
0010
0100
,
1001
1000
0010
0100
0001
0010
1000
0000
,
0101
0001
0010
0100
1000
0010
0100
0000
,
0001
1000
0100
1000
0010
0100
0001
0010
,
0200
0000
1300
0010
1000
0001
0010
0100
,
1100
0010
0001
0100
0001
1000
0010
0000
,
1010
1000
0001
0010
0001
1000
0100
0020
,
0000
0031
1000
0000
0011
0001
0010
0100
,
2000
0001
3001
0000
0110
0100
0001
1000
,
0000
0010
1000
0100
1000
0001
0010
0100
,
0000
0010
0001
0100
0001
1000
0010
0100
,
0000
0100
0001
1000
0010
0001
0010
2000
,
0000
0100
3100
0010
0000
0001
1000
0020
,
0000
1000
1030
0100
0001
0100
0010
0002
,
0000
0103
0001
0010
0000
0001
1000
0100
,
0010
0100
0010
0001
1000
0010
1000
0001
,
0010
0100
1000
0010
1000
0001
1000
0100
,
0110
0000
0001
0100
0001
1000
0100
0000
,
1010
0000
0010
1000
0001
1000
0100
0000
,
0011
0000
1000
1100
0000
0010
0100
0001
,
0010
1000
0010
0001
0100
0010
1000
0000
,
0101
0000
0010
0001
1000
0010
1000
0100
,
1001
0000
0010
0001
0100
0010
1000
0000
,
1100
0000
0010
0101
0000
0001
1000
0010
,
1000
0100
0010
0001
0100
0010
1000
0000
,
1001
0100
0010
0001
0100
0010
0010
0010
,
1000
0100
1000
0001
0100
0010
0010
0010
,
1000
0001
0110
0000
1010
0001
1000
0100
,
0010
0000
0011
0001
1000
0010
1000
0001
,
0010
0010
0100
0100
,
1000
0001
1000
0001
,
0011
0000
1100
0000
1000
0001
1000
0000
,
0110
0001
0100
0010
0000
1000
0010
0100
,
0010
0010
0100
0100
,
1000
0001
1000
0001
,
1010
0000
0101
0000
0001
1000
0001
0000
,
1001
0100
0010
1000
0010
1000
0001
0100
,
0010
0001
0010
1000
0100
0001
0100
0010
,
1000
0010
0001
0100
1000
0100
0001
0000
,
0101
0000
1000
0110
0000
0001
0010
0100
,
1000
0010
1000
0001
0010
0100
1000
0000
,
1010
0001
1000
0100
0010
0001
0100
0000
,
0011
0100
0001
0010
0001
1000
0100
0000
,
1001
0000
0100
1100
0000
1000
0010
0001
,
0010
1000
0100
0010
0001
0100
1000
0000
,
0011
0000
0001
0100
1000
0010
1000
0001
,
0010
0001
0100
0010
1000
0001
0100
0000
,
0101
0001
1000
0010
0100
0010
1000
0001
,
0010
0100
0010
0001
1000
0001
0100
0000
,
1001
0000
0010
1000
0001
0100
0100
0100
,
0010
0000
1000
0001
1000
0100
0100
0200
,
0000
1300
2010
0000
0001
3001
1000
0010
,
1000
0000
1100
0001
0010
0001
0100
0010
,
0000
1000
0001
1000
0000
0010
0100
0110
;

//---------------dance-double - ----------------
#NOTES:
     dance-double:
     :
     Easy:
     3:
     :
00000000
00000000
00000000
00000000
,
00000000
00000000
00000000
00000000
,
00000000
00000000
00000000
00000000
,
00000000
00000000
00000000
00000000
,
00000000
00000000
00000000
00000000
,
10000000
00000000
00100000
00000000
,
01000000
00000000
00010000
00000000
,
00100000
00000000
00001000
00000000
,
00010000
00000000
00000010
00000000
,
00000000
00001000
00000000
00000000
,
00001001
00000000
00000000
00000001
,
00000000
00001000
00000000
00000100
,
00000000
00010000
00000000
00001000
,
00000000
01000000
00000000
00000000
,
01100000
00000000
00000000
00100000
,
00000000
10000000
00000000
00010000
,
00000000
00100000
00000000
00001000
,
00000000
00010000
00000000
00000010
,
00001000
00000000
00000001
00000000
,
00001000
00000000
00000100
00000000
,
00010000
00000000
00001000
00000000
,
00011000
00000000
00000000
00010000
,
00001000
00000000
01000000
00000000
,
00100000
00000000
10000000
00000000
,
01000000
00000000
00000000
00100000
,
00100000
00000000
00001000
00000000
,
00010000
00000000
00000000
00000100
,
00001000
00000000
00000000
00000001
,
00000000
00000000
00000100
00000000
,
00001000
00000000
00010000
00000000
,
00011000
00000000
00000000
00001000
,
01000000
00000000
00000000
00100000
,
00000000
00000000
10000000
00000000
,
01000000
00000000
00100000
00000000
,
01100000
00000000
00100000
00000000
,
00001000
00000000
00010000
00000000
,
00000100
00000000
00001000
00000000
,
00000001
00000000
00001001
00000000
,
00000020
00000030
00000200
00000300
,
00001000
00000001
00001000
00000001
,
00001001
00000000
00000100
00000000
,
00011000
00000000
00100000
00000000
,
00200000
00300000
02000000
03000000
,
10000000
00010000
10000000
00010000
,
10010000
00000000
01000000
00000000
,
00011000
00000000
00000000
00000000
,
00010000
00000000
00000000
00000100
,
00000010
00000000
00000000
00000001
,
00000000
00000000
00000100
00000000
,
00001000
00000000
00010000
00000000
,
00011000
00000000
00000000
01000000
,
00100000
00000000
00000000
10000000
,
00000000
00000000
01000000
00000000
,
00010000
00000000
00001000
00000000
,
00011000
00000000
00001000
00000000
,
00010000
00000000
00000000
00000000
,
00000100
00000000
00000010
00000000
,
00000100
00000000
00000000
00000000
,
00010000
00000000
00000000
00001000
,
00010000
00000000
00000000
01000000
,
00100000
00000000
00010000
00000000
,
10000000
00000000
01000000
00010000
,
00001000
00000000
00000000
00000000
,
00000000
00000000
00000000
00000000
;

//---------------dance-double - ----------------
#NOTES:
     dance-double:
     :
     Medium:
     6:
     :
00000000
00000000
00000000
00000000
,
00000000
00000000
00000000
00000000
,
00000000
00000000
00000000
00000000
,
00000000
00000000
00000000
00000000
,
00000000
00000000
00000000
00000000
,
00010000
10000000
00010000
01000000
,
00000000
00001000
00000000
00010000
00000000
00001000
00000000
00000000
,
00010000
00000100
00001000
00000100
,
00000000
00000010
00000000
00000001
00000000
00000010
00000000
00000000
,
00000001
00000100
00000010
00000010
,
00000000
00010000
00001000
00001000
,
00000000
00100000
00010000
00010000
,
10000000
00000000
01000000
00000000
00100000
00010000
00100000
00000000
,
00001000
00010000
00000100
00000100
,
00000000
00001000
00000010
00000010
,
00000000
00000100
00000001
00000001
,
00000100
00000000
00001000
00000000
00010000
00001000
00010000
00000000
,
01000000
00000000
10000000
00000000
00100000
01000000
00100000
00000000
,
20000000
00010000
30010000
00000000
,
00200000
00001000
00301000
00000000
,
00020000
00000100
00030100
00000000
,
00001100
00002200
00000000
00003300
,
00000002
00000100
00000103
00000000
,
00000020
00001000
00001030
00000000
,
00000200
00010000
00010300
00000000
,
00010000
00010000
00001000
00001000
,
00200000
00300000
01000000
10000000
,
02000000
03000000
00010000
00001000
,
00000200
00000000
00000300
00000000
00000001
00000010
00000001
00000000
,
00000200
00000000
00000300
00000000
00001000
00010000
00001000
00000000
,
02000000
03000000
00010000
10000000
,
02000000
03000000
00010000
00001000
,
00000200
00000000
00000300
00000000
00000010
00001000
00000010
00000000
,
00000200
00000000
00000300
00000000
00000001
00001000
00000001
00000000
,
00000100
00000000
00000000
00000000
00000000
00000010
00001000
00000010
,
00000000
00000000
00010000
00000000
00000000
00001000
00010000
00001000
,
00000000
01000000
00100000
10000000
,
00010000
00000000
00100000
01000000
,
00100000
00100000
01000000
01000000
,
10000000
00010000
10000000
00010000
,
02000000
00000000
03001000
00000000
00000000
00010000
00000000
00000000
,
00000200
00000000
00000000
00000300
,
00000010
00000010
00000100
00000100
,
00001000
00000001
00001000
00000001
,
00000200
00000000
00000310
00000000
00000000
00010000
00000000
00000000
,
00011000
00000000
00000000
00001000
00010000
00000000
00001000
00000000
,
00010000
01000000
10000000
00000000
,
00010000
00100000
00001000
00000000
,
00010000
00000010
00001000
00000000
,
00000002
00000003
00001000
00000100
,
00001000
00000010
00000100
00000000
,
00000001
00000100
00001000
00000000
,
00010000
01000000
10000000
00000000
,
00200000
00300000
10000000
01000000
,
00100000
00000000
00001000
00010000
00001000
00000000
00000000
00000000
,
00010000
00000000
00000100
00001000
00000100
00000000
00000000
00000000
,
00001000
00000000
00000001
00000100
00000001
00000000
00000000
00000000
,
00000100
00000000
00000010
00010000
00000010
00000000
00000000
00000000
,
00010000
00000000
00000000
00000000
00000000
00001000
00010000
01000000
,
00000000
00000000
00000000
00000000
00000000
10000000
00010000
01000000
,
00000000
00000000
00001000
00000000
00010000
00000100
00000000
00001000
,
00000000
00000000
00000010
00000100
00000000
00000001
00000000
00001000
,
00000000
00000000
00000000
00000000
;

//---------------dance-double - ----------------
#NOTES:
     dance-double:
     :
     Hard:
     8:
     :
00000000
00000000
00000000
00000000
,
00000000
00000000
00000000
00000000
,
00000000
00000000
00000000
00000000
,
00000000
00000000
00000000
00000000
,
00000000
00000000
00000000
00000000
,
10000000
00000000
00100000
00000000
00100000
00000000
10000000
01000000
,
00000000
00010000
00000000
00001000
00000000
00000100
00000000
00001000
,
00000000
00010000
00000000
00001000
00000000
00000100
00000000
00000001
,
00000000
00000010
00000000
00000001
00000000
00000100
00000000
00000000
,
00000000
00000000
00000001
00000100
00000001
00000100
00001000
00010000
,
01000000
00000000
00100000
00000000
00000000
01000000
10000000
00000000
,
01000000
00000000
01100000
00000000
00000000
00010000
00000000
00000000
,
01000000
00000000
00001000
00000000
00011000
00000000
00001000
00000100
,
00000000
00000000
00000010
00001000
00000010
00001000
00000001
00000100
,
00001000
00000000
00010000
00000000
00000000
00001000
00010000
00000000
,
01000000
00000000
01100000
00000000
00000000
01000000
10000000
01000000
,
00000000
00100000
00010000
01000000
,
00022000
00000000
00000000
00000000
00033000
00000000
00010000
00000010
,
00000000
00000000
00001000
00000000
00001000
00000000
00000001
00000100
,
00000000
00000000
00000010
00000000
00000010
00000000
00010000
00001000
,
00000000
00000000
00010000
00000000
00010000
00000000
01000000
00100000
,
00000000
10010000
00000000
00000000
00000000
10000000
01000000
10000000
,
00000000
00000000
00010000
00000000
00100000
00001000
00100000
00001000
,
00000000
00000000
00010000
00001000
00000000
00010000
00000000
00000100
,
00000010
00000000
00000101
00000000
00000101
00000000
00000010
00001000
,
00000000
00000100
00000000
00010000
00001000
00010000
00001000
00010000
,
00001000
00000000
00100000
00000000
00000000
01000000
10000000
00000000
,
00100000
01010000
00000000
00011000
,
00001100
00000000
00001000
00000100
00000000
00001000
00000100
00000010
,
00000001
00000000
00000000
00000100
00000000
00000000
00000010
00000000
,
00010000
00000000
00011000
00000000
00000000
00001000
00010000
00000000
,
00100000
10000000
00000000
11000000
,
11000000
00000000
00010000
01000000
00000000
00010000
01000000
00100000
,
10000000
00000000
00000000
01000000
00000000
00000000
00010000
00000000
,
00001000
00000000
00011000
00000000
00000000
00000100
00001000
00000100
,
00000000
00000000
00001100
00000000
00000000
00000001
00000100
00000001
,
00000000
00000000
00000101
00000000
00000100
00000010
00000000
00010000
,
00000000
00000000
00001000
00010000
00000000
01000000
00000000
10000000
,
00100000
00100000
01000000
01000000
,
10000000
00010000
10000000
00010000
,
00110000
00000000
00011000
00000000
00000000
00001010
00000000
00000000
,
00000022
00000000
00000000
00000033
,
00000010
00000010
00000100
00000100
,
00001000
00000001
00001000
00000001
,
00001100
00000000
00011000
00000000
00000000
01010000
00000000
00000000
,
10010000
00000000
00000000
10000000
01000000
10000000
01000000
10000000
,
01000000
00000000
00100000
00000000
01000000
10000000
00010000
00000000
,
01000000
00001000
00011000
00011000
,
00010000
00000000
00000100
00001000
00000000
00000100
00001000
00000001
,
00000010
00000000
00000000
00000001
00000000
00000000
00000100
00000000
,
00000110
00000000
00010000
00000000
00001000
00010000
00001000
00000000
,
00100000
01000000
11000000
11000000
,
00010000
00000000
01000000
00001000
00000000
01000000
00001000
00010000
,
00000100
00000000
00000000
00001000
00000000
00000000
00000100
00000000
,
00001000
00000010
00000100
00000001
00000010
00000000
00000100
00000000
,
00010000
00011000
01010000
00010000
,
10000000
00100000
01000000
00010000
00100000
00000000
01000000
00000000
,
10000000
00100000
01100000
00110000
,
00022000
00000000
00033000
00000000
00000000
00010000
00001000
00000100
,
00000000
00000000
00001100
00000000
00000000
00001000
00010000
01000000
,
00000000
00000000
01010000
00000000
01000000
00100000
00000000
01100000
,
00000000
00000000
00100000
00001000
00000000
00010000
00000000
00011000
,
00000000
00000000
00000000
00000000
;
