#TITLE:24K Magic;
#SUBTITLE:;
#ARTIST:Bruno Mars;
#TITLETRANSLIT:;
#SUBTITLETRANSLIT:;
#ARTISTTRANSLIT:;
#GENRE:;
#CREDIT:;
#BANNER:24K Magic-bn.png;
#BACKGROUND:24K Magic-bg.png;
#LYRICSPATH:;
#CDTITLE:;
#MUSIC:24K Magic.ogg;
#OFFSET:1.333333;
#SAMPLESTART:23.337000;
#SAMPLELENGTH:20.000000;
#LASTBEATHINT:0.594499;
#SELECTABLE:YES;
#DISPLAYBPM:107.000000;
#BPMS:0.000000=107.010002
;
#STOPS:143.500000=0.050000
;
#BGCHANGES:;
#KEYSOUNDS:;
#ATTACKS:;

//---------------dance-single - X Scale 13----------------
#NOTES:
     dance-single:
     :
     Hard:
     13:
     0.543086,0.679145,0.541877,0.118536,0.512243,449.000000,385.000000,64.000000,14.000000,0.000000,0.000000,0.543086,0.679145,0.541877,0.118536,0.512243,449.000000,385.000000,64.000000,14.000000,0.000000,0.000000:
// measure 0
0000
0000
0000
0000
,  // measure 1
0000
0000
0000
0000
,  // measure 2
0000
0000
0000
0000
,  // measure 3
0000
0000
0000
0000
,  // measure 4
0000
0000
0000
0000
,  // measure 5
0000
0000
0000
0000
,  // measure 6
0000
0000
0000
0000
,  // measure 7
0000
0000
0000
0000
,  // measure 8
0000
0000
0000
0000
,  // measure 9
0000
0000
0000
0000
,  // measure 10
0000
0020
0000
0000
,  // measure 11
1000
1000
0000
0000
1000
1000
0000
0000
1000
1000
0000
0000
1000
1030
0000
0000
,  // measure 12
1001
0000
0000
0000
1000
0010
1000
0000
0001
0010
0001
0000
0100
0010
0100
0000
,  // measure 13
0101
0000
0000
2100
0000
0000
0000
0000
0001
0000
0001
0000
3001
0000
1000
0010
,  // measure 14
0100
0000
0000
0100
0001
1000
0001
0000
1000
0010
1000
0000
0010
0100
0010
0000
,  // measure 15
1000
0001
0100
0000
0100
0000
0100
0000
0010
0000
0010
0000
1000
0000
0001
0000
,  // measure 16
0012
0000
0000
0203
0000
0000
0010
0000
0310
0000
0100
0000
0001
0000
1000
0000
,  // measure 17
1010
0000
0000
0110
0000
0000
0000
0000
1000
0000
0001
0100
0000
0001
1000
0000
,  // measure 18
1100
0000
0011
0000
0100
0001
0100
0000
0001
1000
0001
0000
1000
0100
1000
0000
,  // measure 19
1001
0000
0000
0000
0100
0010
0100
0000
1001
0000
0010
0000
0010
0000
0010
0000
,  // measure 20
1010
0101
0001
1000
1100
0011
0100
0010
,  // measure 21
1000
0000
1000
0000
1000
0000
1000
0001
0100
0000
0110
0000
1001
0000
0001
0100
,  // measure 22
1000
0000
1100
0000
0101
0000
0010
0100
0001
0000
0011
0000
1010
0000
0010
0100
,  // measure 23
0010
1000
0100
1000
0001
0100
0000
0020
0000
0000
0100
0000
0130
0010
1000
0000
,  // measure 24
0001
1000
0000
0010
0100
0000
0000
0000
0010
1000
0000
0100
0001
0000
0000
0000
,  // measure 25
1000
0001
0010
0000
0001
0000
0100
0010
2000
0000
0001
0000
3001
0000
0100
0000
,  // measure 26
0101
0000
1001
0000
1100
0000
1001
0000
0010
0000
1000
0001
0000
0001
1000
0100
,  // measure 27
1000
0010
0100
0010
1000
0000
0001
0100
0001
0000
0000
0000
0110
0000
0000
0000
,  // measure 28
1001
0000
0000
0000
2100
0000
0000
0000
3001
0000
0101
0000
1100
0000
0010
0100
,  // measure 29
0010
1000
0001
0200
0000
0000
0301
0100
0001
0010
0001
0010
0100
1000
0100
1000
,  // measure 30
0010
0000
0102
0000
1003
1100
0101
0000
,  // measure 31
1000
0100
1000
0100
0010
0001
0010
0001
0100
0010
0100
0010
1000
0001
1000
0001
,  // measure 32
0010
0000
0000
0000
0021
0000
0000
0000
0130
0000
0110
0000
0011
0000
0001
1000
,  // measure 33
0100
0000
1000
0001
0100
0000
0010
0100
0010
0100
0001
0010
0100
1000
0100
0010
,  // measure 34
0001
0000
0000
0000
1001
0000
1000
0100
0010
0100
1000
0000
0001
0000
0000
0000
,  // measure 35
1000
1000
0000
0000
0100
0100
0000
0000
0010
0010
0000
0000
0001
0001
0000
0000
,  // measure 36
1001
0000
0000
0000
1000
0001
1000
0000
0100
0001
0100
0000
0010
0001
0010
0000
,  // measure 37
0011
0000
0000
1020
0000
0000
0000
0000
0100
0000
0100
0000
0130
0000
0010
1000
,  // measure 38
0001
0000
0000
0001
0100
0010
0100
0000
0010
1000
0010
0000
1000
0001
1000
0000
,  // measure 39
0010
0001
1000
0000
1000
0000
1000
0000
0100
0000
0100
0000
0010
0000
0001
0000
,  // measure 40
0102
0000
0000
2003
0000
0000
0100
0000
3100
0000
1000
0000
0001
0000
0010
0000
,  // measure 41
0110
0000
0000
1100
0000
0000
0000
0000
1000
0000
0010
0100
0000
0010
1000
0000
,  // measure 42
1100
0000
0101
0000
0001
1000
0001
0000
0010
1000
0010
0000
0100
1000
0100
0000
,  // measure 43
1000
1100
0000
0000
0001
0101
0000
0000
1000
1010
0000
0000
0001
0011
0000
0000
,  // measure 44
1001
0000
0000
0000
1000
0100
1000
0100
0010
0100
0010
0100
0001
0100
0001
0100
,  // measure 45
1000
0100
0000
1000
0100
0000
0000
0000
0011
0000
0101
0000
1001
0000
0001
0010
,  // measure 46
0001
0000
0000
0000
1000
0010
1000
0010
0100
0010
0100
0010
0001
0010
0001
0010
,  // measure 47
1000
0010
0100
0000
0101
0000
0011
0000
1010
0000
1100
0000
1001
0000
0110
0000
,  // measure 48
1001
0000
0000
1000
0100
0000
0010
0000
0001
0000
0100
0000
0010
0000
1000
0000
,  // measure 49
0001
0010
0000
0001
0010
0000
0000
0000
1010
0000
1000
0100
0000
1000
0100
0000
,  // measure 50
1001
0000
0110
0000
0010
1000
0010
1000
0001
1000
0001
1000
0100
1000
0100
1000
,  // measure 51
0020
0000
0000
0000
1030
0001
0100
0000
0110
0000
0000
0000
1001
0000
0000
0000
;

//---------------dance-single - X Scale 9----------------
#NOTES:
     dance-single:
     :
     Medium:
     9:
     0.348349,0.416250,0.245538,0.110069,0.110069,288.000000,259.000000,29.000000,13.000000,0.000000,0.000000,0.348349,0.416250,0.245538,0.110069,0.110069,288.000000,259.000000,29.000000,13.000000,0.000000,0.000000:
0000
0000
0000
0000
,
0000
0000
0000
0000
,
0000
0000
0000
0000
,
0000
0000
0000
0000
,
0000
0000
0000
0000
,
0000
0000
0000
0000
,
0000
0000
0000
0000
,
0000
0000
0000
0000
,
0000
0000
0000
0000
,
0000
0000
0000
0000
,
0000
0020
0000
0000
,
1000
1000
1000
1030
,
1001
0000
0100
0010
1000
0010
0100
0001
,
0010
0000
0000
0010
0000
0000
0000
0000
1000
0000
0100
0000
1000
0000
0100
0000
,
1000
0000
0001
0100
0001
0010
0100
1000
,
0001
1000
0001
0000
1000
0000
0000
0000
0010
0000
0100
0000
0010
0000
0100
0000
,
0210
0000
0001
0000
1000
0000
0301
0100
,
1000
0000
0000
1000
0000
0000
0000
0000
0002
0000
0000
0100
0000
0000
0103
0000
,
0010
0010
1000
0000
0001
0000
0100
0000
,
2001
3100
1001
1001
,
0010
0010
1100
0000
0010
0010
0101
0000
,
1000
0000
0001
0000
0100
0000
0001
1000
0000
0000
0010
0000
0110
0000
0000
0000
,
1000
1000
0101
0000
0001
0001
1100
0000
,
0010
0000
0010
0000
1000
0001
0000
1000
0001
0000
0000
0000
1001
0000
0000
0000
,
0100
0100
0011
0000
0100
0100
1010
0000
,
1000
0100
1000
0000
0001
0000
0001
0000
0200
0000
0010
0000
0310
0000
0000
0000
,
1000
0100
1100
0000
0010
0001
0011
0000
,
0001
1000
0001
1000
0001
0000
0100
0000
0010
0000
0000
0000
0110
0000
0000
0000
,
1002
0000
0100
0000
1000
1000
1003
0000
,
0001
0100
0010
1000
0001
0010
0100
1000
,
2001
0000
0100
0000
0001
0001
3001
0000
,
1000
0100
0010
0001
1000
0010
0100
0001
,
1002
0000
0010
0000
1000
1000
1003
0000
,
1000
0001
0100
0010
0001
0100
0010
1000
,
1001
0000
0100
0000
0110
0010
1000
0000
,
1000
0100
0000
0000
1000
0100
0000
0000
0010
0001
0000
0000
0010
0001
0000
0000
,
1001
0000
0100
0001
0100
0010
1000
0001
,
0100
0000
0000
0100
0000
0000
0000
0000
0001
0000
1000
0000
0001
0000
1000
0000
,
0001
0000
1000
0100
0010
1000
0001
0100
,
0010
0100
0010
0000
0100
0000
0000
0000
0001
0000
1000
0000
0001
0000
1000
0000
,
1002
0000
0010
0000
1000
0000
0103
0001
,
0010
0000
0000
0010
0000
0000
0000
0000
0002
0000
0000
1000
0000
0000
1003
0000
,
0001
0001
0100
0000
0010
0000
1000
0000
,
0001
1000
0000
0000
1000
0100
0000
0000
0100
0010
0000
0000
0010
0001
0000
0000
,
1001
0000
1000
0100
0010
0100
0010
0001
,
1000
0000
0000
1000
0000
0000
0000
0000
0010
0000
0100
0000
0100
0000
0001
0000
,
1001
0000
0010
0100
1000
0010
0100
0001
,
1000
0100
1000
0000
0001
0000
0000
0000
0010
0000
0010
0000
0001
0000
0100
0000
,
0102
0000
0010
0000
0103
0000
0001
1000
,
0100
0000
0000
0100
0000
0000
0000
0000
2000
0000
0000
0001
0000
0000
3010
0000
,
1000
1000
0100
0100
0010
0010
0001
0001
,
1002
0013
1001
1001
;

//---------------dance-single - X Scale 5----------------
#NOTES:
     dance-single:
     :
     Easy:
     5:
     0.223766,0.328619,0.321739,0.211671,0.000000,185.000000,147.000000,38.000000,25.000000,0.000000,0.000000,0.223766,0.328619,0.321739,0.211671,0.000000,185.000000,147.000000,38.000000,25.000000,0.000000,0.000000:
0000
0000
0000
0000
,
0000
0000
0000
0000
,
0000
0000
0000
0000
,
0000
0000
0000
0000
,
0000
0000
0000
0000
,
0000
0000
0000
0000
,
0000
0000
0000
0000
,
0000
0000
0000
0000
,
0000
0000
0000
0000
,
0000
0000
0000
0000
,
0000
0000
0000
0000
,
1000
1000
1000
1000
,
1001
0100
0010
1000
,
0002
0003
0101
1100
,
1001
1000
0010
0001
,
0100
0100
0010
0010
,
2000
0100
0000
3100
,
0020
0030
1010
0011
,
0110
1000
0100
0001
,
1001
0000
1100
0101
,
1001
0010
1001
0100
,
0010
1000
0001
0100
,
0110
1000
0110
0001
,
1000
0100
0020
0030
,
0002
0103
2000
3010
,
0100
0010
0200
0310
,
1000
1000
0001
0001
,
1001
0010
0011
1100
,
0200
0000
0020
0300
,
1000
1000
0001
0031
,
2000
0000
0002
3000
,
0010
0010
0100
0103
,
0200
0000
0002
0300
,
0010
0010
1000
1003
,
2000
0000
0020
3000
,
1000
1000
1000
1030
,
1001
0010
0001
0100
,
2000
3000
1010
0101
,
1001
0010
0100
0001
,
0010
0010
0100
0100
,
0002
0010
0000
0013
,
0200
0300
1001
0110
,
1001
0100
0001
1000
,
1010
0011
1100
0101
,
1001
0100
1000
0001
,
0020
0031
1100
1010
,
1001
0100
1000
0010
,
2000
3200
0320
0032
,
0203
0001
1000
0310
,
0002
1003
0011
0101
,
1001
0100
0010
0001
,
0110
0000
1001
1001
;

//---------------dance-single - X Scale 2----------------
#NOTES:
     dance-single:
     :
     Beginner:
     2:
     0.095554,0.175263,0.093135,0.050801,0.000000,79.000000,68.000000,11.000000,6.000000,0.000000,0.000000,0.095554,0.175263,0.093135,0.050801,0.000000,79.000000,68.000000,11.000000,6.000000,0.000000,0.000000:
0000
0000
0000
0000
,
0000
0000
0000
0000
,
0000
0000
0000
0000
,
0000
0000
0000
0000
,
0000
0000
0000
0000
,
0000
0000
0000
0000
,
0000
0000
0000
0000
,
0000
0000
0000
0000
,
0000
0000
0000
0000
,
0000
0000
0000
0000
,
0000
0000
0000
0000
,
1000
0000
1000
0000
,
1001
0000
0000
0000
,
0010
0000
0100
0000
,
0001
0000
0000
0000
,
1000
0000
0100
0000
,
0002
0000
0003
0000
,
0100
0000
0010
0000
,
0110
0000
0000
0000
,
1001
0000
1001
0000
,
0100
0000
0100
0000
,
0001
0000
1000
0000
,
0010
0000
0010
0000
,
1000
0000
0001
0000
,
0001
0000
0001
0000
,
0010
0000
0100
0000
,
1000
0000
1000
0000
,
0100
0000
0010
0000
,
2000
0000
3000
0000
,
0100
0000
0100
0000
,
2000
0000
3000
0000
,
0010
0000
0010
0000
,
0002
0000
0003
0000
,
1000
0000
1000
0000
,
0001
0000
0100
0000
,
1000
0000
1000
0000
,
1001
0000
0000
0000
,
0010
0000
0100
0000
,
0010
0000
0000
0000
,
1000
0000
0001
0000
,
0020
0000
0030
0000
,
0100
0000
1000
0000
,
0110
0000
0000
0000
,
1000
0000
0001
0000
,
1001
0000
0000
0000
,
0010
0000
1000
0000
,
0100
0000
0000
0000
,
0001
0000
0010
0000
,
0200
0000
0300
0000
,
0100
0000
0010
0000
,
0110
0000
0000
0000
,
1001
0000
1001
1001
;
