#TITLE:20, november;
#SUBTITLE:;
#ARTIST:dj nagureo;
#TITLETRANSLIT:;
#SUBTITLETRANSLIT:;
#ARTISTTRANSLIT:;
#GENRE:;
#CREDIT:;
#BANNER:20, november-bn.png;
#BACKGROUND:20, november-bg.png;
#LYRICSPATH:;
#CDTITLE:;
#MUSIC:20, november.ogg;
#OFFSET:0.000000;
#SAMPLESTART:24.000000;
#SAMPLELENGTH:20.000000;
#SELECTABLE:YES;
#DISPLAYBPM:130.000000;
#BPMS:0.000000=130.000000
;
#STOPS:
;
#BGCHANGES:;
#KEYSOUNDS:;
#ATTACKS:;

//---------------dance-single - ----------------
#NOTES:
     dance-single:
     :
     Beginner:
     3:
     0.125970,0.165336,0.100776,0.000000,0.000000,70.000000,62.000000,8.000000,0.000000,0.000000,0.000000,0.125970,0.165336,0.100776,0.000000,0.000000,70.000000,62.000000,8.000000,0.000000,0.000000,0.000000:
0000
0000
0000
0000
,
0000
0000
0000
0000
,
0000
0000
0000
0000
,
0000
0000
0000
0000
,
0000
0000
0000
0000
,
1001
0000
0000
0000
,
1001
0000
0000
0000
,
1001
0000
0000
0000
,
0010
0000
0100
0000
,
1000
0000
1000
0000
,
0100
0000
0100
0000
,
0001
0000
0001
0000
,
0010
0000
0010
0000
,
1000
1000
0000
0000
,
1000
1000
0000
0000
,
1000
1000
0000
0000
,
1000
1000
0000
0000
,
0001
0001
0000
0000
,
0001
0001
0000
0000
,
0001
0001
0000
0000
,
0001
0001
0000
0001
,
0000
0001
0001
0000
,
0010
0010
0010
0000
,
1000
1000
1000
0000
,
0100
0100
0100
0000
,
0001
0001
0001
0000
,
0000
0000
1000
0000
,
0000
0000
0001
0000
,
0000
0000
1000
1000
,
1000
0000
1001
0000
,
0000
0000
1000
0000
,
0001
0000
1001
0000
,
0000
0000
1000
0000
,
0001
0000
0110
0000
,
0000
0000
0010
0000
,
0010
0000
0110
0000
,
0000
0000
0100
0000
,
0100
0000
1001
0000
;

//---------------dance-single - ----------------
#NOTES:
     dance-single:
     :
     Easy:
     6:
     0.242942,0.283432,0.163761,0.000000,0.000000,135.000000,122.000000,13.000000,0.000000,0.000000,0.000000,0.242942,0.283432,0.163761,0.000000,0.000000,135.000000,122.000000,13.000000,0.000000,0.000000,0.000000:
0000
0000
0000
0000
,
0000
0000
0000
0000
,
0000
0000
0000
0000
,
0000
0000
0000
0000
,
0000
0000
0000
0000
,
1001
0100
0001
0100
,
1001
0100
1000
0100
,
1001
0100
0001
0100
,
0100
0100
0010
1001
,
0001
0001
1000
1000
,
0100
0100
1001
1001
,
0001
0001
1000
1000
,
0010
0010
1100
1100
,
0001
0001
0001
0100
,
1000
1000
0001
0001
,
1000
1000
1000
0100
,
0010
0010
0001
0001
,
1000
1000
1000
0100
,
0001
0001
1000
1000
,
0001
0001
0001
0100
,
1000
0010
0001
0100
,
0000
0000
1001
0100
,
1000
0100
0001
1000
,
1000
0100
0001
1000
,
1000
0100
0001
1000
,
0100
0001
0110
0000
,
0100
0000
1001
0000
,
0010
0000
0110
0000
,
0100
0000
1001
0000
,
0100
0100
1000
0001
,
0100
0100
0001
1000
,
0100
0100
1000
0001
,
0010
0010
1000
0001
,
0010
0010
1000
0100
,
0001
0001
1000
1000
,
1000
1000
0001
0001
,
0001
0001
1000
1000
,
0010
0010
0100
0000
;

//---------------dance-single - ----------------
#NOTES:
     dance-single:
     :
     Medium:
     7:
     0.262737,0.283432,0.163761,0.000000,0.000000,146.000000,133.000000,13.000000,0.000000,0.000000,0.000000,0.262737,0.283432,0.163761,0.000000,0.000000,146.000000,133.000000,13.000000,0.000000,0.000000,0.000000:
0000
0000
0000
0000
,
0000
0000
0000
0000
,
0000
0000
0000
0000
,
0000
0000
0000
0000
,
0000
0000
0000
0000
,
1001
0100
0001
0100
,
1001
0100
1000
0100
,
1001
0100
0001
0100
,
0100
0100
0010
1001
,
0001
0001
1000
1000
,
0100
0100
1001
1001
,
0001
0001
1000
1000
,
0010
0010
1100
1100
,
0001
0000
0001
0000
0001
0100
1000
0000
,
1000
1000
0001
0001
,
1000
0000
1000
0000
1000
0100
0001
0000
,
0010
0010
0001
0001
,
1000
0000
1000
0000
1000
0100
0001
0000
,
0001
0001
1000
1000
,
0001
0000
0001
0000
0001
0100
1000
0000
,
1000
0010
0001
0100
,
0000
0000
1001
0100
,
1000
0000
0100
0000
0001
0100
1000
0000
,
1000
0000
0100
0000
0001
0100
1000
0000
,
1000
0000
0100
0000
0001
0100
1000
0000
,
0100
0001
0110
0000
,
0100
0000
1001
0000
,
0010
0000
0110
0000
,
0100
0000
1001
0000
,
0100
0100
1000
0001
,
0100
0100
0001
1000
,
0100
0100
1000
0001
,
0010
0010
1000
0001
,
0010
0010
1000
0100
,
0001
0000
0001
0100
1000
0000
1000
0000
,
1000
0000
1000
0100
0001
0000
0001
0000
,
0001
0000
0001
0100
1000
0000
1000
0000
,
0010
0000
0010
1000
0100
0000
0000
0000
;

//---------------dance-single - ----------------
#NOTES:
     dance-single:
     :
     Hard:
     10:
     0.408503,0.519626,0.403104,0.000000,0.050388,227.000000,195.000000,32.000000,0.000000,0.000000,0.000000,0.408503,0.519626,0.403104,0.000000,0.050388,227.000000,195.000000,32.000000,0.000000,0.000000,0.000000:
0000
0000
0000
0000
,
0000
0000
0000
0000
,
0000
0000
0000
0000
,
0000
0000
0000
0000
,
0000
0000
0000
0000
,
1001
0000
1000
0000
0001
0000
1000
0001
,
1001
0000
1000
0000
0001
0000
1000
0001
,
1001
0000
0001
0000
1000
0000
0001
1000
,
1001
0000
1000
0000
1000
0000
1000
1000
,
1001
1001
1000
1000
,
0001
0000
0001
0000
1010
0001
0100
0000
,
1001
1001
0001
0001
,
1000
0000
1000
0000
0011
1000
0100
0000
,
1000
0001
1000
0001
1000
0001
1000
0001
,
1000
0010
1000
0010
1000
0100
1000
1100
,
0001
1000
0001
1000
0001
1000
0001
1000
,
0001
1001
0001
1001
0001
1001
0010
1001
,
1000
0001
1000
0001
1000
0001
1000
0001
,
1000
0010
1000
0100
1000
0010
1000
1001
,
0001
0010
0001
0100
0001
0010
0001
0100
,
1001
0001
1000
0001
1001
0001
1000
0001
,
0000
0000
0000
0000
0000
0000
0000
0000
1000
0000
0000
1000
0000
0000
1000
0000
,
0000
1000
0000
0000
0100
0000
0010
0000
0001
0000
0000
0001
0000
0000
0001
0000
,
0000
0001
0000
0000
0100
0000
0010
0000
1000
0000
0000
1000
0000
0000
1000
0000
,
0000
1000
0000
0000
0100
0000
0010
0000
0001
0000
0000
0001
0000
0000
0001
0000
,
0000
0001
0000
0000
0100
0000
0010
0000
1000
0000
0100
0000
1000
0000
0100
0000
,
1000
0100
1000
0100
1000
0001
1000
0001
,
1000
0010
1000
0010
1000
0100
1000
0100
,
1000
0010
1000
0100
1000
0000
0001
0000
,
1000
0001
1000
1000
,
0001
0000
0011
1000
0100
0000
1000
0000
,
0001
0000
1010
0001
0100
0000
0001
0000
,
1000
0000
0011
1000
0101
0000
0010
0000
,
1000
0000
1100
0001
0101
0000
0010
0000
,
1000
0000
0101
0010
1100
0000
0001
0000
,
0100
0000
1010
0001
1100
0000
0001
0000
,
0100
0000
0011
0100
1001
0000
0100
0000
,
0100
0000
1001
0010
1100
0000
0000
0000
;

//---------------dance-double - ----------------
#NOTES:
     dance-double:
     :
     Easy:
     7:
     0.269936,0.330671,0.075582,0.000000,0.000000,150.000000,144.000000,6.000000,0.000000,0.000000,0.000000,0.269936,0.330671,0.075582,0.000000,0.000000,150.000000,144.000000,6.000000,0.000000,0.000000,0.000000:
00000000
00000000
00000000
00000000
,
00000000
00000000
00000000
00000000
,
00000000
00000000
00000000
00000000
,
00000000
00000000
00000000
00000000
,
00000000
00000000
00000000
00000000
,
10010000
01000000
00010000
01000000
,
00011000
00010000
00001000
00000100
,
00001001
00001000
00000001
00001000
,
00000110
00001000
00010000
01100000
,
10000000
10000000
01000000
01000000
,
00010000
00010000
00000100
00000100
,
00001000
00001000
01000000
01000000
,
00010000
00010000
00000100
00000100
,
00001000
00000000
00001000
00000000
00000010
00000001
00000100
00000000
,
00001000
00001000
00010000
00010000
,
00100000
00000000
00100000
00000000
10000000
01000000
00010000
00000000
,
00001000
00001000
00000010
00000010
,
00000001
00000000
00000001
00000000
00000100
00001000
00010000
00000000
,
00100000
00100000
10000000
10000000
,
01000000
00000000
01000000
00000000
00010000
00001000
00010000
00000000
,
00000001
00001000
00000100
00000100
,
00000000
00000000
00001001
00000100
,
00010000
00000000
01000000
00000000
10000000
01000000
00010000
00000000
,
00001000
00000000
00000100
00000000
00000001
00000100
00001000
00000000
,
00010000
00000000
01000000
00000000
10000000
01000000
00010000
00000000
,
00001000
00000100
00000001
00000010
,
00001000
00000100
00000001
00000010
,
00001000
00000100
00000001
00000010
,
00001000
00000100
00000001
00000010
,
00001000
00001000
00000001
00000001
,
00001000
00001000
00100000
00100000
,
10000000
10000000
01000000
01000000
,
00010000
00000000
00010000
00000000
00001000
00010000
00001000
00010000
,
00001000
00010000
00001000
00010000
00001000
00000000
00000100
00000000
,
00000001
00000000
00000001
00000100
00001000
00000000
00010000
00000000
,
00010000
00000000
00010000
01000000
10000000
00000000
10000000
00000000
,
10000000
00000000
10000000
01000000
00010000
00000000
00010000
00000000
,
00001000
00000000
00001000
00000001
00000100
00000000
00000000
00000000
;

//---------------dance-double - ----------------
#NOTES:
     dance-double:
     :
     Medium:
     10:
     0.403104,0.448768,0.365313,0.000000,0.050388,224.000000,195.000000,29.000000,0.000000,0.000000,0.000000,0.403104,0.448768,0.365313,0.000000,0.050388,224.000000,195.000000,29.000000,0.000000,0.000000,0.000000:
00000000
00000000
00000000
00000000
,
00000000
00000000
00000000
00000000
,
00000000
00000000
00000000
00000000
,
00000000
00000000
00000000
00000000
,
00000000
00000000
00000000
00000000
,
10010000
00000000
01000000
00000000
00010000
00000000
01000000
00010000
,
00011000
00000000
00010000
00000000
00001000
00000000
00000100
00000001
,
00001001
00000000
00001000
00000000
00000001
00000000
00001000
00000010
,
00000110
00000000
00001001
00000000
00010000
00000000
01100000
00010000
,
10010000
10010000
01000000
01000000
,
00010000
00000000
00010000
00000000
00000100
00001000
00000100
00000000
,
00001001
00001001
00000100
00000100
,
00010000
00000000
00010000
00000000
00000100
00000010
00000100
00000000
,
00000100
00000001
00000100
00000001
00000100
00000001
00000100
00000001
,
00000100
00000010
00000100
00000010
00001000
00000010
00001000
00000010
,
00001000
00010000
00001000
00010000
01000000
00010000
01000000
00010000
,
01000000
00100000
01000000
00100000
10000000
00100000
10000000
00100000
,
10000000
01000000
10000000
01000000
00100000
01000000
00100000
01000000
,
00100000
00010000
00100000
00010000
00001000
00010000
00001000
00010000
,
00001000
00000100
00001000
00000100
00001000
00000100
00001000
00000100
,
00001001
00000001
00001000
00000001
00001001
00000100
00001000
00010000
,
00000000
00000000
00000000
00000000
00000000
00000000
00000000
00000000
00001001
00000000
00000000
00000001
00000000
00000000
00000001
00000000
,
00000000
00000001
00000000
00000000
00000100
00000000
00001000
00000000
00011000
00000000
00000000
00010000
00000000
00000000
00010000
00000000
,
00000000
00010000
00000000
00000000
00100000
00000000
01000000
00000000
10010000
00000000
00000000
01000000
00000000
00000000
01000000
00000000
,
00000000
01000000
00000000
00000000
00010000
00000000
00001000
00000000
00000010
00000000
00000000
00000010
00000000
00000000
00000010
00000000
,
00000000
00000010
00000000
00000000
00000001
00000000
00000100
00000000
00001000
00000000
00000100
00000000
00001000
00000000
00000100
00000000
,
00001000
00010000
00001000
00010000
00100000
00010000
00100000
00010000
,
00100000
10000000
00100000
10000000
01000000
10000000
01000000
10000000
,
01000000
00010000
01000000
00010000
00001000
00000000
00000100
00000000
,
00000001
00000100
00000001
00000001
,
00000100
00000000
00001100
00010000
00001000
00000000
00010000
00000000
,
00010000
00000000
10100000
01000000
10000000
00000000
10000000
00000000
,
10000000
00000000
00110000
00001000
00011000
00000000
00000100
00000000
,
00000100
00000000
00000101
00001000
00001010
00000000
00001000
00000000
,
00010000
00000000
00011000
00010000
01010000
00000000
01000000
00000000
,
01000000
00000000
11000000
00010000
00011000
00000000
00000100
00000000
,
00000100
00000000
00000101
00001000
00011000
00000000
01000000
00000000
,
01000000
00000000
01100000
00010000
00011000
00000000
00000000
00000000
;

//---------------dance-double - ----------------
#NOTES:
     dance-double:
     :
     Hard:
     12:
     0.412102,0.543245,0.239343,0.125970,0.157462,229.000000,210.000000,19.000000,10.000000,0.000000,0.000000,0.412102,0.543245,0.239343,0.125970,0.157462,229.000000,210.000000,19.000000,10.000000,0.000000,0.000000:
00000000
00000000
00000000
00000000
,
00000000
00000000
00000000
00000000
,
00000000
00000000
00000000
00000000
,
00000000
00000000
00000000
00000000
,
00000000
00000000
00000000
00000000
,
01000000
00000000
00010000
00000000
00001000
00000000
00000100
00000001
,
00000100
00000000
00001000
00000000
00010000
00000000
01000000
10000000
,
01000000
00000000
00010000
00000000
00001000
00000000
00000100
00000001
,
00000100
00000000
00001000
00000000
00010000
00000000
01000000
10000000
,
01000000
00000000
00000000
00000000
01100000
00000000
00000000
00000000
10000000
01000000
00000000
00010000
01000000
00000000
10000000
00000000
,
01000000
00000000
00001000
00000000
00010000
00001000
00000000
00010000
00001000
00000000
00000010
00001000
00000010
00000000
00001000
00000000
,
01000000
00000000
00001000
00000000
00010000
00001000
00000000
00010000
00001000
00000000
00000010
00001000
00000010
00000000
00001000
00000000
,
01000000
00000000
00001000
00000000
00010000
00001000
00000000
00010000
00001000
00000000
00000010
00001000
00000010
00000000
00001000
00000000
,
01000000
00001000
01000000
00010000
01000000
00001000
01000000
00010000
,
00100000
00001000
00010000
00000010
00010000
00001000
00011000
00011000
,
00001000
00000100
00000001
00000100
00001000
00000100
00000001
00000100
,
00000010
00000110
00000100
00000110
00000010
00000110
00000100
00000110
,
00000010
00000001
00000010
00001000
00000010
00000001
00000010
00001000
,
00000010
00010000
00001000
00100000
00010000
00100000
00110000
00110000
,
00100000
10000000
00100000
00010000
00100000
10000000
00100000
00010000
,
10000000
10010000
00010000
10010000
10000000
10010000
00010000
10010000
,
10000000
00000000
10010000
00000000
00010000
00000000
10010000
00000000
00010000
00000000
00000000
00100000
00000000
00000000
00001000
00000000
,
00000000
00010000
00000000
00000000
00100000
00000000
00010000
00000000
00001000
00000000
00000000
00000100
00000000
00000000
00000001
00000000
,
00000000
00001000
00000000
00000000
00000010
00000000
00000001
00000000
00000010
00000000
00000000
00000100
00000000
00000000
00001000
00000000
,
00000000
00010000
00000000
00000000
01000000
00000000
00100000
00000000
10000000
00000000
00000000
00100000
00000000
00000000
00010000
00000000
,
00000000
10000000
00000000
00000000
01000000
00000000
00010000
00000000
01000000
00000000
00100000
00000000
00000000
00000000
00102000
00000000
,
00000000
00013000
00000000
00001000
00000100
00000010
00000000
00020010
,
00000000
00031000
00000000
00010000
01000000
00100000
00000000
00102000
,
00000000
00013000
00000000
00001000
00000100
00000001
00000100
00001000
,
00000100
00000001
00000100
00001000
00000200
00000000
00000000
00000002
,
00000000
00000000
00000303
00000000
00000010
00010000
00000000
00002000
,
00000000
00000000
00003000
00000000
00001000
00000000
00010000
00000000
01000000
00000000
00000000
10000000
00000000
00000000
00200000
00000000
,
00000000
00300000
00100000
01000000
00001000
00010000
00000100
00000010
,
00000001
00000000
00000000
00000100
00000000
00000000
00001000
00000000
00010000
00000000
00000000
01000000
00000000
00000000
20000000
00000000
,
00000000
00000000
30000000
00000000
10000000
00000000
00100000
00000000
00010000
00000000
00000000
00100000
00000000
00000000
02000000
00000000
,
00000000
00000000
03000000
00000000
00001000
00000000
00010000
00000000
00000100
00000000
00000000
00001000
00000000
00000000
00000020
00000000
,
00000000
00000000
00000030
00000000
00000100
00000000
00001000
00000000
00010000
00000000
00000000
00001000
00000000
00000000
00000100
00000000
,
00000000
00000000
00001001
00000000
;

//---------------dance-single - ----------------
#NOTES:
     dance-single:
     :
     Challenge:
     13:
     0.602856,0.677561,0.251940,0.302328,0.793611,335.000000,315.000000,20.000000,24.000000,0.000000,0.000000,0.602856,0.677561,0.251940,0.302328,0.793611,335.000000,315.000000,20.000000,24.000000,0.000000,0.000000:
// measure 0
0000
0000
0000
0000
,  // measure 1
0000
0000
0000
0000
,  // measure 2
0000
0000
0000
0000
,  // measure 3
0001
0000
0000
0000
0001
0000
2000
0000
0001
0000
3000
0000
0001
0000
0100
0010
,  // measure 4
0100
0010
1000
0002
0100
0003
0100
0000
,  // measure 5
1001
0000
0010
0000
0100
0000
0001
0010
0000
0010
0100
0000
0100
1000
0000
1000
,  // measure 6
0001
0000
0100
0000
0010
0000
1000
0100
0000
0100
0010
0000
0010
0001
0000
0001
,  // measure 7
1000
0000
0010
0000
0100
0000
0010
1000
0000
1000
0001
0000
0001
0100
0000
0100
,  // measure 8
0010
0000
1000
0000
0001
0000
1000
0000
0100
0010
0000
0001
0200
0000
0320
0000
,  // measure 9
0130
0000
0000
0000
0110
0000
0000
0000
0001
1000
0000
0001
1000
0000
0100
0000
,  // measure 10
0010
0000
0001
0000
0100
0010
0000
0100
0010
0000
0100
0010
0000
0100
0010
0000
,  // measure 11
1000
0000
0001
0000
0010
0100
0000
0010
0100
0000
0010
0100
0000
0010
0100
0000
,  // measure 12
1000
0000
0010
0000
0100
0001
0000
0100
0001
0000
0100
0001
0000
0100
0001
0000
,  // measure 13
1000
0010
0000
0100
0000
0001
0010
0200
0000
0000
0000
0000
0000
0000
0000
0000
,  // measure 14
1300
0001
0000
0100
0000
0010
1000
0002
0000
0000
0000
0000
0000
0000
0000
0000
,  // measure 15
0013
0001
0000
1000
0000
0100
1000
0020
0000
0000
0000
0000
0000
0000
0000
0000
,  // measure 16
1030
0001
0000
0010
0000
0100
1000
0020
0000
0000
0000
0000
0000
0000
0000
0000
,  // measure 17
1030
0001
0000
0100
0000
0001
0010
0200
0000
0000
0000
0000
0000
0000
0000
0000
,  // measure 18
0310
0100
0000
1000
0000
0001
0100
0020
0000
0000
0000
0000
0000
0000
0000
0000
,  // measure 19
1030
0001
0000
0010
0000
0001
1000
0200
0000
0000
0000
0000
0000
0000
0000
0000
,  // measure 20
1300
0010
0000
0100
0000
0001
1000
0002
0000
0000
1003
0010
1000
0000
0001
0010
,  // measure 21
0001
0000
1000
0100
0010
0001
0010
0100
1000
0000
0000
0001
0000
0000
0010
0000
,  // measure 22
0000
0001
0000
0000
0100
0000
0010
0000
1000
0000
0000
0100
0000
0000
1000
0000
,  // measure 23
0000
0010
0000
0000
0100
0000
0001
0000
0010
0000
0000
0100
0000
0000
1000
0000
,  // measure 24
0000
0010
0000
0000
1000
0000
0001
0000
0010
0000
0000
0001
0000
0000
1000
0000
,  // measure 25
0000
0001
0000
0000
0100
0000
0010
0000
1001
0000
0000
0000
0110
0000
1000
0100
,  // measure 26
1000
0000
0000
0000
0101
0000
0001
0010
0001
0000
0000
0000
0011
0000
0100
1000
,  // measure 27
0100
0000
0000
0000
1001
0000
0010
0100
0010
0000
0000
0000
0101
0000
0001
1000
,  // measure 28
0001
0000
0100
0000
0010
0000
1000
0000
0100
1000
0100
1000
0100
1000
0100
1000
,  // measure 29
0100
1000
0100
1000
0002
0000
0000
0000
0103
0000
0000
0000
1010
0000
0001
1000
,  // measure 30
0000
1000
0000
0010
1000
0010
0100
0000
0001
1000
0000
0000
1100
0000
0010
0100
,  // measure 31
0000
0100
0000
0001
1000
0001
0010
0000
0100
1000
0000
0000
0011
0000
0100
0001
,  // measure 32
0000
0001
0000
1000
0010
0100
0010
0000
1000
0100
0000
0000
1001
0000
0010
1000
,  // measure 33
0000
1000
0000
0001
0010
0001
0100
0000
0010
1000
0000
0000
0101
0000
0001
0010
,  // measure 34
0000
0001
0000
1000
0100
1000
0100
0000
0010
0100
0000
0000
1100
0000
0001
0010
,  // measure 35
0000
0001
0000
0100
0010
1000
0001
0000
1000
0001
0000
0000
1010
0000
0001
0100
,  // measure 36
0000
0010
0000
1000
0100
0010
0100
0000
1000
0001
0000
0000
0110
0000
0001
0010
,  // measure 37
0000
0100
0000
0010
0001
1000
0100
0000
0011
0000
1000
0000
0010
0000
2200
0000
,  // measure 38
0000
0300
0000
0000
3002
0000
0203
0000
0320
0000
2030
0000
3002
0000
0203
0000
,  // measure 39
0010
0000
0310
0000
1010
0100
0001
0012
,  // measure 40
1000
0000
0000
0000
1003
0000
0010
0100
0010
0000
1000
0000
0002
0000
0200
0000
,  // measure 41
0000
0300
0103
0010
0000
0000
0000
0000
;
