#TITLE:20, November;
#SUBTITLE:(CLUB 2P VER.);
#ARTIST:DJ nagureo;
#BANNER:20, November (CLUB 2P VER.)-bn.png;
#BACKGROUND:20, November (CLUB 2P VER.)-bg.png;
#JACKET:20, November (CLUB 2P VER.)-jacket.png;
#MUSIC:20, November (CLUB 2P VER.).ogg;
#SAMPLESTART:22.154;
#SAMPLELENGTH:20;
#DISPLAYBPM:130;
#BPMS:0=130;
#BGCHANGES:;

//---------------dance-single - ----------------
#NOTES:
     dance-single:
     :
     Beginner:
     2:
     :
0000
0000
0000
0000
,
0000
0000
0000
0000
,
0000
0000
0000
0000
,
0000
0000
0000
0000
,
0010
0000
0000
0000
,
0010
0000
0000
0000
,
0010
0000
0000
0000
,
0010
0000
0000
0000
,
0001
0000
0100
0000
,
0001
0000
0100
0000
,
1000
0000
0100
0000
,
1000
0000
0100
0000
,
0010
0000
0010
0000
,
0001
0000
0001
0000
,
0100
0000
0100
0000
,
1000
0000
1000
0000
,
0010
0000
0100
0000
,
0010
0000
0100
0000
,
0001
0000
1000
0000
,
0001
0000
0100
0000
,
0010
0000
1000
0000
,
0000
0000
0000
0000
,
0000
0000
0001
0000
,
0001
0000
1000
0000
,
1000
0000
0020
0000
,
0030
0000
0100
0000
,
0001
0000
0200
0000
,
0300
0000
0001
0000
,
1000
0000
0001
0000
,
0010
0000
0001
0000
,
0100
0000
1000
0000
,
1000
0000
1000
0000
,
0010
0000
2000
0000
,
3000
0000
0002
0000
,
0003
0000
0020
0000
,
0030
0000
0200
0000
,
0300
0000
2000
0000
,
3000
0000
0010
0000
,
0000
0000
0002
0000
,
0003
0000
0010
0000
,
0000
0000
0100
0000
;

//---------------dance-single - ----------------
#NOTES:
     dance-single:
     :
     Easy:
     6:
     :
0000
0000
0000
0000
,
0000
0000
0000
0000
,
0000
0000
0000
0000
,
0000
0000
0000
0000
,
1001
0100
0001
0100
,
1001
0100
1000
0100
,
1001
0100
0001
0100
,
0100
0100
0010
0100
,
0001
0001
1000
1000
,
0100
0100
0010
0010
,
0001
0001
1000
1000
,
0010
0010
1100
1100
,
0001
0001
0001
0100
,
1000
1000
0001
0001
,
1000
1000
1000
0100
,
0010
0010
0001
0001
,
1000
1000
1000
0100
,
0001
0001
1000
1000
,
0001
0001
0001
0100
,
1000
0010
0001
0100
,
0100
0100
0000
0000
,
0000
0000
0100
0000
,
0000
0000
1001
0100
,
1000
0100
0001
1000
,
1000
0100
1000
0001
,
0100
0100
0001
1000
,
0100
0100
1000
0001
,
0010
0010
1000
0001
,
0010
0010
1000
0100
,
0001
0001
1000
1000
,
1000
1000
0001
0001
,
0001
0001
1000
1000
,
0010
0010
0100
0000
;

//---------------dance-single - ----------------
#NOTES:
     dance-single:
     :
     Medium:
     7:
     :
0000
0000
0000
0000
,
0000
0000
0000
0000
,
0000
0000
0000
0000
,
0000
0000
0000
0000
,
1001
0100
0001
0100
,
1001
0100
1000
0100
,
1001
0100
0001
0100
,
0100
0100
0010
1001
,
0001
0001
1000
1000
,
0100
0100
1001
1001
,
0001
0001
1000
1000
,
0010
0010
1100
1100
,
0001
0000
0001
0000
0001
0100
1000
0000
,
1000
1000
0001
0001
,
1000
0000
1000
0000
1000
0100
0001
0000
,
0010
0010
0001
0001
,
1000
0000
1000
0000
1000
0100
0001
0000
,
0001
0001
1000
1000
,
0001
0000
0001
0000
0001
0100
1000
0000
,
1000
0010
0001
0100
,
0100
0100
0000
0000
,
0000
0000
0100
0000
,
0000
0000
1001
0100
,
1000
0000
0100
0000
0001
0100
1000
0000
,
1000
0100
1000
0001
,
0100
0100
0001
1000
,
0100
0100
1000
0001
,
0010
0010
1000
0001
,
0010
0010
1000
0100
,
0001
0000
0001
0100
1000
0000
1000
0000
,
1000
0000
1000
0100
0001
0000
0001
0000
,
0001
0000
0001
0100
1000
0000
1000
0000
,
0010
0000
0010
1000
0100
0000
0000
0000
;

//---------------dance-single - ----------------
#NOTES:
     dance-single:
     :
     Hard:
     10:
     :
0000
0000
0000
0000
,
0000
0000
0000
0000
,
0000
0000
0000
0000
,
0000
0000
0000
0000
,
1001
0000
1000
0000
0001
0000
1000
0001
,
1001
0000
1000
0000
0001
0000
1000
0001
,
1001
0000
0001
0000
1000
0000
0001
1000
,
1001
0000
1000
0000
1000
0000
1000
1000
,
1001
1001
1000
1000
,
0001
0000
0001
0000
1010
0001
0100
0000
,
1001
1001
0001
0001
,
1000
0000
1000
0000
0011
1000
0100
0000
,
1000
0001
1000
0001
1000
0001
1000
0001
,
1000
0010
1000
0010
1000
0100
1000
1100
,
0001
1000
0001
1000
0001
1000
0001
1000
,
0001
1001
0001
1001
0001
1001
0010
1001
,
1000
0001
1000
0001
1000
0001
1000
0001
,
1000
0010
1000
0100
1000
0010
1000
1001
,
0001
0010
0001
0100
0001
0010
0001
0100
,
1001
0001
1000
0001
1001
0001
1000
0001
,
0000
0000
0000
0000
0000
0000
0000
0000
1000
0000
0000
1000
0000
0000
1000
0000
,
0000
1000
0000
0000
0100
0000
0010
0000
0001
0000
0000
0001
0000
0000
0001
0000
,
0000
0001
0000
0000
0100
0000
0010
0000
1000
0000
0000
1000
0000
0000
1000
0000
,
0000
1000
0000
0000
0100
0000
0010
0000
0001
0000
0000
0001
0000
0000
0001
0000
,
0000
0001
0000
0000
0100
0000
0010
0000
1000
0000
0100
0000
1000
0000
0100
0000
,
1000
0100
1000
0100
1000
0001
1000
0001
,
1000
0010
1000
0010
1000
0100
1000
0100
,
1000
0010
1000
0100
1000
0000
0001
0000
,
1000
0001
1000
1000
,
0001
0000
0011
1000
0100
0000
1000
0000
,
0001
0000
1010
0001
0100
0000
0001
0000
,
1000
0000
0011
1000
0101
0000
0010
0000
,
1000
0000
1100
0001
0101
0000
0010
0000
,
1000
0000
0101
0010
1100
0000
0001
0000
,
0100
0000
1010
0001
1100
0000
0001
0000
,
0100
0000
0011
0100
1001
0000
0100
0000
,
0100
0000
1001
0010
1100
0000
0000
0000
;

//---------------dance-single - ----------------
#NOTES:
     dance-single:
     :
     Challenge:
     13:
     :
0000
0000
0000
0000
,
0000
0000
0000
0000
,
0000
0000
0000
0000
,
0000
0000
0000
0000
,
2100
0000
0000
0000
3001
0000
0100
0000
0010
1000
0000
0010
1000
0000
0001
0000
,
0012
0000
0000
0000
0103
0000
0010
0000
1000
0001
0000
1000
0001
0000
0100
0000
,
1010
0000
0000
1000
0001
0000
0020
0000
0000
0230
0000
0000
1300
0000
0001
0000
,
0101
0000
0000
0000
1001
0000
0000
0000
0110
0000
0000
0000
1000
0001
1000
0001
,
2000
0000
0000
0000
3010
0000
0200
0000
0001
0000
0000
0000
0301
0000
1000
0100
,
2000
0000
3010
0200
0001
0000
0301
0010
,
0200
0000
0000
0000
1300
0000
0002
0000
0010
0000
0000
0000
0013
0000
0001
0100
,
0001
0000
0010
0000
0100
0000
1000
0000
0010
0100
0010
0100
0010
0100
0010
0100
,
0010
0100
0000
0001
0000
1000
0100
2000
0000
0001
0000
0000
3001
0000
0100
0000
,
0010
0100
0000
0001
0000
1000
0010
2000
0010
0000
0000
0100
0000
0000
0000
0000
,
3001
0010
0000
0100
0000
1000
0001
2000
0000
0010
0000
0000
3010
0000
0100
0000
,
0001
1000
0000
0100
0000
0010
0001
0020
0000
1000
0000
0000
0031
0000
0100
0000
,
0010
1000
0000
0100
0000
1000
0001
2000
0000
0010
0000
0000
3001
0000
1000
0000
,
0100
0010
0000
0100
0000
1000
0001
2000
0000
0100
0000
0000
3100
0000
0010
0000
,
0001
1000
0000
0010
0000
0100
0001
0200
0000
1000
0000
0000
0010
0000
0000
0000
,
0301
1000
0000
0010
0000
1000
0100
2000
0000
0000
3001
0100
0001
0000
1000
0100
,
1000
0000
0010
0100
0010
0100
0010
0100
0010
0000
1000
0000
0100
0000
0010
0000
,
0001
0100
0001
0010
0100
1000
0010
1000
,
0100
0000
0010
0000
0001
0000
1001
0000
1001
0000
0100
0000
0010
1000
0000
0010
,
1000
0000
0100
0010
0000
0010
0001
0000
0100
0010
0100
0000
0001
1000
0000
0001
,
1000
0000
0100
0010
0000
0010
0001
0000
0102
0000
1000
0000
1003
0000
0010
2000
,
0000
0001
0000
3001
0100
0000
0010
0000
1000
0100
0000
0100
0010
0000
0010
0001
,
0000
0100
0000
0001
1000
0001
1000
0000
0010
1000
0000
0000
1100
0000
0002
0100
,
0000
0100
0000
0103
0001
0010
0001
0000
0010
0100
1000
0000
0001
0000
1000
0100
,
0000
1000
0000
0010
0100
0001
1000
0000
0100
1000
0001
0000
0001
0000
0100
0010
,
0000
0010
0000
0010
1000
0100
1000
0001
0000
0010
0100
0000
1000
0000
0010
0100
,
0000
0001
0000
0001
1000
0001
0010
0000
0100
2000
0000
0000
3001
0000
0100
0010
,
0000
1000
0000
0100
0010
0001
0100
0000
0001
1000
0100
0000
0100
0000
1000
0010
,
0000
0100
0000
0001
0010
0100
1000
0000
0110
0000
0001
0000
0100
0000
2010
0000
,
0000
3001
0100
0010
1001
0010
0100
0201
,
0000
1000
0000
0301
0012
0000
1003
2100
,
0000
0000
0001
0000
3001
0000
1000
0100
1000
0000
0010
0000
0100
0000
0002
0000
,
0010
0000
0000
0000
0013
0001
1000
0001
2000
0000
0000
0000
3010
0000
1200
0000
,
0000
0001
0000
0000
1300
0000
0000
0000
0021
0000
0000
0000
0031
0000
2000
0000
,
0000
0100
0000
0000
3100
0000
0000
1000
0002
0000
0100
0000
0103
0000
0010
0000
,
2010
0000
0000
0000
3001
0000
0010
0100
1000
0000
0010
0000
1000
0000
0001
0000
,
0102
0000
0000
0000
0103
0010
0100
0010
0100
0000
0000
0000
0000
0000
0000
0000
;

//---------------dance-double - ----------------
#NOTES:
     dance-double:
     :
     Easy:
     7:
     :
00000000
00000000
00000000
00000000
,
00000000
00000000
00000000
00000000
,
00000000
00000000
00000000
00000000
,
00000000
00000000
00000000
00000000
,
10010000
01000000
00010000
01000000
,
00011000
00010000
00001000
00000100
,
00001001
00001000
00000001
00001000
,
00000110
00001000
00010000
01100000
,
10000000
10000000
01000000
01000000
,
00010000
00010000
00000100
00000100
,
00001000
00001000
01000000
01000000
,
00010000
00010000
00000100
00000100
,
00001000
00000000
00001000
00000000
00000010
00000001
00000100
00000000
,
00001000
00001000
00010000
00010000
,
00100000
00000000
00100000
00000000
10000000
01000000
00010000
00000000
,
00001000
00001000
00000010
00000010
,
00000001
00000000
00000001
00000000
00000100
00001000
00010000
00000000
,
00100000
00100000
10000000
10000000
,
01000000
00000000
01000000
00000000
00010000
00001000
00010000
00000000
,
00000001
00001000
00000100
00000100
,
00000100
00000100
00000000
00000000
,
00000000
00000000
00000010
00000000
,
00000000
00000000
00001001
00000100
,
00010000
00000000
01000000
00000000
10000000
01000000
00010000
00000000
,
00001000
00000100
00000001
00000001
,
00001000
00001000
00100000
00100000
,
10000000
10000000
01000000
01000000
,
00010000
00010000
00000010
00000010
,
00000001
00000001
00001000
00000100
,
00000001
00000000
00000001
00000100
00001000
00000000
00010000
00000000
,
00010000
00000000
00010000
01000000
10000000
00000000
10000000
00000000
,
10000000
00000000
10000000
01000000
00010000
00000000
00010000
00000000
,
00001000
00000000
00001000
00000001
00000100
00000000
00000000
00000000
;

//---------------dance-double - ----------------
#NOTES:
     dance-double:
     :
     Medium:
     10:
     :
00000000
00000000
00000000
00000000
,
00000000
00000000
00000000
00000000
,
00000000
00000000
00000000
00000000
,
00000000
00000000
00000000
00000000
,
10010000
00000000
01000000
00000000
00010000
00000000
01000000
00010000
,
00011000
00000000
00010000
00000000
00001000
00000000
00000100
00000001
,
00001001
00000000
00001000
00000000
00000001
00000000
00001000
00000010
,
00000110
00000000
00001001
00000000
00010000
00000000
01100000
00010000
,
10010000
10010000
01000000
01000000
,
00010000
00000000
00010000
00000000
00000100
00001000
00000100
00000000
,
00001001
00001001
00000100
00000100
,
00010000
00000000
00010000
00000000
00000100
00000010
00000100
00000000
,
00000100
00000001
00000100
00000001
00000100
00000001
00000100
00000001
,
00000100
00000010
00000100
00000010
00001000
00000010
00001000
00000010
,
00001000
00010000
00001000
00010000
01000000
00010000
01000000
00010000
,
01000000
00100000
01000000
00100000
10000000
00100000
10000000
00100000
,
10000000
01000000
10000000
01000000
00100000
01000000
00100000
01000000
,
00100000
00010000
00100000
00010000
00001000
00010000
00001000
00010000
,
00001000
00000100
00001000
00000100
00001000
00000100
00001000
00000100
,
00001001
00000001
00001000
00000001
00001001
00000100
00001000
00010000
,
00001000
00010000
00001000
00010000
00000000
00000000
00000000
00000000
,
00000000
00000000
00000100
00000000
,
00000000
00000000
00001001
00000001
,
00000100
00000000
00000100
00000000
00010000
00100000
00100000
00000000
,
10000000
01000000
01000000
00000000
00010000
00000000
00001000
00000000
,
00000100
00000010
00000001
00000001
,
00000100
00000000
00001100
00010000
00001000
00000000
00010000
00000000
,
00010000
00000000
10100000
01000000
10000000
00000000
10000000
00000000
,
10000000
00000000
00110000
00001000
00011000
00000000
00000100
00000000
,
00000100
00000000
00000101
00001000
00001010
00000000
00001000
00000000
,
00010000
00000000
00011000
00010000
01010000
00000000
01000000
00000000
,
01000000
00000000
11000000
00010000
00011000
00000000
00000100
00000000
,
00000100
00000000
00000101
00001000
00011000
00000000
00000000
00000000
;

//---------------dance-double - ----------------
#NOTES:
     dance-double:
     :
     Hard:
     12:
     :
00000000
00000000
00000000
00000000
,
00000000
00000000
00000000
00000000
,
00002000
00000000
00000000
00023000
00000000
00000000
00030020
00000000
00000000
00002030
00000000
00000000
00003001
00000000
00000001
00000000
,
00000002
00000000
00000000
00000203
00000000
00000000
00000302
00000000
00000000
00002003
00000000
00000000
01003000
00000000
01000000
00000000
,
01100000
00000000
00001000
00100000
00010000
10000000
00100000
01000000
,
01010000
00000000
10000000
00100000
01000000
00010000
00001000
00000010
,
00000011
00000000
00000000
00000000
00000010
00000000
00000002
00000000
00000000
00002003
00000000
00000000
00003100
00000000
00010000
00000000
,
00011000
00000000
00000000
00000000
00100000
00000000
00000000
00000000
00000010
00000000
00000000
00000000
00010000
00001000
00010000
00001000
,
00020000
00000000
00000000
00000000
00000000
00000000
02030000
00000000
00000000
00000000
00000000
00000000
00000000
00000000
13000000
00100000
,
20000000
00000000
31000000
00120000
00000000
00000000
10030000
00100000
,
01002000
00000000
00000000
00000000
00000000
00000000
00203000
00000000
00000000
00000000
00000000
00000000
00000000
00000000
00310000
01000000
,
00010000
00000010
00000100
00001000
00000010
00000100
00000001
00001000
,
00000100
00000010
00000000
00000001
00000000
00001000
00000100
00002000
00000000
00000000
00000000
00000000
00000000
00000000
00000000
00000000
,
00103000
00001000
00000000
00100000
00000000
01000000
00010000
02000000
00000000
00000000
00000000
00000000
00000000
00000000
00000000
00000000
,
13000000
01000000
00000000
00010000
00000000
00100000
00001000
00200000
00000000
00000000
00000000
00000000
00000000
00000000
00000000
00000000
,
01300000
00100000
00000000
00001000
00000000
00000100
00000001
00000200
00000000
00000000
00000000
00000000
00000000
00000000
00000000
00000000
,
00010300
00000100
00000000
00001000
00000000
01000000
00010000
02000000
00000000
00000000
00000000
00000000
00000000
00000000
00000000
00000000
,
03100000
10000000
00000000
00010000
00000000
00100000
01000000
00200000
00000000
00000000
00000000
00000000
00000000
00000000
00000000
00000000
,
00301000
00010000
00000000
00000010
00000000
00001000
00000001
00002000
00000000
00000000
00000000
00000000
00000000
00000000
00000000
00000000
,
00003010
00010000
00000000
00000100
00000000
00000010
00000001
00000020
00000000
00000000
00001030
00000010
00001000
00000000
00100000
00000000
,
00010000
00000000
01000000
00000000
00010000
00000000
10000000
00000000
00100000
00000000
00000000
01000000
00020000
00000000
10000000
00000000
,
10030000
00000000
00000000
00000000
10010000
00000000
00000000
00000000
01000000
00000000
00000000
00001000
00020000
00000000
00000000
00000000
,
00000010
00000000
00000000
00000000
00030100
00000000
00011000
00000000
00011000
00000000
00000020
00000000
00000000
00000230
00000000
00000000
,
00000302
00000000
00000000
00002003
00000000
00000000
00003100
00000000
00001100
00000000
00020000
00000000
00000000
00032000
00000000
00000000
,
02003000
00000000
00000000
23000000
00000000
00000000
31000000
00000000
00010000
00000000
00100000
00000000
01000000
00000000
00000000
10000000
,
00000000
00010000
00000000
10000000
00100000
00000000
01000000
00000000
00000000
01100000
00000000
00000000
01001000
00000000
00000000
00001000
,
00000000
00000010
00000000
00001000
00010000
00000000
00000010
00000000
00000000
00001001
00000000
00000000
00010010
00000000
00000000
00000010
,
00000000
00000100
00000000
00000001
00001000
00000000
00000100
00000000
00010000
00001000
00000000
00000000
00101000
00000000
00000000
00001000
,
00000000
01000000
00000000
00010000
00100000
00000000
10000000
00000000
00100000
00010000
00000000
00000000
11000000
00000000
00000000
10000000
,
00000000
01000000
00000000
00010000
00001000
00000000
00000100
00000000
00000010
00001000
00000000
00001000
00000100
00000000
00000000
00000010
,
00000000
00000001
00000000
00001000
00000100
00000000
00010000
00000000
00000010
00000100
00000000
00000000
00001010
00000000
00000000
00001000
,
00000000
00000100
00000000
00010000
01000000
00000000
00100000
00000000
00001000
01000000
00000000
00000000
01010000
00000000
00000000
00100000
,
00000000
10000000
00000000
01000000
00100000
01000000
00100000
00000000
00120000
00000000
00000000
00000000
00030100
00000000
00000120
00000000
,
00000000
00000000
00001030
00000001
00001000
00000100
00000010
00020000
,
00000000
00000000
00130000
01000000
20000000
00000000
30100000
02000000
,
00000000
00000000
03000000
00000000
10010000
00000000
00001000
01000000
00001000
00000000
00000010
00000000
00000001
00000000
00000100
00000000
,
00000201
00000000
00001300
00000100
00000002
00000000
00001003
00000020
,
00000000
00000001
00000000
00000000
00010030
00000000
00000000
00000000
00010200
00000000
00000000
00000000
00001300
00000000
00020000
00000000
,
10000000
00000000
00031000
00000000
00201000
00000000
10300000
00100000
,
02100000
00000000
00000000
00000000
13000000
00000000
00010000
01000000
00010000
00000000
10000000
00000000
00100000
00000000
01000000
00000000
,
01010000
00000000
00000000
00000000
00100000
00010000
00100000
00010000
00100000
00000000
00000000
00000000
00000000
00000000
00000000
00000000
;

//---------------dance-double - ----------------
#NOTES:
     dance-double:
     :
     Challenge:
     14:
     :
00000000
00000000
00000000
00000000
,
00000000
00000000
00000000
00000000
,
00010010
00000000
00000000
00000110
00000000
00000000
00000101
00000000
00000000
00001010
00000000
00000000
00010000
00000000
00001000
00000000
,
01001000
00000000
00000000
01100000
00000000
00000000
10010000
00000000
00000000
11000000
00000000
00000000
00100000
00000000
01000000
00000000
,
01010000
00000000
00000000
00010000
00100000
00000000
01000000
00000000
10000000
00000000
00100000
00000000
10000000
00000000
00010000
00000000
,
00110000
00000000
00000000
00001000
00000010
00000000
00000001
00000000
00000100
00000000
00000010
00000000
00001000
00000000
00000100
00000000
,
00001001
00000000
00000000
00000100
00000010
00000000
00000001
00000100
00000000
00000100
00000010
00000000
00001000
00000000
00000100
00000000
,
00010100
00000000
00000000
00000000
10100000
00000000
00000000
00000000
00011000
00000000
00000000
00000000
00000001
00000010
00000001
00000010
,
00000200
00000000
00000000
00000000
00001300
00000000
00000020
00000000
00000100
00000000
00000000
00000000
00100030
00000000
00010000
01000000
,
00020000
00000000
10030000
02000000
00000100
00000000
03010000
01000000
,
00200000
00000000
00000000
00000000
00301000
00000000
00020000
00000000
00000100
00000000
00000000
00000000
00030001
00000000
00001000
00000010
,
00001000
00000000
00000100
00000000
00000010
00000000
00000001
00000000
00010000
00001000
00010000
00001000
00010000
00001000
00010000
00001000
,
00010000
00001000
00000000
01000000
00000000
00100000
10000000
00020000
00000000
00100000
00000000
00000000
01000000
00000000
01030000
00000000
,
10000000
00010000
00000000
00100000
00000000
00001000
00010000
00000200
00000001
00000000
00000000
00001000
00000000
00000000
00000000
00000000
,
00000310
00000100
00000000
00000001
00000000
00000100
00010000
00200000
00000000
10000000
00000000
00000000
01000000
00000000
01300000
00000000
,
00001000
00010000
00000000
01000000
00000000
10000000
00010000
02000000
00000000
00100000
00000000
00000000
03001000
00010000
00001000
00010000
,
00001000
00000010
00000000
00000100
00000000
00001000
00000001
00000200
00000000
00010000
00000000
00000000
00000010
00000000
00000310
00000000
,
00000100
00000001
00000000
00001000
00000000
01000000
00001000
00000020
00000000
00000001
00000000
00000000
00000100
00000000
00000130
00000000
,
00000010
00010000
00000000
00001000
00000000
10000000
01000000
00200000
00000000
10000000
00000000
00000000
00000010
00000000
00000000
00000000
,
00310000
00100000
00000000
00001000
00000000
01000000
00010000
20000000
00000000
00000000
31000000
00100000
01000000
00000000
10000000
00010000
,
10000000
00000000
01000000
00100000
01000000
10000000
00010000
10000000
00100000
00000000
01000000
00000000
00001000
00000000
01000000
00000000
,
10000000
01000000
00100000
01000000
10000000
01000000
00010000
01000000
,
00000100
00000000
01000000
00000000
00010000
00000000
10010000
00000000
10010000
00000000
00010000
00000000
00100000
00001000
00000000
00001000
,
00000010
00000000
00000010
00000001
00000000
00000001
00000100
00000000
00000010
00001000
00000100
00000000
00001000
00000001
00000000
00000001
,
00000100
00000010
00000100
00000001
00000000
00001000
00000100
00000000
00010000
00000100
00000010
00000000
00000011
00000000
00000001
00000100
,
00000000
00000010
00000000
00001000
00000100
00001000
00000001
00000000
00000100
00000010
00010000
00000000
00011000
00000000
00001000
01000000
,
00000000
00100000
00000000
10000000
00010000
10000000
01000000
00000000
00100000
00010000
00000000
01000000
00100000
00000000
10000000
01000000
,
00000000
00001000
00000000
00010000
01000000
00100000
00010000
00000000
01000000
00001000
00010000
00000000
00000001
00000000
00000010
00000100
,
00000000
00000010
00000000
00000001
00000100
00000010
00001000
00000001
00001000
00000100
00000000
00000010
00001000
00000000
00010000
00100000
,
00000000
10000000
00000000
00010000
01000000
00100000
10000000
01000000
00000000
10010000
00000000
00001000
00100000
00000000
01000000
10000000
,
00000000
01100000
00000000
00100000
10000000
00010000
10000000
01000000
00100000
00001000
00000100
00000000
00000101
00000000
00001000
00000001
,
00000000
00000011
00000000
00010000
00000010
00000100
00000001
00000000
00001000
00000100
00000010
00000000
00001001
00000000
00000100
00000010
,
00000000
00010010
00000000
01000000
10000000
00010000
01000000
00100000
10000000
00000000
01000000
00000000
00100000
00000000
10000000
00000000
,
00100000
01000000
00100000
00001000
00010000
00001000
00000100
00000001
,
00000010
00001000
00010000
10000000
01000000
00010000
01000000
00100000
,
00010000
00000000
01000000
00000000
00100000
00000000
10000000
01000000
10000000
00000000
00100000
00000000
01000000
00000000
00010000
00000000
,
00110000
00000000
00000000
00000000
00000100
00000010
00000100
00000010
00000200
00000000
00000000
00000000
00001300
00000000
00000001
00000000
,
00000010
00000100
00000010
00000000
00000011
00000000
00000000
00000000
00001200
00000000
00000000
00000000
00010300
00000000
00001000
00000000
,
01000000
00100000
01000000
00000000
01010000
00000000
00000000
00000000
01200000
00000000
00000000
00000000
00310000
00000000
00100000
00000000
,
10000000
01000000
10000000
00000000
00001000
00000000
00100000
00010000
00100000
00000000
01000000
00000000
10000000
00000000
00010000
00000000
,
10020000
00000000
00000000
00000000
10030000
01000000
00100000
00000010
00000100
00000000
00000000
00000000
00000000
00000000
00000000
00000000
;
