#VERSION:0.83;
#TITLE:100 Sec. Kitchen Battle!!;
#SUBTITLE:;
#ARTIST:Orange Lounge;
#TITLETRANSLIT:;
#SUBTITLETRANSLIT:;
#ARTISTTRANSLIT:;
#GENRE:;
#ORIGIN:;
#CREDIT:;
#BANNER:100 Sec. Kitchen Battle!!-bn.png;
#BACKGROUND:100 Sec. Kitchen Battle!!-bg.png;
#PREVIEWVID:;
#JACKET:100 Sec. Kitchen Battle!!-jacket.png;
#CDIMAGE:;
#DISCIMAGE:;
#LYRICSPATH:;
#CDTITLE:;
#MUSIC:100 Sec. Kitchen Battle!!.ogg;
#OFFSET:0.250000;
#SAMPLESTART:59.078999;
#SAMPLELENGTH:20.000000;
#SELECTABLE:YES;
#DISPLAYBPM:11.000000:178.000000;
#BPMS:0.000=178.000,
175.000=176.470,
176.000=89.000,
192.000=178.000,
260.000=11.000,
260.500=178.000;
#STOPS:;
#DELAYS:;
#WARPS:;
#TIMESIGNATURES:0.000=4=4;
#TICKCOUNTS:0.000=4;
#COMBOS:0.000=1;
#SPEEDS:0.000=1.000=0.000=0;
#SCROLLS:0.000=1.000;
#FAKES:;
#LABELS:0.000=Song Start;
#BGCHANGES:;
#KEYSOUNDS:;
#ATTACKS:
;

//---------------dance-single - ----------------
#NOTEDATA:;
#CHARTNAME:;
#STEPSTYPE:dance-single;
#DESCRIPTION:;
#CHARTSTYLE:;
#DIFFICULTY:Hard;
#METER:12;
#RADARVALUES:0.643142,0.843884,0.518354,0.249578,0.134388,469.000000,415.000000,54.000000,26.000000,0.000000,0.000000,0.000000,0.000000,0.000000,0.643142,0.843884,0.518354,0.249578,0.134388,469.000000,415.000000,54.000000,26.000000,0.000000,0.000000,0.000000,0.000000,0.000000;
#CREDIT:;
#DISPLAYBPM:11.000000:178.000000;
#NOTES:
0000
0000
0000
0000
,
0000
0000
0000
0000
,
0000
0000
0000
0000
,
0010
0000
0000
0010
0000
0000
0010
0000
0000
0010
0000
0000
0010
0000
0000
0000
,
1001
0000
0000
1000
0100
0001
0010
0100
,
0000
1000
0000
0010
2000
0000
3001
0000
,
1001
0000
0000
0001
0010
0100
1000
0001
,
0000
1000
0000
0010
0200
0000
0301
0000
,
0110
0000
0000
0010
1000
0010
0100
0001
,
0000
0010
0000
1000
0002
0000
0103
0000
,
0110
0000
0000
0010
1000
0100
0000
0001
,
0010
0100
0010
0100
1100
0000
0101
0000
,
1001
0000
1000
0010
1000
0100
0010
0001
,
0000
0100
0000
0001
0010
0100
1000
0000
,
1100
0000
0010
0001
0100
0001
1000
0020
,
0000
0230
0000
0302
0000
1003
0100
0000
,
0011
0000
0100
0010
0001
0100
0001
1000
,
0000
0010
0000
1000
0100
0010
0001
0000
,
0101
0000
0010
1000
0010
0100
0001
1000
,
0000
0000
0010
0000
0000
0000
1000
0001
1000
0000
0100
0000
0010
0000
0001
0000
,
1001
0000
1010
0001
1000
0100
0010
0001
,
0100
0000
0101
0010
1000
0001
1000
0100
,
0110
0000
0011
1000
0001
1000
0010
0100
,
0001
0000
1010
0010
1000
0100
0010
0001
,
1001
0000
1100
0001
1000
0010
1000
0100
,
0001
0000
0011
0100
0010
0001
1000
0010
,
0110
0000
0101
0010
1000
0100
1000
0001
,
0100
0000
1001
0000
0110
0000
0000
1000
,
1001
0000
0001
0100
0101
0000
1100
0000
,
0001
0100
0010
0100
1000
0100
0010
0100
,
0101
0000
1000
0001
0011
0000
1100
0000
,
1000
0100
0010
0100
0001
0100
0010
0100
,
1100
0000
0001
1000
1010
0000
0011
0000
,
1000
0010
0100
0010
0001
0010
0100
0010
,
1010
0000
0001
1000
1001
0000
0110
0000
,
0200
0000
0000
0000
0320
0000
0000
0000
0130
0000
0000
0001
1000
0000
0100
0000
,
1001
0000
0010
1000
0010
0100
0010
1000
,
0010
0001
0010
1000
0010
0001
0010
1000
,
1001
0000
0100
0010
0100
1000
0100
0001
,
0100
1000
0100
0010
0100
1000
0100
0001
,
0110
0000
0001
0100
0010
0100
1000
0100
,
0001
0100
1000
0100
0010
0100
1000
0100
,
0110
0000
0001
1000
0010
1000
0100
0010
,
0002
0000
0203
0000
0320
0000
2030
0000
3200
0000
0320
0000
,
0031
0100
1000
0100
0001
0000
1010
0000
0001
0010
1000
0010
0001
0000
0000
0000
,
1000
0010
0100
0010
1000
0100
0010
0100
2000
0000
3020
0000
0230
0000
0302
0000
,
1003
0100
0001
0100
1000
0000
0011
0000
1000
0010
0001
0010
1000
0000
0000
0000
,
0001
0100
0010
0100
0001
0010
0100
0010
0001
0000
0000
0000
1100
0000
0000
0000
,
0100
0010
0100
0001
1000
0010
0001
0000
,
0100
0010
1000
0001
0100
0000
0000
0000
,
0001
0010
0001
0100
0001
0010
0001
0100
,
0020
2030
3002
0203
,
0301
1000
0100
1000
0010
0001
0100
0000
,
0010
1000
0010
0100
0001
0000
0000
0000
,
0010
0100
1000
0100
0010
0100
1000
0100
,
0010
0000
0000
0000
0001
1000
0001
1000
0001
0000
0100
0000
0100
0000
0010
0000
,
1001
0000
1000
0010
0100
0100
0001
0010
,
0100
0100
1000
0001
0000
0010
0010
0001
,
0101
0000
1000
0010
0010
0100
0001
0000
,
0011
0101
1100
1010
,
1001
0000
0100
0010
0010
1000
0001
0010
,
0010
0100
1000
0001
0000
0100
0100
0010
,
0110
0000
0001
1000
1000
0100
0010
0000
,
0011
0000
0100
1000
0002
0000
0103
0010
,
1010
0000
0001
1000
1000
0010
0100
0000
,
1020
0000
2030
0000
0000
0002
0000
0000
0000
0000
0000
0000
0000
0000
0000
0000
,
0000
0000
0000
0000
0000
3000
0000
0000
,
0013
0000
0000
0000
0000
0000
0000
0001
0000
0000
1001
0000
0000
0000
0000
0000
;

//---------------dance-single - ----------------
#NOTEDATA:;
#CHARTNAME:;
#STEPSTYPE:dance-single;
#DESCRIPTION:;
#CHARTSTYLE:;
#DIFFICULTY:Medium;
#METER:9;
#RADARVALUES:0.478586,0.714056,0.422362,0.287974,0.086392,349.000000,305.000000,44.000000,30.000000,0.000000,0.000000,0.000000,0.000000,0.000000,0.478586,0.714056,0.422362,0.287974,0.086392,349.000000,305.000000,44.000000,30.000000,0.000000,0.000000,0.000000,0.000000,0.000000;
#CREDIT:;
#DISPLAYBPM:11.000000:178.000000;
#NOTES:
0000
0000
0000
0000
,
0000
0000
0000
0000
,
0000
0000
0000
0000
,
0010
0000
0000
0010
0000
0000
0010
0000
,
1001
0000
0000
1000
0001
0000
0000
0100
,
0000
0100
0000
0000
0020
0000
1030
0000
,
1001
0000
0000
0001
0010
0000
0000
0100
,
0000
0100
0000
0000
2000
0000
3001
0000
,
0110
0000
0000
0010
1000
0000
0000
0001
,
0000
0001
0000
0000
2000
0000
3100
0000
,
0110
0000
0000
0010
0001
0000
0000
0000
,
0200
0300
0101
1100
,
1001
0000
0000
0010
1000
0100
0000
1000
,
0000
0001
0000
0000
0010
0001
0100
0000
,
0101
0000
0000
0001
0010
0100
0000
2000
,
0000
3002
0000
2003
0000
3020
0000
0030
,
0110
0000
0000
0010
1000
0100
0000
1000
,
0000
0001
0000
0000
0100
0010
1000
0000
,
1010
0000
0000
0001
1000
0100
0000
0020
,
0000
0032
0000
2003
0000
3020
0000
0030
,
0110
0000
2000
0000
3001
0100
0000
0010
,
1000
0000
0001
1000
0010
1000
0100
0000
,
1001
0000
0020
0000
0031
1000
0000
0010
,
0100
0000
0010
1000
0100
0010
0001
0000
,
0011
0000
0200
0000
0301
1000
0000
0001
,
0010
0000
0100
0010
0001
1000
0001
0000
,
0101
0000
0020
0000
1030
0001
0000
0100
,
0000
1001
0110
0000
,
1001
0000
1100
0101
,
0010
1000
0100
0000
0010
0001
0100
0000
,
0110
0000
0101
1010
,
1000
0100
0010
0000
0001
0100
0010
0000
,
1001
0000
1010
0011
,
0100
0001
0010
0000
1000
0001
0010
0000
,
0110
0000
1100
0011
,
2000
3002
0103
0100
,
1001
0000
0010
0000
1000
0001
0000
1000
,
0100
0000
0010
0000
0001
0100
1000
0000
,
1001
0000
0010
0000
1000
0001
0000
0010
,
0100
0000
1000
0000
0010
0100
0001
0000
,
0110
0000
0001
0000
1000
0100
0000
0010
,
0001
0000
1000
0000
0001
0100
0010
0000
,
0110
0000
1000
0000
0010
0100
0000
0001
,
1000
0000
0010
0000
1000
0000
0001
0000
0010
0000
0001
0000
,
0100
0010
0100
0010
0100
0000
0000
0000
0001
1000
0001
1000
0001
0000
0000
0000
,
0010
0001
0100
0000
0010
1000
0100
0000
2000
0000
3002
0000
2003
0000
3002
0000
,
1003
0001
1000
0001
1000
0000
0000
0000
0010
0100
0010
0100
0010
0000
0000
0000
,
1000
0010
0100
0000
0001
0010
0100
0000
1100
0000
0000
0000
0101
0000
0000
0000
,
1000
0000
0001
0100
1000
0000
0010
0000
,
0100
0000
0010
1000
0001
0000
0000
0000
,
0010
0001
1000
0000
0010
1000
0001
0000
,
0200
0320
0230
0320
,
1030
0000
0010
0001
0100
0000
0010
0000
,
1000
0000
0001
1000
0100
0000
0000
0000
,
0010
0001
0100
0000
0010
1000
0100
0000
,
2000
0000
3002
0000
1003
0010
0100
0010
,
0100
0000
0000
0001
1000
0001
0000
1000
,
0100
0010
0000
0011
0000
0001
0100
0010
,
1000
0000
0000
0001
0100
0000
0010
0000
,
1010
1001
1100
0101
,
1001
0000
0000
0001
0010
0001
0000
0100
,
0010
1000
0000
1100
0000
1000
0010
0100
,
0001
0000
0000
1000
0010
0000
0100
0000
,
0101
0000
0000
1000
0001
0000
0100
0000
,
0110
0000
0000
0010
1000
0000
0001
0000
,
0011
0000
2000
0000
0000
0002
0000
0000
0000
0000
0000
0000
0000
0000
0000
0000
,
0000
0000
0000
3000
,
0013
0000
0000
0000
0000
0000
0000
0001
0000
0000
0100
0000
0000
0000
0000
0000
;

//---------------dance-single - ----------------
#NOTEDATA:;
#CHARTNAME:;
#STEPSTYPE:dance-single;
#DESCRIPTION:;
#CHARTSTYLE:;
#DIFFICULTY:Easy;
#METER:6;
#RADARVALUES:0.314029,0.389485,0.326371,0.038397,0.004800,229.000000,195.000000,34.000000,4.000000,0.000000,0.000000,0.000000,0.000000,0.000000,0.314029,0.389485,0.326371,0.038397,0.004800,229.000000,195.000000,34.000000,4.000000,0.000000,0.000000,0.000000,0.000000,0.000000;
#CREDIT:;
#DISPLAYBPM:11.000000:178.000000;
#NOTES:
0000
0000
0000
0000
,
0000
0000
0000
0000
,
0000
0000
0000
0000
,
0010
0000
0010
0000
,
1001
0100
0000
0001
,
0000
1000
0000
0100
,
1001
1000
0000
0001
,
0000
0100
0000
0010
,
0110
1000
0000
0100
,
0000
1000
0000
0001
,
0110
0000
0010
0000
,
2000
0000
0001
3001
,
1001
0000
0010
0000
,
1000
0100
1000
0001
,
1001
0000
0010
0000
,
0100
0100
0100
0000
,
0110
0000
0001
0000
,
1000
0010
1000
0100
,
0110
0000
0001
0000
,
1000
1000
1000
0100
,
1001
0000
0010
0000
0000
0100
0000
0000
,
0000
0000
0010
0000
0000
1000
0000
0000
,
1001
0000
0100
0000
0000
0001
0000
0000
,
0000
0000
0100
0000
0000
0010
0000
0000
,
0110
0000
1000
0000
0000
0001
0000
0000
,
0000
0000
1000
0000
0000
0100
0000
0000
,
0110
0000
0010
0000
0000
0001
0000
0000
,
0000
1001
0110
0000
,
1001
0000
0010
0010
,
1000
0100
1000
0001
,
1001
0000
0100
0100
,
0001
0010
0001
0100
,
0110
0000
1000
1000
,
0010
1000
0100
0010
,
0110
0000
0001
0001
,
0100
0010
0100
0001
,
1001
0000
0010
0000
,
1000
0100
1000
0001
,
0110
0000
0010
0000
,
0100
0001
0100
0010
,
1001
0000
1000
0000
,
0100
0010
0100
1000
,
0110
0000
0001
0000
,
1000
1000
0001
0001
,
0100
0100
0010
0010
,
1000
0000
0100
0000
1000
0001
1000
0001
,
0100
0010
0100
0001
,
1000
0100
1001
0110
,
0010
1000
0100
0100
,
0010
0001
0100
0000
,
0001
0010
0001
0100
,
0010
0010
0010
0010
,
1000
0100
1000
1000
,
0001
0100
0001
0000
,
0010
0001
0100
0010
,
1000
0002
0000
0103
,
0110
0000
1001
0000
,
0010
1000
0010
0100
,
0110
0000
0001
0001
,
1000
0100
1000
0100
,
1001
0000
0110
0000
,
0001
0100
0001
0010
,
1001
0000
1000
1000
,
1001
0000
0020
0030
,
0110
0000
0100
0001
,
1001
0000
0000
0000
0000
0020
0000
0000
0000
0000
0000
0000
0000
0000
0000
0000
,
0000
0000
0000
0000
,
0130
0000
0000
0000
0000
0110
0000
0000
;

//---------------dance-single - ----------------
#NOTEDATA:;
#CHARTNAME:;
#STEPSTYPE:dance-single;
#DESCRIPTION:;
#CHARTSTYLE:;
#DIFFICULTY:Beginner;
#METER:3;
#RADARVALUES:0.178270,0.257257,0.172785,0.000000,0.004800,130.000000,112.000000,18.000000,0.000000,0.000000,0.000000,0.000000,0.000000,0.000000,0.178270,0.257257,0.172785,0.000000,0.004800,130.000000,112.000000,18.000000,0.000000,0.000000,0.000000,0.000000,0.000000,0.000000;
#CREDIT:;
#DISPLAYBPM:11.000000:178.000000;
#NOTES:
0000
0000
0000
0000
,
0000
0000
0000
0000
,
0000
0000
0000
0000
,
0010
0000
0000
0000
,
1001
0000
0000
0000
,
0000
0000
0000
0000
,
1001
0000
0000
0000
,
0000
0000
0000
0000
,
0110
0000
0000
0000
,
0000
0000
0000
0000
,
0110
0000
0000
0000
,
1000
0000
0000
0000
,
1001
0000
0010
0000
,
0100
0000
0001
0000
,
1001
0000
0001
0000
,
0100
0000
0010
0000
,
0110
0000
0010
0000
,
1000
0000
0100
0000
,
0110
0000
0010
0000
,
0001
0000
1000
0000
,
1001
0000
0000
0000
,
0100
0000
0000
0000
,
1001
0000
0000
0000
,
0010
0000
0000
0000
,
0110
0000
0000
0000
,
0100
0000
0000
0000
,
0110
0000
0000
0000
,
0000
0001
0001
0000
,
0010
0000
1000
1000
,
0000
0000
0000
0000
,
0100
0000
0010
0010
,
0000
0000
0000
0000
,
0001
0000
0100
0100
,
0000
0000
0000
0000
,
0010
0000
1000
1000
,
1000
0000
0001
0000
,
1001
0000
0100
0000
,
0001
0001
0001
0000
,
1001
0000
0010
0000
,
0100
0100
0100
0000
,
0110
0000
0010
0000
,
1000
1000
1000
0000
,
0110
0000
0010
0000
,
1000
0000
0001
0000
,
0010
0000
0100
0000
,
1000
0000
0001
0001
,
0001
0000
0100
0000
,
0010
0010
0010
0000
,
0100
0000
0001
0000
,
0100
0000
0010
0000
,
1000
0000
0100
0000
,
1000
1000
1000
0000
,
0001
0000
0010
0000
,
0001
0000
0100
0000
,
0010
0000
1000
0000
,
0100
0000
0000
0001
,
0001
0000
1000
0000
,
0001
0000
0100
0000
,
0010
0000
1000
0000
,
0010
0010
0010
0000
,
0100
0000
0010
0000
,
0100
0000
0001
0000
,
1000
0000
1000
0000
,
1000
0000
0000
0000
,
0001
0000
0001
0000
,
0001
0000
0000
0000
0000
1001
0000
0000
0000
0000
0000
0000
0000
0000
0000
0000
,
0000
0000
0000
0000
,
0110
0000
0000
0000
;

//---------------dance-single - ----------------
#NOTEDATA:;
#CHARTNAME:;
#STEPSTYPE:dance-single;
#DESCRIPTION:;
#CHARTSTYLE:;
#DIFFICULTY:Challenge;
#METER:15;
#RADARVALUES:0.835125,1.103541,0.537552,0.057595,0.451160,609.000000,553.000000,56.000000,6.000000,0.000000,0.000000,0.000000,0.000000,0.000000,0.835125,1.103541,0.537552,0.057595,0.451160,609.000000,553.000000,56.000000,6.000000,0.000000,0.000000,0.000000,0.000000,0.000000;
#CREDIT:;
#DISPLAYBPM:11.000000:178.000000;
#NOTES:
// measure 0
0000
0000
0000
0000
,  // measure 1
0000
0000
0000
0000
,  // measure 2
0000
0000
0000
0000
,  // measure 3
0010
0000
0000
0010
0000
0000
0010
0000
0000
0010
0000
0000
0010
0000
0000
0000
,  // measure 4
1001
0000
1000
0010
1000
0001
0010
0100
,  // measure 5
0000
1000
0010
1000
0001
0100
0010
0000
,  // measure 6
1001
0000
0100
0001
0010
0001
1000
0010
,  // measure 7
0000
1000
0100
0010
0100
1000
0001
0000
,  // measure 8
0110
0000
0100
0010
0100
0001
1000
0010
,  // measure 9
0000
1000
0001
1000
0100
0010
0001
0000
,  // measure 10
0110
0000
1000
0010
1000
0001
0010
0100
,  // measure 11
1000
0001
1000
0001
1000
0001
1000
0001
0100
0000
0000
0000
0100
0000
0000
0000
,  // measure 12
1001
0000
0000
0000
0010
0000
1000
0100
0010
0100
1000
0000
0001
0000
0100
0000
,  // measure 13
0010
0000
1000
0000
0001
0000
0010
0100
1000
0001
1000
0000
0010
0000
0000
0000
,  // measure 14
0110
0000
0000
0000
0100
0000
0001
1000
0010
1000
0001
0000
0100
0000
0010
0000
,  // measure 15
1000
0000
0100
0000
0010
0000
0001
0100
0010
0100
0001
0000
1000
0000
0000
0000
,  // measure 16
1010
0000
0000
0000
0100
0000
0001
1000
0010
1000
0100
0000
0010
0000
0001
0000
,  // measure 17
0100
0000
0010
0000
0100
0000
0001
1000
0010
1000
0100
0000
0001
0000
0000
0000
,  // measure 18
0011
0000
0000
0000
1000
0000
0001
0010
0100
0010
0001
0000
1000
0000
0010
0000
,  // measure 19
0100
0000
0001
0000
0010
0000
0100
1000
0010
1000
0100
0010
0001
1000
0001
0100
,  // measure 20
0010
0000
0000
0000
1010
0000
0001
1000
0100
0010
0100
0000
1000
0000
0001
0000
,  // measure 21
0100
0000
0010
0000
1000
0010
0100
0010
1000
0000
0001
0000
0010
0001
0100
0000
,  // measure 22
0010
0000
0000
0000
0101
0000
0100
0001
1000
0001
0010
0000
0100
0000
1000
0000
,  // measure 23
0001
0000
0100
0000
0001
0010
0100
1000
0001
0000
0100
0000
0010
1000
0001
0000
,  // measure 24
0100
0000
0000
0000
0110
0000
0001
1000
0010
1000
0001
0000
0100
0000
0010
0000
,  // measure 25
1000
0000
0100
0000
0010
0100
1000
0001
1000
0000
0010
0000
0100
0001
1000
0000
,  // measure 26
0010
0000
0000
0000
0101
0000
0010
1000
0001
1000
0100
0000
0010
0000
0001
0000
,  // measure 27
0100
0000
1001
0000
0110
0000
0000
1000
,  // measure 28
1001
0010
0100
0001
0101
1000
1100
0010
,  // measure 29
0001
0000
0100
0000
1000
0000
0100
0000
0001
0100
0010
0000
1000
0000
0001
0000
,  // measure 30
0011
0100
1000
0010
1010
0001
0101
0010
,  // measure 31
0100
0000
1000
0000
0010
0000
1000
0000
0001
0010
0100
0000
1000
0000
0001
0000
,  // measure 32
0011
0100
1000
0001
1001
0010
1010
1000
,  // measure 33
0100
0000
0010
0000
0001
0000
0100
0000
0001
1000
0001
0000
0100
0000
0010
0000
,  // measure 34
0110
1000
0001
0100
0101
0001
1001
0000
,  // measure 35
0010
0000
1000
0000
0010
0000
0100
0000
0001
1000
0000
0001
1000
0000
0100
0000
,  // measure 36
1100
0000
0010
0001
0100
0001
1000
0010
,  // measure 37
0100
0000
1000
0000
0100
0000
0001
0000
0100
0010
1000
0000
0001
0000
0100
0000
,  // measure 38
0101
0010
1000
0001
1000
0100
0010
0001
,  // measure 39
0100
0000
1000
0000
0100
0000
0001
0000
1000
0010
1000
0000
0100
0000
0001
0000
,  // measure 40
0011
0000
0001
0000
0100
0000
0010
1000
0010
0000
0100
0000
0001
0000
1000
0000
,  // measure 41
0100
0000
0001
0000
0100
0000
0010
0000
0100
1000
0001
0000
0100
0000
0010
0000
,  // measure 42
1010
0000
1000
0000
0100
0000
0010
0000
0001
1000
0001
0000
0100
0000
0010
0000
,  // measure 43
1000
0100
1000
0001
0100
0001
1000
0100
1000
0001
0100
0001
,  // measure 44
0010
0001
0100
0001
1000
0010
1000
0100
0010
0001
1000
0001
0100
0010
1000
0000
,  // measure 45
0001
0000
0010
0000
0001
0000
0100
0000
0010
0000
1000
0000
0100
0010
0001
0000
2000
0000
0010
0000
3002
0000
0010
0000
2003
0000
0100
0000
3002
0000
0100
0000
,  // measure 46
1003
0010
0100
0001
0010
0001
0100
0001
0010
0100
1000
0010
1000
0100
0001
0000
,  // measure 47
0010
0000
0001
0000
0100
0000
0010
0000
1000
0000
0100
0000
1000
0001
1000
0000
1010
0000
0000
0000
0100
0000
0000
0000
0011
0000
0000
0000
0000
0000
0000
0000
,  // measure 48
1000
0010
0001
0100
0001
0010
1000
0100
,  // measure 49
0010
0100
0001
1000
0100
0001
0010
1000
,  // measure 50
0100
0001
0010
1000
0001
0010
0100
1000
,  // measure 51
0100
0010
1000
0100
0001
1000
0010
0001
,  // measure 52
0010
1000
0001
0010
0100
1000
0100
0001
,  // measure 53
0100
0010
1000
0001
0100
0010
1000
0001
,  // measure 54
1000
0100
0001
1000
0001
0010
0100
0010
,  // measure 55
0001
0000
0000
0000
0000
0000
1000
0100
1000
0100
1000
0100
1000
0000
0000
0010
0000
0000
0010
0000
0000
0010
0000
0000
,  // measure 56
1001
0100
0001
1000
1100
0010
0001
0100
,  // measure 57
0110
0010
1000
1100
0001
1000
1000
0100
,  // measure 58
0110
0010
0001
0100
1001
0100
0010
1000
,  // measure 59
1100
0001
0101
0010
1010
0100
0011
1000
,  // measure 60
1001
0100
0010
1000
1010
0001
0010
0100
,  // measure 61
1100
0010
1000
0101
0010
0100
0100
0001
,  // measure 62
0011
0100
1000
0010
1010
0001
1001
1000
,  // measure 63
1100
0010
0001
0100
0001
0010
0001
1000
,  // measure 64
0101
0010
1000
0001
0011
0100
1100
1000
,  // measure 65
0101
0000
2000
0000
0000
0002
0000
0000
0000
0000
0000
0000
0000
0000
0000
0000
,  // measure 66
0000
0000
0000
3000
,  // measure 67
0013
0000
0000
0000
0000
0000
0000
0011
0000
0000
1100
0000
0000
0000
0000
0000
;
