#TITLE:1,2,3,4!;
#ARTIST:Cansol;
#BANNER:1,2,3,4!-bn.png;
#BACKGROUND:1,2,3,4!-bg.png;
#JACKET:1,2,3,4!-jacket.png;
#MUSIC:1,2,3,4!.ogg;
#OFFSET:-0.169;
#SAMPLESTART:82.416;
#SAMPLELENGTH:20;
#DISPLAYBPM:178;
#BPMS:0=178;
#STOPS:224=1.011,336.75=1.349,364=0.674;
#BGCHANGES:;

//---------------dance-single - ----------------
#NOTES:
     dance-single:
     :
     Beginner:
     6:
     :
0000
0000
0000
0000
,
0000
0000
0000
0000
,
0000
0000
0000
0000
,
0000
0000
0000
0000
,
0000
0000
0000
0000
,
0000
0000
0000
0000
,
0000
0000
0000
0000
,
2002
0000
0000
3003
,
0010
0010
0010
0010
,
0010
0000
0110
0000
,
0001
0000
1001
0000
,
0100
0000
0110
0000
,
1001
0000
0110
0000
,
0000
1000
0000
1000
,
0000
1000
0000
1000
,
0000
0000
0000
0000
,
0010
0010
0010
0010
,
0010
0000
0100
0000
,
0001
0000
1000
1000
,
1000
0000
0010
0000
,
0001
0001
0001
0001
,
0002
0000
0000
0003
0000
0000
0100
0000
,
0100
0000
0020
0030
,
1000
1000
1000
0000
,
0001
0000
0100
0100
,
0100
0000
0010
0000
,
1000
1000
1000
1000
,
1000
0000
0001
0000
,
0010
0000
0001
0001
,
0001
0000
0100
0000
,
0010
0000
1000
0000
,
0010
0010
0010
0000
,
0100
0000
0010
0010
,
0010
0000
1000
0000
,
0100
0000
1001
0000
,
0001
0000
0110
0000
,
0001
0001
0001
0001
,
0001
0000
0100
0000
,
0010
0020
0030
0000
,
1000
0000
0001
0000
,
0100
0000
0010
0000
,
1000
0001
1000
0000
,
0010
0100
0010
0000
,
1000
0000
1001
0000
,
0110
0000
0001
0001
,
0100
0010
1000
0000
,
0100
0010
0001
0000
,
1000
0010
1000
0000
,
0001
0000
0100
0000
,
0020
0000
0030
2000
,
0000
0000
0000
3000
,
0002
0000
0003
0100
,
0020
0030
1000
1000
,
1000
0000
1001
0000
,
0010
0000
0110
0000
,
0100
0010
0100
0010
,
0100
0000
0000
0000
,
0000
0100
0000
0000
,
0000
0000
0000
0000
,
0000
0000
0000
0000
,
0000
0010
0010
0010
,
0010
0000
0110
0000
,
1001
0000
0001
0010
,
0001
0000
0000
0110
,
0000
1001
0000
0100
,
0010
1000
0001
0000
,
0001
0000
0001
0000
,
0001
0000
0000
0000
,
0000
0100
0100
0100
,
0100
0100
0000
0110
,
0000
1001
0000
0001
,
0100
1000
0000
0110
,
0000
1001
0000
0010
,
0100
0001
1000
1000
,
0000
0100
0000
0010
,
0010
0001
0000
0100
,
0000
0001
1000
0001
,
1000
0010
0000
0110
,
0000
1001
0000
0110
,
0000
1001
0000
1000
,
0000
0001
0001
0001
,
0001
0001
0000
1001
,
0000
0110
0000
1000
,
0100
0001
0010
0100
,
1000
0010
1000
0000
,
0001
0000
1000
0000
,
0001
0000
0100
0000
,
0010
0000
0000
1000
,
0100
1000
0001
0000
,
0001
0000
0000
0010
,
0010
0100
0000
1000
,
0001
0000
0000
1001
,
0000
0010
0010
0010
,
0000
0110
0000
1001
,
0000
0110
0000
1000
,
0001
1000
0100
0010
,
0001
0000
0100
0000
,
0010
0000
1000
0000
,
0001
1000
0010
1000
,
0100
0010
0001
0000
;

//---------------dance-single - ----------------
#NOTES:
     dance-single:
     :
     Easy:
     10:
     :
0000
0000
0000
0000
,
0000
0000
0000
0000
,
0000
0000
0000
0000
,
0000
0000
0000
0000
,
0000
0000
0000
0000
,
0000
0000
0000
0000
,
0000
0000
0000
0000
,
1010
0202
0000
0003
,
0310
0010
0010
0010
,
0110
0000
2002
3003
,
0110
0000
0000
0002
2000
0003
3000
0000
,
1001
0000
0100
0000
0001
0000
0010
0100
,
0010
0000
0001
1000
0001
0000
0011
0000
,
2100
3001
1200
0301
,
2100
3001
1200
0301
,
2002
0000
0000
3003
,
0010
0010
0010
0010
,
0110
0000
0000
0001
1000
0000
0000
0100
,
0010
0100
0000
0000
2000
0000
3002
0000
,
1003
0000
0000
0010
0100
0000
0000
0000
,
0001
0001
0001
0001
,
0101
0000
1000
0001
0000
0000
0010
0100
,
1000
1010
0202
0303
,
1000
0100
1000
0100
2000
0000
3002
0000
,
0203
0000
0300
0000
0001
1000
0001
1000
,
0000
0000
1001
0000
0001
0100
0010
0000
,
1000
0100
0010
0000
0001
1000
0001
1000
,
0001
1000
1100
0101
,
1000
0001
0100
0000
1010
0000
1100
0000
,
0001
0000
0110
0000
0000
1000
0001
0000
,
0010
0000
0010
0000
0010
0001
0100
0000
,
0010
1000
0000
1000
0100
0000
0110
0000
,
1001
0000
0010
0000
1000
0100
0001
0000
,
0020
0032
0203
0320
,
1030
0100
0000
1000
0002
0000
0003
0000
,
0010
0000
0011
0000
0000
1010
0000
0000
,
0100
0100
0100
0100
,
2000
3020
0230
0302
,
0023
0230
0001
1300
,
0001
0100
0010
0100
0001
0000
0000
1000
,
0100
0010
0001
0000
0110
0000
1001
0000
,
0010
1000
0001
0100
,
0001
1000
0100
0010
,
0100
0010
0001
1000
,
0001
0010
1000
0100
,
0001
0010
1000
0100
,
1000
0010
0001
0100
,
0010
0100
0001
1000
,
0100
0010
0001
1000
,
0020
0000
0000
0230
,
0000
0010
0010
0010
,
0302
0000
0000
1000
,
0200
0300
0010
0013
,
0011
0000
1000
0010
,
1100
0000
0001
0100
,
0010
0010
0100
0100
,
1001
1000
0100
0010
,
0001
0000
0000
0000
,
0000
0000
0000
0000
,
0000
0000
0000
0000
,
0000
0010
0010
0010
,
0010
0000
0000
2000
0000
0000
0000
0000
3000
0000
0000
0202
0000
0000
0000
0000
,
0303
0000
0000
0020
0000
0200
0000
0030
0000
0300
0000
0000
0001
0000
0010
0000
,
0100
0000
1000
0000
0020
0000
0000
0000
0000
1030
0000
0000
1100
0000
0000
0000
,
0000
0001
0000
0000
0100
0000
0010
0000
0000
0000
1000
0000
0000
0000
0100
0000
,
1000
0001
0010
0000
2100
0000
3010
0000
,
0102
0013
2100
3010
,
0102
0013
0000
0000
,
0000
0000
0000
0001
0000
0000
0000
0000
0001
0000
0000
0000
0001
0000
0000
0000
,
0001
0000
0000
0011
0000
0000
0000
0000
0200
0000
0000
0310
0000
0000
0000
0000
,
2000
0000
0000
0000
0000
3001
0000
0000
0000
0000
0010
0000
0001
0000
0010
0000
,
0100
0000
1000
0000
0020
0000
0000
0030
0000
2000
0000
0000
3100
0000
0000
0000
,
0000
0020
0000
0000
0031
0000
1000
0000
0000
0000
0000
0002
0000
0000
1003
0000
,
0001
0010
0100
0000
1000
0000
0010
0000
,
0001
0000
1000
0100
0010
0000
0001
0100
,
1000
0101
1100
0101
,
1100
0000
0001
0010
0100
0000
0110
0000
,
1001
0020
0030
2000
,
3000
0000
0000
0000
0200
0000
0020
0000
0300
0030
0000
0000
0001
0000
1000
0000
,
0001
0100
0010
0000
1010
0000
0010
0000
,
0011
0100
0100
0100
,
0100
0000
0110
0000
0000
0001
1000
0000
,
0000
0001
1000
0100
0010
0100
1000
0001
,
0100
0000
0000
0000
0002
0000
0000
0000
0000
0023
0000
0000
0000
0000
0230
0000
,
0000
0000
0000
1300
0010
0000
0000
0000
0010
0000
0000
0000
0100
0000
0000
0000
,
0100
0101
0011
0101
,
0011
0001
0001
1000
,
1000
1100
0110
0011
,
1000
0001
0100
0020
0000
2030
0000
3002
,
0000
0203
0000
0320
0000
1030
0001
0000
,
0100
0002
0023
0032
,
0103
0000
0000
0000
0101
0000
0000
0000
1010
0000
0000
0000
0001
0000
0000
1000
,
0000
0010
0100
0000
1001
0000
0002
0000
,
0023
0000
0230
0000
1300
0001
1000
0000
,
0000
0010
0000
0000
1000
0000
0000
0000
1100
0000
0000
0000
0001
0000
0100
0000
,
0001
0100
0001
0100
0001
0000
0011
0000
,
1010
0101
1100
1001
,
0110
1001
0110
2000
,
3200
0000
0320
0000
0032
0000
1003
0010
,
0100
0010
1000
0100
0001
0000
0000
0000
;

//---------------dance-single - ----------------
#NOTES:
     dance-single:
     :
     Medium:
     13:
     :
0000
0000
0000
0000
,
0000
0000
0000
0000
,
0000
0000
0000
0000
,
0000
0000
0000
0000
,
0000
0000
0000
0000
,
0000
0000
0000
0000
,
0000
0000
0000
0000
,
1000
0002
0200
0000
0000
0000
0300
0000
,
0010
0000
0010
0000
0010
0003
0010
0000
,
1001
0000
0000
0000
0000
0000
0000
0000
0000
0000
0000
0000
2020
0000
0000
0000
3030
0000
0001
0000
0000
0100
0000
0000
,
1000
0000
0000
0000
0000
0000
0000
0000
0000
0000
0000
0000
0000
0000
0000
0000
0000
0000
0020
0000
0000
0000
0000
0000
0200
0000
0000
0030
0000
0000
0000
0000
0300
0000
0000
0000
0001
0000
0000
0000
0000
0000
0010
0000
0000
0000
0000
0000
,
1000
0000
0000
0000
0020
0000
0000
0000
0200
0030
0000
0000
0002
0300
0000
0000
0003
0000
1000
0000
0000
0001
0000
0000
,
0010
0001
0100
0001
0020
0000
0130
1000
,
0001
0000
0000
0000
0000
0000
0000
0000
0000
0000
0000
0000
0022
0000
0000
0000
0000
0000
0000
0000
0033
0000
0000
0000
0000
0000
0000
0000
0000
0000
2000
0000
0000
0000
0000
0000
0002
0000
0000
3000
0000
0000
0000
0000
0003
0000
0000
0000
,
0000
0000
1000
0000
0100
0000
2000
0000
0000
0000
0000
0000
3010
0000
0000
0100
0000
0000
0001
0000
0000
1000
0000
0000
,
0010
0000
0000
0000
0202
0000
0000
0000
0000
0000
0000
0000
0000
0003
0000
0000
,
0010
0000
0000
0000
0010
0000
0000
0000
0010
0000
0000
0000
0010
0000
0000
0300
,
0110
0000
0000
0001
1000
0000
0000
0010
,
0100
0001
1000
0000
1000
0100
0010
0001
,
0100
0010
0000
1000
0001
0000
0000
0010
,
0001
0001
0001
0001
,
0022
0000
0000
0000
0000
0033
0000
0000
1000
0000
0000
0000
0001
0000
0000
0000
0000
0000
0000
0000
1000
0000
0000
0000
0100
0000
0000
0000
0010
0000
0000
0000
,
0000
0000
0000
0001
0000
0000
0000
0000
0000
0200
0000
0000
0020
0000
0000
0000
0000
0000
0000
0000
0300
0000
0000
0000
,
1000
0030
0000
0001
0000
0000
1000
0000
0000
0001
0000
0000
1000
0000
0000
0100
0000
0000
0010
0000
0000
0100
0000
0000
,
2000
0000
0000
0000
0000
0000
0000
0000
0000
0000
0000
0000
0000
0000
0000
0000
0000
0000
0000
0000
0000
0000
0000
0000
0002
0000
0000
0000
0000
0000
0000
0000
0000
0000
0000
0000
0000
0000
0000
0000
0000
0000
0000
0000
0000
0000
0000
0000
0000
0000
0000
0000
0000
0000
0000
0000
0000
0000
0000
0000
0000
0000
0000
0000
0000
0000
0000
0000
0000
3000
0000
0000
0000
0000
0000
0000
0000
0000
0000
0000
0000
0000
0000
0000
0000
0000
0000
0000
0000
0000
0000
0000
0000
0000
0000
0000
1000
0000
0000
0000
0003
0000
0000
0000
0000
0000
0000
0000
0000
0000
0000
0000
0000
0000
0000
0000
0000
0000
0000
0000
0100
0000
0000
0000
0000
0000
0000
0000
0000
0000
0000
0000
0000
0000
0000
0000
0000
0000
0000
0000
0000
0000
0000
0000
0010
0000
0000
0000
0000
0000
0000
0000
0000
0000
0000
0000
0000
0000
0000
0000
0000
0000
0000
0000
0000
0000
0000
0000
0001
0000
0000
0000
0000
0000
0000
0000
0000
0000
0000
0000
0000
0000
0000
0000
0000
0000
0000
0000
0000
0000
0000
0000
,
1001
0000
0000
0010
0100
0000
0000
0000
0001
0000
0100
0000
0010
0000
1000
0000
,
0100
0000
1100
0000
0001
0010
0100
1000
,
0010
0000
0000
0000
0100
0000
0000
0000
0010
0000
0000
0000
1000
0000
0000
0000
0002
0003
0000
0000
0000
0000
0000
0000
0002
0000
0000
0000
0000
0000
0000
0003
,
1000
0010
0100
0010
1000
0001
0100
0000
,
0110
0000
0000
0000
1001
0000
0000
0000
1000
0100
0000
0000
0001
0000
0010
0000
,
0001
0000
0000
0001
1000
0000
0000
0000
0010
0100
0000
0000
0001
0000
0010
0000
,
0100
0000
1000
0000
0001
0000
0100
0000
0010
0000
0000
1000
0010
0000
0000
0000
,
1000
0001
1000
0100
0110
0000
1001
0000
,
1000
0100
1000
0001
0000
0010
0001
0100
,
0001
0000
0000
0000
0000
0000
0000
0000
0000
0000
0000
0000
0000
0000
0000
0000
0000
0000
0000
0000
0000
0000
0000
0000
1000
0000
0000
0000
0000
0000
0000
0000
0000
0000
0000
0000
0000
0000
0000
0000
0000
0000
0000
0000
0000
0000
0000
0000
0000
0000
0000
0000
0000
0000
0000
0000
0000
0000
0000
0000
0000
0000
0000
0000
0000
0000
0000
0000
0000
0000
0000
0000
2000
0000
0000
0000
0000
0000
0000
0000
0000
0000
0000
0000
0000
0000
0000
0000
0000
0000
0000
0000
0000
0000
0000
0000
0020
0000
0000
0000
0000
0000
0000
0000
0000
0000
0000
0000
0000
0000
0000
0000
0000
0000
0000
0000
0000
0000
0000
0000
0000
0000
0000
0000
0000
0000
0000
0000
0000
0000
0000
0000
0000
0000
0000
0000
0000
0000
0000
0000
0000
0000
0000
0030
0000
0000
0000
0000
0000
0000
0000
0000
0000
0000
0000
0000
0000
0000
0000
0000
0000
0000
0000
0000
0000
0000
0000
0000
0100
0000
0000
0000
0000
0000
0000
0000
0000
0000
0000
0000
3000
0000
0000
0000
0000
0000
0000
0000
0000
0000
0000
0000
,
0001
0000
0000
0000
0000
0000
1000
0000
0000
0000
0000
0000
0010
0000
0000
0000
0000
0000
0100
0000
0000
0000
0000
0000
0000
0000
0000
0000
0000
0000
0202
0000
0000
0000
0000
0000
0000
0000
0000
0000
0000
0000
0000
0300
0000
0000
0000
0000
,
1000
0000
0000
0000
0000
0000
0000
0000
0000
0000
0000
0000
1000
0000
0000
0000
0000
0000
0000
0000
0000
0000
0000
0000
1000
0000
0000
0000
0000
0000
0000
0000
0000
0000
0000
0000
1000
0000
0000
0000
0000
0003
0000
0000
0000
0000
0000
0000
,
0001
0010
0001
0100
0001
0010
0001
2000
,
0000
0000
0000
0200
3000
0000
0020
0000
0000
0300
0000
0000
0001
0030
0000
0100
0000
0000
0001
0000
0000
1000
0000
0000
,
0010
1000
0100
1000
0001
0000
0000
0100
,
0100
0000
0010
0000
1000
0000
0010
0000
1000
0000
0000
0001
0100
0000
0000
0001
,
1000
0000
0110
0000
1010
0000
0001
0100
,
1001
0000
0011
0000
1100
0000
0010
1000
,
0001
0000
0000
0000
0000
0000
0000
0000
0010
0000
0000
0000
0000
0000
0000
0000
0001
0000
0000
0000
0000
0000
0000
0000
2000
0000
0000
0000
0000
0000
0000
0000
0200
0000
0000
0000
0000
3000
0000
0000
0000
0000
0000
0000
0000
0000
0000
0000
0000
0000
0000
0000
0000
0000
0000
0000
0010
0000
0000
0000
0300
0000
0000
0000
,
0001
0000
0000
0000
0100
0000
0000
0000
0010
0000
0000
0000
1000
0000
0000
0000
0200
0000
0000
0000
0000
0300
0000
0000
0100
0000
0000
0000
1000
0000
0000
0000
,
1001
0000
0011
0000
1010
0000
0001
0100
,
0110
0000
0101
0000
1100
0000
0001
1000
,
0010
0000
0000
0000
0000
0000
0000
0000
0000
1000
0000
0000
0000
0000
0000
0000
0000
0000
0100
0000
0000
0000
0000
0000
0200
0000
0000
0000
0000
0000
0000
0000
0000
0000
0000
0000
0010
0000
0000
0000
0300
0000
0000
0000
0000
0001
0000
0000
,
1000
0010
0100
0010
1000
0100
0010
0100
,
2000
0000
0000
0000
0000
0000
0000
0000
0000
0000
0000
0000
0000
0000
0000
0000
0000
0000
0000
0000
0000
0000
0000
0000
0000
0000
0000
0000
0000
0000
0000
0000
0000
0000
0000
0000
0000
0000
0000
0000
0000
0000
0000
0000
0000
0000
0000
0000
0000
0000
0000
0000
0000
0000
0000
0000
0000
0000
0000
0000
0000
0000
0000
0000
0000
0000
0000
0000
0000
0000
0000
0000
0000
0000
0000
0000
0000
0000
0000
0000
0000
0000
0000
0000
0000
0000
0000
0000
0000
0000
0000
0000
0000
0000
0000
0000
0000
0000
0000
0000
0000
0000
0000
0000
0000
0000
0000
0000
0000
0000
0000
0000
0000
0000
0000
0000
0000
0000
0000
0000
0000
0000
0000
0000
0000
0000
0000
0000
0000
0000
0000
0000
0000
0000
0000
0000
0000
0000
0000
0000
0000
0000
0000
0000
0002
3000
0000
0000
0000
0000
0000
0000
0000
0000
0000
0000
0003
0000
0000
0000
0000
0000
0000
0000
0000
0000
0000
0000
0200
0000
0000
0000
0000
0000
0000
0000
0000
0000
0000
0000
0000
0000
0000
0000
0000
0000
0000
0000
0000
0000
0000
0000
,
0000
0000
0000
0000
0000
0000
0000
0000
0000
0000
0000
0000
0000
0000
0000
0000
0000
0000
0000
0000
0000
0000
0000
0300
0010
0000
0000
0000
2000
0000
0000
0000
,
0002
0000
0000
0000
3000
0000
0000
0000
0000
0000
0000
0000
0000
0000
0000
0000
0000
0000
0000
0000
0000
0000
0000
0000
0000
0000
0000
0000
0000
0000
0000
0000
0000
0000
0000
0000
0000
0000
0000
0000
1000
0003
0000
0000
0000
0000
0000
0000
0010
0000
0000
0000
0000
0000
0000
0000
0100
0000
0000
0000
0000
0000
0000
0000
,
0002
0000
0000
0000
0000
0000
0000
0000
0000
0000
0000
0003
0010
0000
0000
0100
0000
0000
0010
0000
0000
0100
0000
0000
,
0220
0000
0000
0000
0000
0300
0000
0000
1030
0000
0010
0000
0001
0000
0100
0000
,
0010
0000
0010
1000
0100
1000
0001
0000
,
0010
0000
0010
0001
0100
0001
1000
0001
,
0022
0033
0000
0000
0000
0000
0000
0000
0000
0000
0000
0000
0000
0000
0000
0000
1000
0000
0000
0000
0000
0000
0000
0000
0000
0000
0000
0000
0000
0000
0000
0000
0100
0000
0000
0000
0000
0000
0000
0000
0000
0000
0000
0000
0000
0000
0000
0000
0010
0000
0000
0000
0000
0000
0000
0000
0000
0000
0000
0000
0000
0000
0000
0000
,
0001
0100
0000
0000
,
0000
0000
0000
0000
,
0000
0000
0000
0000
,
0000
0010
0010
0010
,
0010
0000
0000
0000
0000
0000
0000
0000
0000
0000
0000
0000
0000
0000
0000
0000
0000
0000
0000
0000
0000
0000
0000
0000
0000
0000
0000
0000
0000
0000
0000
0000
0000
0000
0000
0000
0202
0000
0000
0000
0000
0000
0000
0000
0000
0000
0000
0000
0000
0000
0000
0000
0000
0000
0000
0000
0000
0000
0000
0000
0000
0000
0000
0000
0000
0000
0000
0000
0000
0000
0000
0000
0000
0000
0000
0000
0000
0000
0303
0000
0000
0000
0000
0000
0000
0000
0000
0000
0000
0000
0000
0000
0000
0000
0000
0000
2000
0000
0000
0000
0000
0000
0000
0000
0000
0000
0000
0000
0000
0000
0000
0000
0000
0000
0000
0000
0000
0000
0000
0000
0000
0000
0000
0000
0000
0000
0000
0000
0000
0000
0000
0000
3002
0000
0000
0000
0000
0000
0000
0000
0000
0000
0000
0000
0000
0000
0000
0000
0000
0000
0000
0000
0000
0000
0000
0000
0000
0000
0000
0000
0000
0000
0000
0000
0000
0000
0000
0000
0000
0000
0000
0000
0000
0000
0000
0000
0000
0000
0000
0000
0000
0000
0000
0000
0003
0000
0000
0000
0000
0000
0000
0000
,
0020
0000
0000
0001
0000
0032
0000
0000
0000
0003
0000
0010
0001
0000
0100
0000
,
0001
0000
0000
0000
1000
0000
0100
0000
0000
0000
0000
0000
0000
0000
0000
0000
0000
0000
0220
0030
0000
0000
0000
0000
0020
0000
0000
0300
0030
0000
0000
0000
,
0000
0000
0000
0000
0000
0000
0000
0000
0000
0000
0000
0000
2200
0000
0000
0000
0000
0000
0000
0000
0000
0000
0000
0000
0300
0000
0000
0000
0000
0000
0000
0000
0000
0000
0000
0000
0000
0000
0000
0000
0000
0000
0000
0000
0000
0000
0000
0000
0001
0000
0000
0000
0000
0000
0000
0000
0000
0000
0000
0000
0000
0000
0000
0000
0000
0000
0000
0000
0000
0000
0000
0000
3001
0000
0000
0000
0000
0000
0000
0000
0000
0000
0000
0000
0000
0000
0000
0000
0000
0000
0000
0000
0000
0000
0000
0000
0000
0000
0000
0000
0000
0000
0000
0000
0000
0000
0000
0000
0000
0000
0000
0000
0000
0000
0000
0000
0000
0000
0000
0000
0000
0000
0000
0000
0000
0000
0000
0000
0000
0000
0000
0000
0022
0000
0000
0000
0000
0000
0000
0000
0000
0000
0000
0000
0000
0000
0000
0030
0000
0000
0000
0000
0000
0000
0000
0000
0000
0000
0000
0000
0000
0000
0000
0000
0000
0000
0000
0000
1000
0000
0000
0000
0000
0000
0000
0000
0003
0000
0000
0000
0000
0000
0000
0000
0000
0000
0000
0000
0000
0000
0000
0000
,
0001
0000
0000
0000
0000
0000
0100
0000
0000
0000
0000
0000
0010
0000
0000
0000
0000
0000
0000
0000
0000
0000
0000
0000
2020
0000
0000
0000
0000
0000
0000
3030
0000
0000
0000
0000
0000
0000
0000
0000
0000
0000
0200
0000
0000
0000
0000
0000
,
0020
0000
0000
0000
0000
0000
0000
0000
0000
0000
0000
0000
0000
0000
0000
0000
0000
0000
0000
0000
0000
0000
0000
0000
0000
0000
0000
0000
0000
0000
0000
0000
0000
0000
0000
0000
0030
0000
0000
0000
0000
0000
0000
0000
0000
0000
0000
0000
0000
0000
0300
0000
0000
0000
0000
0000
0000
0000
0000
0000
0000
0000
0000
0000
0001
0000
0000
0000
0000
0000
0000
0000
0000
0000
0000
0000
0000
0000
0000
0000
1000
0000
0000
0000
0000
0000
0000
0000
0000
0000
0000
0000
0000
0000
0000
0000
0002
0000
0000
0000
0000
0000
0000
0000
0000
0000
0000
0000
0000
0000
0000
0000
0003
0000
0000
0000
0000
0000
0000
0000
0000
0000
0000
0000
0000
0000
0000
0000
0000
0000
0000
0000
0000
0000
0000
0000
0000
0000
0000
0000
0000
0000
0000
0000
0010
0000
0000
0000
0000
0000
0000
0000
0000
0000
0000
0000
0000
0000
0000
0000
0000
0000
0000
0000
0000
0000
0000
0000
0001
0000
0000
0000
0000
0000
0000
0000
0000
0000
0000
0000
0000
0000
0000
0000
0000
0000
0000
0000
0000
0000
0000
0000
,
1000
0100
0220
0000
0000
0000
0000
0300
,
0000
0000
0000
0000
0000
0000
0000
0000
0000
0000
0000
0000
0000
0000
0000
0000
0000
0000
0000
0000
0000
0000
0000
0000
0000
0000
0000
0000
0000
0000
0000
0000
0000
0000
0000
0000
0002
0000
0000
0000
0000
0000
0000
0000
0000
0000
0000
0000
0000
0000
0000
0000
0000
0000
0000
0000
0000
0000
0000
0000
0003
0000
0000
0000
0000
0000
0000
0000
0000
0000
0000
0000
0000
0000
0000
0000
0000
0000
0000
0000
0000
0000
0000
0000
0000
0000
0000
0000
0000
0000
0000
0000
0000
0000
0000
0000
2000
0000
0000
0000
0000
0000
0000
0000
0000
0000
0000
0000
0000
0000
0000
0000
0000
0000
3000
0000
0000
0000
0000
0000
0000
0000
0000
0000
0000
0000
0000
0000
0000
0000
0000
0000
0000
0000
0000
0000
0000
0000
0000
0000
0000
0000
0000
0000
0002
0000
0000
0000
0000
0000
0000
0000
0000
0000
0000
0000
0000
0000
0000
0000
0000
0000
0000
0000
0000
0000
0000
0000
0000
0000
0000
0000
0000
0000
0000
0000
0003
0000
0000
0000
0000
0000
0000
0000
0000
0000
0000
0000
0000
0000
0000
0000
,
2000
0000
0000
3000
0000
0000
0000
0000
0000
0031
0000
0000
0000
0000
0000
0000
0000
0000
0000
0000
0000
0000
0000
0000
0101
0000
0000
0000
0000
0000
0000
0000
0000
2200
0000
0000
0000
0000
0000
0000
0300
0000
0000
0000
0000
0000
0000
0000
,
0020
0000
0000
0000
3000
0000
0000
0000
0000
0000
0000
0000
0000
0000
0000
0000
0000
0000
0000
0000
0000
0000
0000
0000
0030
0000
0000
0000
0000
0000
0000
0000
0000
0000
0000
0000
2000
0000
0000
0000
0000
0000
0000
0000
0000
0000
0000
0000
0000
0000
0000
0000
0000
0000
0000
0000
0000
0000
0000
0000
0002
0000
0000
0000
0000
0000
0000
0000
0000
0000
0000
0000
0000
0000
0000
0000
0000
0000
0000
0000
0000
0000
0000
0000
0000
0000
0000
0000
0000
0000
0003
0000
0000
0000
0000
0000
3000
0000
0000
0000
0000
0000
0000
0000
0000
0000
0000
0000
0000
0000
0000
0000
0000
0000
0000
0000
0000
0000
0000
0000
2020
0000
0000
0000
0000
0000
0000
0000
0030
0000
0000
0000
0000
0000
0000
0000
0000
0000
0000
0000
0000
0000
0000
0000
0000
0000
0000
0000
0000
0000
0000
0000
0000
0000
0000
0000
0000
0000
0000
0000
0000
0000
0000
0000
0000
0000
0000
0000
0001
0000
0000
0000
0000
0000
0000
0000
0000
0000
0000
0000
3000
0000
0000
0000
0000
0000
0000
0000
0000
0000
0000
0000
,
1000
0000
0000
0000
0000
0000
0000
0000
0000
0000
0000
0000
0000
0000
0000
0000
0000
0000
0000
0000
0000
0000
0000
0000
0200
0000
0000
0000
0000
0000
0000
0000
0000
0000
0000
0000
0020
0000
0000
0000
0000
0000
0000
0000
0000
0000
0000
0000
0000
0000
0000
0000
0000
0000
0000
0000
0030
0000
0000
0000
0000
0000
0000
0000
0000
0000
0000
0000
0000
0000
0000
0000
0300
0000
0000
0000
0000
0000
0000
0000
0000
0000
0000
0000
0000
0000
0000
0000
0000
0000
0000
0000
0000
0000
0000
0000
0000
0000
0000
0000
0000
0000
0000
0000
0000
0000
0000
0000
0101
0000
0000
0000
0000
0000
0000
0000
0000
0000
0000
0000
0000
0000
0000
0000
0000
0000
0000
0000
0000
0000
0000
0000
0000
0000
0000
0000
0000
0000
0000
0000
0000
0000
0000
0000
0022
0000
0000
0000
0000
0000
0000
0000
0000
0000
0000
0000
0000
0000
0000
0000
0000
0000
0000
0000
0000
0000
0000
0000
0000
0000
0000
0000
0000
0000
0000
0000
0000
0000
0000
0000
0000
0000
0000
0000
0000
0000
0000
0000
0000
0000
0033
0000
,
0000
0000
0000
0000
2200
0000
0000
0000
0000
0000
0000
0000
0000
0000
0000
0300
3002
0000
0000
0000
0000
0000
0000
0000
0200
0000
0000
0000
0000
0000
0000
0000
0000
0000
0000
0000
0003
0000
0000
0000
0000
0000
0000
0000
0020
0000
0000
0000
0330
0000
0000
0000
0000
0000
0000
0000
1000
0000
0000
0000
0000
0000
0000
0000
,
0100
0000
0001
0010
0000
0000
0000
0000
0001
0000
0100
0000
0010
0000
0100
0000
,
1000
0100
0001
0100
1000
0100
0010
0010
,
0010
0000
1000
0100
0001
0100
0010
1000
,
0010
0001
0000
0100
0100
0000
0100
0000
,
0100
0000
0000
0000
0000
0000
0000
0000
2020
0000
0000
0000
0000
0000
0000
0000
0000
3030
0000
0000
0000
0000
0202
0000
0000
0000
0000
0000
0000
0000
0000
0303
,
0000
0000
0000
0000
0000
0000
0000
0000
0000
0000
0000
0000
0000
0000
0000
0000
0000
0000
0000
0000
0000
0000
0000
0000
0000
0000
0000
0000
0000
0000
0000
0000
0000
0000
0000
0000
2200
0000
0000
0000
0000
0000
0000
0000
0000
0000
0000
0300
0000
0000
0000
0000
0000
0000
0000
0000
0000
0000
0000
0000
0000
0000
0000
0000
0000
0000
0000
0000
0000
0000
0000
0000
0200
0000
0000
0000
0000
0000
0000
0000
0000
0000
0000
0000
0000
0000
0000
0000
0000
0000
3000
0000
0000
0000
0000
0000
0000
0000
0000
0000
0000
0000
0000
0000
0000
0000
0000
0000
0000
0000
0000
0000
0000
0000
0000
0000
0000
0000
0000
0000
0000
0000
0000
0000
0000
0000
0000
0000
0000
0000
0000
0000
0000
0000
0000
0000
0000
0000
0000
0000
0000
0000
0000
0000
0001
0000
0000
0000
0000
0000
0300
0000
0000
0000
0000
0000
0000
0000
0000
0000
0000
0000
0000
0000
0000
0000
0000
0000
0100
0000
0000
0000
0000
0000
0000
0000
0000
0000
0000
0000
0000
0000
0000
0000
0000
0000
0000
0000
0000
0000
0000
0000
,
1000
0001
0100
0000
0110
0001
1000
0000
,
1100
0001
0100
0000
0100
0000
0100
0000
,
0100
0000
1001
0010
0000
0010
0001
0100
,
0000
0100
1000
0010
0000
0010
0001
0100
,
0010
0000
1000
0000
0002
0000
0000
0000
0000
0023
0000
0000
0000
0000
0230
0000
,
0000
0000
0000
2300
0010
3000
0000
0000
0101
0000
0000
0000
0001
0000
1000
0000
,
0100
1000
1000
1000
,
1000
0000
0010
0000
1100
0000
0001
1000
,
0100
0010
0010
0010
,
0001
0000
0000
1000
0000
0000
0100
0000
0000
0010
0000
0000
0002
0000
0000
0000
0000
0003
0001
0000
0000
0100
0000
0000
,
2000
0000
0000
0000
0000
0000
0000
3000
0000
0110
0000
0000
0000
0000
0000
1000
0000
0000
0001
0000
0000
0000
0000
0000
,
0110
0000
0000
0000
0000
0000
1000
0000
0000
0010
0000
0000
0002
0003
0000
0000
0000
0000
0001
0000
0000
0100
0000
0000
,
2000
0000
0000
0000
3000
0000
0000
0000
0000
0000
0000
0000
1010
0000
0000
0000
0000
0000
0000
0000
0000
0000
0000
0000
0101
0000
0000
0000
0000
0000
0000
0000
0000
0000
0000
0000
0010
0000
0000
0000
0000
0000
0000
0000
0000
0001
0000
0000
,
0000
1000
1000
0000
1001
0000
0020
0000
,
2030
0000
3200
0000
1300
0001
0010
0000
,
0001
0100
0000
0000
1010
0000
0000
0000
1100
0000
0000
0000
0010
0000
0001
0000
,
0010
0100
1000
0010
1000
0000
0010
0000
,
2020
0000
0000
0030
0000
0000
0000
0000
0001
0000
0000
3000
0000
0000
0000
0000
0011
0000
0000
0000
0022
0000
0030
0000
0010
0000
0000
0000
0003
0000
0000
0000
,
1000
0000
0001
0000
1000
0000
0001
0000
0000
0000
0000
0000
0100
0000
0000
0010
0000
0000
1000
0000
0000
0000
0000
0000
,
0001
0100
0000
0110
0000
1001
1000
0001
,
0100
0010
1000
0100
0001
0000
0000
0000
;

//---------------dance-single - ----------------
#NOTES:
     dance-single:
     :
     Hard:
     15:
     :
0000
0000
0000
0000
,
0000
0000
0000
0000
,
0000
0000
0000
0000
,
0000
0000
0000
0000
,
0000
0000
0000
0000
,
0000
0000
0000
0000
,
0000
0000
0000
0000
,
1100
0000
1010
0000
2200
0000
0000
0000
0000
0000
0000
0000
0000
0000
0000
0300
,
0010
0010
3010
0010
,
0110
0000
0000
0000
0000
0000
0000
0000
2020
0000
0000
3030
0001
0100
0001
0100
,
0001
0000
0000
0000
0000
0000
1100
0000
2200
0000
0000
3300
0010
0000
0100
0000
,
0110
0000
0000
0000
0000
0000
0000
0000
0001
0000
0000
0000
0000
0000
0000
0000
0001
0000
0000
0000
0000
0000
0000
0000
2002
0000
0000
0000
0000
0000
0000
0000
0000
3003
0000
0000
0010
0000
0000
0000
0000
0000
0010
0000
0000
0000
0000
0000
,
0010
0000
1000
0000
1000
0000
0001
0000
0001
0000
0000
0100
0000
0010
0100
0000
,
0101
0000
2000
0001
3001
0010
0020
0100
,
0130
0000
1000
0000
0001
0000
2000
0000
0000
0000
0000
0000
3010
0000
0000
0100
0000
0000
0010
0000
0000
0100
0000
0000
,
0001
0000
0000
0000
1000
0010
1000
0010
1000
0000
0100
0000
0010
0000
0001
0000
,
0100
0100
0100
0100
,
0110
0000
0000
0000
0000
0000
0001
0100
0001
0000
0000
0000
0000
0000
0010
0000
,
1000
0000
0001
0000
1000
0000
0000
0000
0010
0100
0010
0100
0010
0000
1000
0001
,
1000
0100
0000
0011
0001
0000
0000
0010
,
0001
0001
0001
0001
,
0110
0000
0001
0100
0001
0000
0001
0000
0000
1000
0010
1000
0010
0000
0100
0000
,
0001
0000
1000
0100
1000
0000
0010
0000
2200
0000
0000
0000
0000
0000
0000
3300
,
1001
0000
0110
0000
1001
0000
0110
0000
1000
0001
1000
0000
0010
0000
0100
0000
,
0001
2000
0000
0000
0000
0000
3000
0000
0100
0000
0100
0000
1000
0000
0001
0000
,
1010
0000
0000
0100
0001
0000
0000
0000
0010
0001
0000
0000
0010
0100
0000
0100
,
1000
0000
0000
0001
1000
0000
0000
0001
1000
0000
1000
0000
1000
0000
1000
0000
,
0010
1000
0010
1000
0000
0000
0001
0100
0001
0100
0000
0010
1000
0000
0000
0000
,
0100
0010
0100
0010
0000
0000
0001
1000
0001
0000
0100
0000
0100
0000
0100
0000
,
1000
0100
0000
0100
0001
0000
0000
0000
0010
0001
0000
0000
1000
0010
1000
0010
,
1000
0000
0000
0001
0100
0000
0000
0001
0010
0001
0000
1000
0100
0000
0010
0100
,
0010
0000
0001
1000
0000
0000
0010
1000
0010
0000
0000
0100
0001
0000
0000
0000
,
0100
0010
0100
0010
0000
0000
1000
0001
1000
0000
0010
0000
0100
0000
0000
0000
,
0101
0001
1000
1000
0000
0010
0100
0010
,
1000
0000
1000
0000
0000
0000
0002
0000
0200
0000
0000
0000
0303
0000
0010
1000
,
0010
0100
0001
1000
0000
0101
0010
1000
,
0100
0000
0000
0000
0100
0000
0000
0000
0100
0000
0000
0000
0100
0000
0000
1000
,
0001
0010
0001
0100
1000
0010
1000
0200
,
0000
0000
0310
0000
2002
0000
0000
3003
1000
0100
1000
0100
1000
0000
0001
0010
,
0001
0100
0010
1000
0100
0100
0000
0010
,
0001
0000
0001
0000
1000
0000
0010
0000
1000
0000
0100
0010
0100
0000
1000
0000
,
2002
0000
3003
0000
2020
0000
3030
0000
2200
0000
3300
0000
0001
0010
0001
0010
,
0001
0000
0000
0000
0202
0000
0303
0000
0010
1000
0010
0000
0100
0000
0001
1000
,
0001
0000
0010
0000
1000
0000
0001
0100
0010
0000
1000
0000
0100
0000
1000
0001
,
0010
0000
0100
0000
1000
0000
0010
0100
0001
0000
0001
0000
0001
0000
0000
0000
,
2002
0000
3003
0000
0202
0000
0303
0000
0022
0000
0033
0000
1000
0100
1000
0100
,
1000
0000
0000
0010
0100
0000
0000
0001
1000
0000
0000
0000
0100
0000
0010
0001
,
0100
0000
0010
0000
1000
0000
0001
1000
0100
0000
0000
0010
0001
0000
0000
1000
,
0010
0100
0010
0000
1000
0000
0001
0000
0010
0000
0001
0100
0001
0000
1000
0000
,
0020
0200
0000
0000
0030
0000
0302
0200
,
0003
0000
1000
0000
0001
0000
1300
0100
,
0002
0000
0000
0000
0000
0013
0001
0100
,
2000
0000
3000
0000
0010
0010
0010
0010
,
2002
0000
3003
0100
0001
0001
1000
0100
,
1001
0000
0000
0000
0110
0000
0000
0000
1000
0000
0010
0000
0001
0000
0100
0010
,
0100
0000
0001
0001
1000
1000
0001
0001
,
0010
2000
3200
0320
,
0032
0103
0000
0000
,
0000
0000
0000
0000
,
0000
0000
0000
0000
,
0000
0010
0010
0010
,
0010
0000
1000
0001
0000
0000
0000
0000
0011
0000
0000
1100
0000
0000
0000
0000
,
1010
0000
0000
0101
0000
1010
0000
0000
0000
0000
0000
0010
1000
0001
0000
0001
,
0000
0100
0010
0000
0000
0000
0000
0000
0101
0000
0000
1100
0000
0000
0000
0000
,
1010
0000
0000
1001
0000
0110
0000
0000
0000
0000
0000
0101
0000
0000
1100
0000
,
0001
0000
0100
0010
1000
0000
0000
0000
1100
0000
0001
0000
0100
0000
0101
0000
,
0101
0000
0000
0000
0000
0000
0010
0000
0000
0000
0000
0000
1000
0000
0000
0000
0100
0000
0000
0000
0010
0000
0000
0000
0001
0000
0000
0000
0000
0000
1000
0000
0000
0001
0000
0000
0200
0000
0000
0000
0000
0000
0320
0000
0000
0000
0000
0000
,
2030
3002
0023
0000
0000
0000
0000
0000
,
0000
0000
0000
0100
0000
0000
0000
0000
0100
0000
0000
0000
0100
0000
0000
0000
,
0130
0000
0000
0110
0000
0000
0000
0000
0011
0000
0000
1010
0000
0000
0000
0000
,
1001
0000
0000
1010
0000
1100
0000
0000
0000
0000
0000
0110
0000
0000
0001
0000
,
1000
0000
0010
0100
0001
0000
0000
0000
1000
0010
0000
0100
0001
0000
0000
0000
,
0010
0001
1000
0000
1100
0000
1100
0000
0000
0000
0011
0000
0100
0000
0010
0000
,
1000
0000
0100
0010
0001
0000
0000
1000
0010
0000
1000
0100
0010
0000
0001
0000
,
0100
0010
0100
0001
0000
1000
0001
0000
0010
0001
0010
0100
0000
0100
1000
0000
,
0010
1000
0100
0000
0010
0001
0010
0000
0001
0100
0001
0000
0010
0000
0100
1000
,
0000
1000
0010
0000
0100
0000
0101
0000
1001
0000
0000
0000
0110
0000
0000
0000
,
1001
0000
0000
0000
2020
0000
0000
0000
0000
3030
0000
0002
0200
0000
0000
0000
,
0000
0303
0000
0010
2000
0000
0002
0000
0000
3003
0000
0000
1000
0010
0100
0000
,
0001
1000
0010
0100
0002
0000
0000
0000
0013
0000
0001
0100
2000
0000
0000
0000
,
3010
0000
0000
0100
0001
0000
0000
0000
0001
0000
0000
0000
1000
0000
0000
0000
,
1000
0000
0101
1000
0000
1100
1100
0001
,
0000
0000
0011
0000
0110
0000
1100
0000
0000
0000
0010
1000
0001
0000
0010
0001
,
1000
0000
0010
0100
0002
0000
0000
0000
0000
0023
0000
0000
0000
0000
0230
0000
,
0000
0000
0000
1300
1010
0000
0000
0000
0101
0000
0000
0000
0011
0000
0000
0000
,
1100
1001
0110
1001
,
0110
1001
1100
0101
,
0011
1010
0110
1001
,
1000
0010
1000
0010
1000
0000
0100
0000
0001
0000
0100
0000
0010
0000
1000
0000
,
0010
0000
0001
0000
0100
0000
1000
0000
0100
0000
0001
0000
0010
0001
1000
0000
,
0001
0100
0010
0100
0001
0000
0010
0100
2000
0000
0000
0000
3010
1000
0001
0000
,
0101
0000
0000
0000
0000
0000
0000
0000
0000
0000
0000
0000
1000
0000
0000
0000
0100
0000
0000
0000
1000
0000
0000
0000
0001
0000
0000
0000
0100
0000
0000
0000
0001
0000
0000
0000
1000
0000
0000
0000
0000
0000
0000
0000
0000
1010
0000
0000
,
0000
0101
1100
0000
0101
0000
1001
0000
,
0110
0000
0000
0000
1001
0000
0000
0000
1000
0010
0100
0001
0010
0000
0000
0000
,
0100
1000
0000
0101
0000
0000
0011
0000
0000
2002
0000
0000
,
0000
3003
0010
1100
,
0011
0000
1100
0000
0101
0101
1010
0000
,
1000
0000
0000
0000
0001
0000
0000
0000
0100
0000
0000
0000
0010
0000
0000
0000
0000
0000
0000
0000
0000
0000
0000
0000
1000
0000
0000
0100
0000
0000
1000
0000
0000
0100
0000
0000
0010
0000
0000
0001
0000
0000
0010
0000
0000
0001
0000
0000
,
0100
0000
0000
0000
0001
0000
1000
0100
0010
0000
0001
0100
0010
0000
1000
0001
,
0100
0000
0010
1000
0001
0100
0010
0100
0001
0000
0000
0000
0000
0000
0000
0000
;
