#TITLE:UNDERGROUND;
#SUBTITLE:;
#ARTIST:CRE8OR;
#TITLETRANSLIT:;
#SUBTITLETRANSLIT:;
#ARTISTTRANSLIT:;
#CREDIT:;
#BANNER:underground-bn.png;
#BACKGROUND:underground-bg.png;
#LYRICSPATH:;
#CDTITLE:;
#MUSIC:ubnderground remaster.mp3;
#OFFSET:-0.129;
#SAMPLESTART:23.960;
#SAMPLELENGTH:15.400;
#SELECTABLE:YES;
#BPMS:0.000=140.900;
#STOPS:;
#BGCHANGES:0.000=underground-bg.png=1.000=1=0=1,
34.000=underground.avi=1.000=1=0=1,
234.000=underground-bg.png=1.000=1=0=1,
99999=-nosongbg-=1.000=0=0=0 // don't automatically add -songbackground-
;

//---------------dance-single - ----------------
#NOTES:
     dance-single:
     :
     Hard:
     9:
     0.676,0.658,0.332,0.078,0.722: // measure 1
0000
0000
0000
0000
,  // measure 2
0000
0000
0000
0000
,  // measure 3
0000
0000
0000
0000
,  // measure 4
0000
0000
0000
0000
,  // measure 5
1001
0000
0000
0001
0000
0000
0100
0000
0000
0001
0000
0000
1000
0000
0100
0000
,  // measure 6
0010
0000
0000
0010
0000
0000
0010
0000
0000
0001
0000
0000
0100
0000
0010
0000
,  // measure 7
0100
0000
0000
0100
0000
0000
0100
0000
0000
0001
0000
0000
1000
0000
0010
0000
,  // measure 8
0100
0000
0000
0100
0000
0000
0010
0000
0000
1000
0000
0000
0001
0000
0010
0000
,  // measure 9
0220
0000
0000
0000
0000
0000
0000
0000
0000
0000
0330
0000
1000
0001
1000
0001
,  // measure 10
1000
0001
1000
0001
1000
0001
1000
0001
1000
0001
1000
0001
0002
0000
0000
0000
,  // measure 11
0103
0000
0100
0001
0000
0001
0010
0000
0010
0100
0000
0000
1000
0000
0010
0000
,  // measure 12
1000
0000
1000
0100
0000
0100
0010
0000
0010
0001
0000
0000
0100
0000
0010
0000
,  // measure 13
1000
0000
1000
0001
0000
0001
1000
0000
1000
0001
0000
0000
0100
0000
0010
0000
,  // measure 14
0100
0000
0100
0010
0000
0010
0100
0000
0100
0001
0000
0000
1000
0000
0001
0000
,  // measure 15
1001
0000
0000
0110
0000
0000
1001
0000
0000
1100
0000
0000
0010
0000
0100
0000
,  // measure 16
0001
0000
0000
0101
0000
0000
1001
0000
0000
0010
0000
0000
0100
0000
0001
0000
,  // measure 17
0010
0000
0000
0010
0000
0000
0011
0000
0000
0101
0000
0000
0001
0000
1000
0000
,  // measure 18
0010
0000
0100
0010
0100
0000
0001
0000
1000
0000
0100
0010
0100
0000
0000
0000
,  // measure 19
1001
0000
1000
0010
0000
1000
0001
0000
0100
0001
0000
0000
0010
0000
0100
0000
,  // measure 20
1000
0000
1000
0010
0000
0001
1000
0000
0001
0100
0000
0000
1000
0000
0001
0000
,  // measure 21
1000
0000
1000
0100
0000
0100
0001
0000
0001
0100
0000
0000
0010
0000
0100
0000
,  // measure 22
1000
0000
1000
0001
0000
0001
1000
0000
1000
0001
0000
0000
1000
0000
0001
0000
,  // measure 23
0100
0000
0100
0001
0000
0001
0010
0000
0010
0100
0000
0000
0100
0000
1000
0000
,  // measure 24
0001
0000
0100
0010
0000
0010
1000
0000
1000
0001
0000
0000
0001
0000
0100
0000
,  // measure 25
0001
1000
0000
0001
1000
0000
1000
0001
0000
0001
0010
0000
0010
0100
0000
1000
,  // measure 26
0010
0000
1000
0010
1000
0000
0010
0100
0000
0001
0000
0000
1000
0000
0000
0000
,  // measure 27
2001
0000
0000
0000
3001
0000
1000
0001
0000
1000
0000
0001
0100
0000
0001
0000
,  // measure 28
0010
0000
0100
0000
1000
0000
0010
0000
1000
0000
0001
1000
0001
0000
0001
0000
,  // measure 29
0100
0000
0000
0000
0001
0000
0000
0001
0000
1000
0000
0010
0100
0000
0010
0000
,  // measure 30
1000
0000
0001
0000
0010
0000
0100
0000
0010
0000
0000
0100
1000
0000
0010
0000
,  // measure 31
0100
0000
0000
0000
0001
0000
0000
0001
0000
1000
0000
0010
0100
0000
0010
0000
,  // measure 32
1000
0000
0000
0000
0001
0000
0000
0100
0000
1000
0000
0010
0100
0000
0001
0000
,  // measure 33
1001
0000
0000
0000
0100
0000
0000
1000
0000
0001
0000
1000
0100
0000
0100
0000
,  // measure 34
0010
0000
0000
0100
1000
0010
0100
0010
0100
0010
0100
0010
0100
0010
0100
0010
,  // measure 35
0200
1300
0200
0000
0301
0010
0100
0000
,  // measure 36
2001
0000
0000
3001
0100
0000
0100
0001
0000
0001
0010
0000
0100
0000
1000
0000
,  // measure 37
0010
1000
0000
0001
0100
0000
0001
1000
0000
0100
1000
0000
0010
0000
0100
0000
,  // measure 38
0001
0100
0000
0010
0100
0000
1000
0100
0000
0001
0010
0000
0001
0000
1000
0000
,  // measure 39
0010
1000
0000
0001
1000
0000
0100
1000
0000
0010
0000
0000
0100
0000
0001
0000
,  // measure 40
0010
0000
0010
0100
0000
0100
1000
0000
1000
0001
0000
0000
1000
0000
0010
0000
,  // measure 41
0001
1000
0000
1000
0001
0000
0001
1000
0000
0001
0000
0000
1000
0000
0001
0000
,  // measure 42
0001
1000
0000
1000
0001
0000
0001
1000
0000
1000
0001
0000
0001
0000
0010
0000
,  // measure 43
0100
0001
0000
0001
0010
0000
0010
0100
0000
0100
0000
0000
1000
0000
0010
0000
,  // measure 44
0010
1000
0000
0101
0000
0000
1001
0000
0000
0100
0000
0000
1000
0000
0001
0000
,  // measure 45
0100
0010
0100
0001
0010
0100
1000
0010
,  // measure 46
1010
0000
0000
1001
0000
0000
0101
0000
0000
1001
0000
0000
0100
0000
0010
0000
,  // measure 47
0001
1000
0100
0010
0100
1000
0010
0100
,  // measure 48
1010
0000
0000
1001
0000
0000
0101
0000
0000
0011
0000
0000
0001
0000
0010
0000
,  // measure 49
0100
0000
0000
1100
0000
0000
1001
0000
0000
0101
0000
0000
1000
0000
0010
0000
,  // measure 50
0110
0000
0000
1010
0000
0000
1001
0000
0000
0101
0000
0000
1000
0000
0100
0000
,  // measure 51
0010
0000
0100
1000
0100
0000
0010
0000
0001
0000
0100
0001
0100
0000
0010
0000
,  // measure 52
1002
0000
0000
0000
1003
0000
0001
1000
0000
0001
0000
1000
0010
0000
1000
0000
,  // measure 53
0100
0000
0010
0000
0001
0000
0100
0000
0001
0000
1000
0001
1000
0000
1000
0000
,  // measure 54
0010
0000
0000
0000
1000
0000
0000
1000
0000
0001
0000
0100
0010
0000
0100
0000
,  // measure 55
0001
0000
1000
0000
0100
0000
0010
0000
0100
0000
0000
0010
0001
0000
0100
0000
,  // measure 56
0010
0000
0000
0000
1000
0000
0000
1000
0000
0001
0000
0100
0010
0000
0100
0000
,  // measure 57
0001
0000
0000
0000
1000
0000
0000
0010
0000
0001
0000
0100
0010
0000
1000
0000
,  // measure 58
1001
0000
0000
0000
0010
0000
0000
0001
0000
1000
0000
0001
0010
0000
0010
0000
,  // measure 59
0100
0000
0001
1000
0001
0000
1000
0000
0001
0000
1010
0000
0000
0000
0000
0000
;

//---------------dance-double - Copied from----------------
#NOTES:
     dance-double:
     Copied from:
     Hard:
     9:
     0.611,0.575,0.820,0.039,0.000:
00000000
00000000
00000000
00000000
,
00000000
00000000
00000000
00000000
,
00000000
00000000
00000000
00000000
,
00000000
00000000
00000000
00000000
,
01000000
00001000
00000100
00000001
00001000
00000100
00000010
00001000
,
00100000
01000000
00010000
00001000
01000000
00010000
10000000
00001000
,
00000010
00000001
00001000
00000100
00000010
00000001
00001000
00000001
,
00010000
00100000
01000000
00010000
10000000
00100000
01000000
00000000
,
01100000
00100000
10000000
00010000
00100000
00000000
01000000
00100000
,
00010000
10000000
01000000
00000000
00100000
00001000
00010000
00000000
,
01100000
00000000
00000110
00000010
00001000
00000001
00000100
00000010
,
00001010
00000000
00000101
00000000
00000010
00001000
00100000
01000000
,
00010000
00000000
00011000
00000000
01000000
10000000
00100000
00010000
,
00001000
01000000
00100000
01000000
00010000
00100000
01000000
00100000
,
00001000
00000000
00000110
00000000
01100000
01000000
10000000
00100000
,
01000000
00010000
10000000
00100000
01000000
00000000
00001000
00010000
,
00001000
00000000
00110000
00000000
01100000
00100000
10000000
00010000
,
00100000
00000000
00011000
00010000
00100000
01000000
10000000
00000000
,
10010000
00000000
00001001
00000000
00000110
00000100
00001000
00000010
,
00000100
00000001
00000010
00000100
00001000
00000000
00000110
00000000
,
01100000
00100000
01000000
00010000
00100000
01000000
10000000
00100000
,
00100000
10000000
00010000
00100000
01000000
00000000
10000000
00010000
,
10010000
00000000
00001001
00000010
00000100
00000001
00001000
00000100
,
00000010
00000001
00001000
00000100
00000001
00000100
00000010
00001000
,
00010000
01000000
01000000
00100000
00001000
00010000
01000000
00000000
,
01010000
00001100
00001010
00110000
,
00100000
00010000
01000000
00100000
00100000
10000000
00010000
00100000
,
01100000
00000000
00011000
00001000
00000100
00000001
00001000
00000100
,
00000110
00000000
00011000
00100000
01000000
00010000
01000000
10000000
,
10010000
00000000
01100000
01000000
10000000
00100000
00010000
00000000
,
01001000
00000000
00101000
00000000
00010000
00000010
00000100
00000000
,
00010100
00000000
00001010
00000000
00001000
00000100
00001000
00000001
,
00000101
00000000
00001001
00000000
00000010
00000100
00001000
00000010
,
00001010
00000000
00010100
00000000
01000000
00001000
00010000
00000000
,
02200000
00000000
00000000
03300000
,
01100000
00000000
00000110
00000100
00001000
00000001
00000010
00000100
,
00000110
00000000
00000010
00000001
00000100
00001000
01000000
00010000
,
10010000
00000000
00001001
00000010
00000100
00000001
00001000
00000001
,
00001001
00000000
10010000
00000000
00100000
01000000
00010000
00001000
,
01001000
00000000
00100000
01000000
00010000
00001000
01000000
00010000
,
00101000
00000000
00010010
00000010
00000100
00000001
00001000
00000100
,
00010100
00000000
00101000
00010000
01000000
00100000
01000000
00001000
,
00101000
00000000
00010000
00001000
01000000
00010000
00100000
00000000
,
01100000
00000000
00000110
00000100
00001000
00000001
00000010
00000100
,
00000001
00000100
00001000
00000100
00000001
00000100
00001000
00000001
,
00001001
00000000
10010000
10000000
01000000
00010000
01000000
10000000
,
01000000
00010000
01000000
10000000
00010000
00100000
01000000
00100000
,
01100000
10010000
01010000
00001100
,
00100010
00000000
00101000
00000000
01010000
00000000
01000100
00010000
,
00001000
00010000
00001000
00010000
00001000
00010000
00000100
00000100
,
00000010
00000001
00001000
00000100
00000011
00000100
00000010
00000000
,
00001100
00000000
01010000
00000000
00110000
00000000
00001010
00000100
,
00001000
00000000
00000101
00000000
00001010
00000010
00000100
00000001
,
00001001
00000000
00000110
00000000
00001001
00000001
00000010
00000100
,
00001100
00000000
00001001
00000000
10010000
01000000
00100000
00010000
,
10010000
00000000
01100000
00000000
00000110
00000010
00001000
00000100
,
00001000
00000000
00000101
00000000
00000110
00000100
00001000
00010000
,
01001000
00000000
00011000
00000000
00100100
00010000
01000000
00100000
,
20020000
00000000
00000000
00000000
00000000
00000000
00000000
30030000
;
