#TITLE:STORM;
#SUBTITLE:;
#ARTIST:KOSENKO;
#TITLETRANSLIT:;
#SUBTITLETRANSLIT:;
#ARTISTTRANSLIT:;
#CREDIT:;
#BANNER:storm-bn.png;
#BACKGROUND:storm-bg.png;
#LYRICSPATH:;
#CDTITLE:cdtitle.png;
#MUSIC:Yanni 11 The Storm.mp3;
#OFFSET:-0.049;
#SAMPLESTART:7.440;
#SAMPLELENGTH:15.300;
#SELECTABLE:YES;
#BPMS:0.000=160.000,8.000=319.999,25.000=160.000;
#STOPS:24.000=1.340
;
#BGCHANGES:0.000=storm.avi=1.000=0=0=1,
99999=-nosongbg-=1.000=0=0=0 // don't automatically add -songbackground-
;

//---------------dance-single - ----------------
#NOTES:
     dance-single:
     :
     Hard:
     9:
     0.715,0.761,0.063,0.024,0.479:
0000
0000
0000
0000
,
0000
0000
0000
0000
,
1000
0001
0010
0100
,
1000
0001
0100
0010
,
0100
0001
0010
0100
,
1000
0000
0001
0000
1000
0001
1000
0000
,
1001
0000
1000
0100
0001
0100
1000
0001
,
0100
1000
0100
0001
1000
0100
0010
0001
,
1000
0000
0001
0000
0010
0000
0100
0000
1000
0000
0001
0000
1000
0100
0010
0001
,
1000
0010
0100
0000
0001
0000
1000
0000
0010
0000
0100
0000
0001
0000
1000
0001
,
1000
0000
0100
0000
0010
0000
0100
0010
0100
0000
1000
0000
0001
0010
0100
1000
,
0001
0010
0100
0000
1000
0000
0001
0000
0010
0000
0100
0000
1000
0000
0100
0000
,
0001
0000
0100
0000
1000
0001
0100
0001
1000
0010
0100
0001
0100
0000
1000
0000
,
1000
0000
0100
0000
0001
0000
0010
0000
0100
0000
1000
0000
0010
1000
0001
0100
,
0010
1000
0001
0000
0100
0000
1000
0000
0100
0000
0001
0000
1000
0000
0100
0000
,
0010
0000
0000
0000
0100
0000
1000
0100
1000
0000
0000
0000
0001
0000
0100
0001
,
0100
0000
0000
0000
0010
0000
0010
0100
0010
0000
0000
0000
1000
0000
0001
1000
,
0001
0000
0000
0000
0010
0000
0100
0010
0100
0000
0000
0000
1000
0000
0001
1000
,
0001
0000
0100
0001
1000
0100
1000
0001
,
0010
0000
0000
0000
0001
0010
0001
0010
0001
0000
0000
0000
0100
0001
0100
0001
,
0000
0000
0000
0000
1000
0010
1000
0010
0000
0000
0000
0000
0100
0001
0100
0001
,
0000
0000
0000
0000
1000
0100
1000
0100
0000
0000
0000
0000
0010
0001
0010
0001
,
0000
0000
0000
0000
1000
0001
1000
0001
0000
0000
0000
0000
0100
0010
0100
0010
,
0000
0000
0000
0000
1000
0010
1000
0010
0000
0000
0000
0000
0100
0001
0100
0001
,
0000
0000
0001
0010
0100
1000
0100
0001
,
0100
1000
0001
0010
0100
1000
0100
0001
,
0100
1000
0010
0100
0001
0100
1000
0100
,
0010
0000
0000
0000
1000
0010
0000
0100
0001
0000
0000
0001
0010
0000
0000
0010
,
0100
0000
0000
0100
1000
0001
0010
0100
1000
0001
0010
0100
1000
0100
0010
0001
,
1000
0100
0010
0001
0000
0000
1000
0000
0000
1000
0000
0000
1000
0000
0000
0010
,
0000
0000
0010
0000
0010
0000
0000
0100
0000
0000
0100
0000
0000
0100
0000
0000
,
0001
0000
0000
0010
1000
0000
0000
0010
0100
0000
0000
0100
0001
0000
0000
0100
,
0001
0000
0000
1000
0010
0000
0000
1000
0010
0000
0000
0100
0001
0000
0000
0100
,
0001
0000
0000
0010
0001
0000
0000
0010
0001
0000
0000
0100
0001
0000
0000
1000
,
0100
0000
0000
1000
0010
0000
0000
1000
0001
0000
0000
0100
0001
0000
0000
0010
,
0001
0000
0000
0001
1000
0000
0000
0010
1000
0000
0000
0100
1000
0000
0000
0001
,
1000
0000
0000
0100
1000
0000
0000
0010
0100
0000
0001
0000
0100
0000
0000
0010
,
1000
0000
0000
0100
1000
0000
0001
0000
0100
0000
0001
1000
0000
0000
1000
0000
,
1000
0000
0100
0000
0010
0000
0100
0000
1000
0000
0000
1000
0000
0000
1000
0000
,
0001
0000
0010
0001
0100
1000
0100
0001
,
1000
0100
0010
0100
1000
0010
0100
0001
,
0100
0010
1000
0000
0001
0000
0100
0001
,
1000
0200
0010
0010
,
0310
0000
0000
0000
0010
0001
0100
1000
,
0100
0001
1000
0100
0010
0100
1000
0000
,
0001
0100
1000
0001
1000
0001
1000
0000
,
1000
0100
0001
1000
0001
0000
0100
0000
,
0010
0000
1001
0000
0010
0001
1000
0010
,
0100
0000
1000
0000
0100
0000
0000
0001
0000
0000
0001
0000
0000
0000
0000
0000
,
0100
0000
0001
0010
0000
0100
0000
1000
,
0010
0100
0001
1000
0001
0000
0010
0000
,
0100
0000
0000
0000
1000
0100
0000
0000
0100
0010
0000
0000
0010
0001
0000
0000
,
0001
0100
0000
0000
0100
0010
0000
0000
0010
1000
0000
0000
1000
0100
0000
0000
,
0100
0000
1001
0001
0100
0000
1001
1000
,
0100
0000
1000
0001
0100
0000
0010
1000
,
0001
0010
0100
0000
1000
0000
0001
0000
,
0010
0220
0000
0000
,
0330
0000
1000
0100
1000
0001
0100
0001
,
0100
0000
0010
1000
0010
1000
0001
0010
,
0100
0000
1000
0000
0001
0000
1000
0000
0100
0000
0010
0000
0001
1000
0001
1000
,
0001
1000
0001
1000
0001
0000
1000
0000
0010
0000
0100
0000
0001
0000
0010
0000
,
0100
0000
1000
0000
0010
0000
0100
0000
0001
0000
1000
0000
0100
1000
0100
1000
,
0100
1000
0100
0000
1000
0000
0001
0000
0010
0000
0100
0000
1000
0000
0010
0000
,
0100
0000
0001
0000
0010
0001
0010
0001
0010
0001
0010
0000
0001
0000
1000
0000
,
0010
0000
0100
0000
0001
0000
0100
0000
1000
0000
0100
0000
0010
1000
0010
1000
,
0010
1000
0010
0000
0100
0000
0001
0000
1000
0000
0100
0000
0010
0000
0100
0000
,
0010
0000
0000
0000
0001
0000
0100
0001
0100
0000
0001
0000
1000
0000
0010
1000
,
0010
0000
0000
0000
0100
0000
0001
1000
0001
0000
0000
0000
0010
0000
0001
0010
,
0001
0000
0000
0000
0010
0000
0100
0010
0100
0000
0000
0000
1000
0000
0001
1000
,
0001
0000
0000
0000
0100
0000
0001
0100
0001
0000
0000
0000
1000
0100
1000
0100
,
1000
0000
0000
0000
0001
0100
0001
0100
0001
0000
0000
0000
0010
0100
0010
0100
,
0010
0000
0001
0000
1000
0000
0001
0100
,
0010
1000
0001
0000
0100
0001
1000
0000
,
0100
0010
0001
0000
1000
0010
1000
0100
,
1000
0001
0100
0010
0100
0001
0010
0100
,
1000
0001
1000
0001
1000
0001
1000
0001
,
1000
0000
0010
0000
1000
0000
0100
1000
0100
0000
1000
0000
0001
0000
0100
0001
,
0100
0000
0010
0000
1000
0000
0001
1000
0001
0000
0010
0000
0100
0000
1000
0000
,
0001
0000
0110
0000
0100
0100
1000
1000
,
0001
0001
0100
0100
0010
0010
1000
1000
,
0001
0001
0100
0100
0001
0001
1000
1000
,
0001
0001
0010
0010
0010
0010
0010
0010
,
0010
0010
0010
0010
0010
0010
0010
0010
,
0010
0010
1001
0000
0000
0000
0000
0000
,
0010
0100
0010
0000
1001
0000
0000
0000
0000
0000
0000
0000
0000
0000
0000
0000
;

//---------------dance-double - Copied from----------------
#NOTES:
     dance-double:
     Copied from:
     Hard:
     9:
     0.705,0.728,0.118,0.008,0.424:
00000000
00000000
00000000
00000000
,
00000000
00000000
00000000
00000000
,
00100000
00001000
00010000
01000000
,
10000000
00010000
00010000
00000100
,
00001000
00000010
00000100
00000001
,
00000100
00001000
00001000
00010000
,
00100000
00000000
10000000
01000000
00100000
00001000
00010000
00000100
,
00001000
00000001
00000100
00001000
00010000
01000000
10000000
00010000
,
00100000
00000000
01000000
00000000
10000000
00000000
00010000
00000000
00100000
00000000
00001000
00000000
00010000
00001000
00000010
00000100
,
00001000
00000001
00000010
00000000
00000100
00000000
00001000
00000000
00000001
00000000
00000100
00000000
00001000
00000000
00010000
00000000
,
00100000
00000000
01000000
00000000
00001000
00000000
00010000
00000000
01000000
00000000
10000000
00000000
00010000
00100000
01000000
10000000
,
00010000
00100000
01000000
00000000
10000000
00000000
01000000
00000000
00010000
00000000
00001000
00000000
00000100
00000000
00000001
00000000
,
00001000
00000000
00000010
00000000
00000100
00000001
00001000
00000010
00000100
00000001
00001000
00000000
00000010
00000000
00000100
00000000
,
00000001
00000000
00000010
00000000
00000100
00000000
00001000
00000000
00000010
00000000
00010000
00000000
00001000
00100000
00001000
00010000
,
00001000
00100000
00001000
00000000
01000000
00000000
00010000
00000000
00100000
00000000
01000000
00000000
10000000
00000000
01000000
00000000
,
00010000
00000100
00001100
00000000
00000001
00000000
00000100
00000000
,
00001010
00000000
00000100
00010000
00001000
00000000
01000000
00001000
,
00010000
00000000
01000000
10000000
00010000
00100000
01000000
00000000
,
10000000
01000000
00010000
00000000
00001000
00010000
01000000
00000000
,
00010000
00001000
00000100
00000000
00010000
00001000
00000100
00000000
,
00000001
00000100
00001000
00000000
00010000
00001000
00000100
00000001
,
00001000
00000100
00000010
00000001
00000100
00001000
00010000
01000000
,
00100000
00001000
00010000
01000000
10000000
00010000
00100000
01000000
,
00100000
00001000
00010000
00000010
00000100
00000001
00001000
00000100
,
00001000
00000000
00000000
00000000
00011000
00000000
00001000
00000000
00010000
00000000
00001000
01000000
00001000
00000000
00100000
00000000
,
00010000
00000000
10000000
00010000
10000000
00000000
00100000
00000000
01000000
00000000
00010000
01000000
00010000
00000000
10000000
00000000
,
01000000
00000000
00100000
01000000
00100000
00000000
00001000
00000000
00010000
00000000
00000100
00000000
00000010
00000000
00000100
00000010
,
00000100
00000000
00000000
00000000
00001000
00000001
00001000
00000000
00000010
00000100
00000000
00000010
00000001
00000000
00000000
00000100
,
00010000
00000000
00000000
00001000
00100000
00010000
10000000
00100000
01000000
00010000
10000000
01000000
00100000
00010000
10000000
00100000
,
01000000
00010000
00000000
00100000
01000000
00000000
10000000
00000000
00000000
00010000
00000000
00000000
00100000
00000000
01000000
00000000
,
00000000
10000000
00000000
00000000
00010000
00000000
00100000
00000000
00000000
00001000
00000000
00000000
00010000
00000000
00000100
00000000
,
00001000
00000000
00000000
00000000
00001001
00000000
00000001
00000000
00000100
00000000
00000001
00000000
00001000
00000100
00000000
00000100
,
00010000
00000000
00000000
00001000
01000000
00000000
00000000
01000000
00010000
00000000
00000000
00000000
10000000
00100000
00000000
00100000
,
10000000
00000000
00000000
00000000
00010000
00100000
00000000
00100000
01000000
00000000
00000000
00010000
00001000
00000000
00000000
00001000
,
00000010
00000000
00000000
00000100
00001000
00000000
00000000
00001000
00010000
00000000
00000000
00000100
00001000
00000000
00000000
00000001
,
00000100
00000000
00000000
00001000
00010000
00000000
00000000
00001000
00000100
00000000
00000000
00001000
00010000
00000000
00000000
00001000
,
00000100
00000000
00000000
00001000
00010000
00000000
00000000
00001000
01000000
00000000
00000000
00010000
01000000
00000000
00000000
00010000
,
00001000
00000000
00000000
00010000
01000000
00000000
00000000
00010000
00001000
00000000
00000000
00010000
01000000
00000000
00001000
00000000
,
00010000
01000000
10000000
00010000
00100000
01000000
10000000
00010000
,
00100000
01000000
11000000
00000000
00100000
00001000
00000000
00010000
,
00000000
00000100
00000000
00000000
00000010
00000000
00000001
00000000
00000100
00000000
00001000
00000000
00010000
00000000
00001000
00000000
,
00100000
00000000
01000000
00000000
10000000
00000000
00000000
00010000
00000000
00000000
00100000
00000000
01000000
00000000
10000000
00000000
,
01000000
00010000
00001000
00000000
00000020
00000000
00000100
00000000
,
00000100
00000000
00000130
00000000
00000000
00000000
00000010
00000001
,
00000100
00001000
00010000
00001000
00100000
00010000
01000000
00100000
,
10000000
00010000
10000000
01000000
00010000
01000000
10000000
00010000
,
00100000
00100000
00100000
00100000
,
00100000
00000000
00010000
00000000
01000000
00000000
00000000
10000000
00000000
00000000
10000000
00000000
00000000
01000000
00000000
00000000
,
00010000
10000000
00000000
00000000
01000000
00000000
00000000
01000000
00000000
00000000
01000000
00000000
00000000
00000000
00010000
00000000
,
00001000
00000000
00000010
00000001
00000100
00000001
00001000
00000100
,
00000010
00000001
00001000
00000100
00010000
00000000
00010000
00000000
,
00000100
00000000
00000000
00000000
00000011
00000000
00000000
00000001
00000100
00000000
00000000
00000100
00001000
00000000
00000000
00001000
,
00010000
00000000
00000000
00010000
00100000
00000000
00000000
00100000
10000000
00000000
00000000
10000000
01000000
00000000
00000000
01000000
,
00010000
00000000
00010000
01000000
10000000
00010000
00100000
00000000
,
01000000
00100000
00010000
00000000
10000000
01000000
00010000
01000000
,
10000000
00000000
00010000
00000000
00100000
00000000
01000000
00000000
00100000
00000000
01000000
00000000
00100000
00000000
01000000
00100000
,
01000000
10000000
10010000
00000000
00000000
00000000
00000000
00000000
,
00000000
00000000
10000000
01000000
00100000
00001000
00000010
00000001
,
00000100
00001000
01000000
00100000
10000000
01000000
00010000
00000010
,
00000100
00000001
00000010
00000001
00001000
01000000
00100000
00001000
,
00010000
01000000
10000000
00010000
00000100
00000010
00001000
00000001
,
00000010
00010000
00100000
01000000
00001000
00000100
00000010
00000001
,
00000100
00010000
01000000
00010000
00100000
01000000
10000000
00100000
,
00010000
00100000
10000000
00010000
00100000
01000000
00001000
00000100
,
00010000
01000000
00100000
01000000
00010000
00001000
01000000
00100000
,
10000000
00010000
00100000
00001000
00010000
00000010
00000100
00000001
,
00000010
00000000
00001100
00000100
00000010
00000000
00000101
00000010
,
00001000
00000000
00011000
00001000
01000000
00000000
01100000
00100000
,
01000000
00000000
01010000
00010000
10000000
00000000
01000000
10000000
,
00010000
00000000
00000000
00000000
00100000
00000000
00001000
00010000
00001000
00000000
00000000
00000000
01000000
00000000
00010000
10000000
,
00010000
00000000
00000000
00000000
00100000
00000000
01000000
00100000
01000000
00000000
00000000
00000000
00010000
00000000
00000100
00000010
,
00000100
00000000
00001001
00000000
00000000
00000000
00001000
00000001
,
00000100
00000010
00001000
00000000
00000001
00000000
00000001
00000100
,
00001000
00000000
00010000
00000000
00100000
00000000
01000000
00010000
,
00100000
01000000
10000000
00000000
00010000
00000000
00100000
00000000
,
01000000
00000000
00000000
00000000
10000000
00000000
01000000
00100000
01000000
00000000
00010000
00000000
00001000
00000000
00000100
00000001
,
00000100
00000000
00000010
00000000
00001000
00000000
00000100
00010000
00000100
00000000
00010000
00000000
00001000
00000000
00100000
01000000
,
00100000
00000000
01000000
00000000
10000000
00000000
00010000
00100000
00010000
00000000
10000000
00000000
01000000
00000000
00100000
01000000
,
00000000
00000000
00000000
01000000
10000000
00000000
00000000
00100000
01000000
00000000
00000000
00001000
00100000
00000000
00000000
00001000
,
00010000
00000000
00000000
00010000
00000100
00000000
00000000
00000100
00001000
00000000
00000000
00001000
00000001
00000000
00000000
00000001
,
00000100
00000000
00000000
00000000
00000101
00000000
00000000
00000001
00000100
00000000
00000000
00000100
00000010
00000000
00000000
00000010
,
00010000
00000000
00000000
00010000
00001000
00000000
00000000
00001000
00100000
00000000
01000000
00000000
10000000
01000000
10000000
01000000
,
10000000
01000000
10000000
01000000
00100000
01000000
00100000
00010000
00100000
00010000
00100000
00010000
01000000
00010000
01000000
00010000
,
10000000
00010000
10000000
00010000
10000000
00000000
00000000
00000000
00000000
00000000
00000000
00000000
00000000
00000000
00000000
00000000
,
00010000
00001000
00010000
00000000
00011000
00000000
00000000
00000000
00000000
00000000
00000000
00000000
00000000
00000000
00000000
00000000
;

//---------------dance-single - Copied from ----------------
#NOTES:
     dance-single:
     Copied from:
     Challenge:
     10:
     0.999,1.000,0.079,0.024,1.000: // measure 1
0000
0000
0000
0000
,  // measure 2
0000
0000
0000
0000
,  // measure 3
1000
0001
0010
0100
,  // measure 4
1000
0001
0100
0010
,  // measure 5
1000
0010
0001
1000
0100
0001
1000
0010
,  // measure 6
0001
1000
0100
0001
1000
0010
0001
0000
,  // measure 7
1001
0000
0000
0000
0001
1000
0001
1000
0001
1000
0100
0010
0100
0010
0100
0010
,  // measure 8
0001
1000
0001
1000
0010
0100
0010
0100
0001
1000
0001
1000
0100
0010
0100
0010
,  // measure 9
0001
1000
0001
1000
0100
0010
0100
0010
0100
1000
0001
1000
0100
0010
0001
1000
,  // measure 10
0100
0010
0001
1000
0010
0100
0010
0100
0001
1000
0001
1000
0100
0010
0100
0010
,  // measure 11
0100
1000
0001
1000
0010
0100
0010
0100
0001
1000
0100
0010
0001
1000
0100
0010
,  // measure 12
0001
1000
0010
0100
0010
0100
0010
1000
0001
1000
0001
1000
0001
0100
0010
0100
,  // measure 13
0010
0100
0001
1000
0001
1000
0100
0010
0100
0010
0001
0010
0100
1000
0001
0010
,  // measure 14
0100
0010
0100
0001
1000
0001
1000
0010
0100
0010
0100
0010
1000
0001
0100
0010
,  // measure 15
1000
0001
0100
0010
1000
0001
1000
0001
1000
0100
0010
0000
0001
1000
0100
0010
,  // measure 16
0001
1001
0000
0000
1000
0001
0010
0100
0010
0100
0010
0000
0001
1000
0001
1000
,  // measure 17
0001
0100
0010
0000
0010
1000
0100
1000
0001
1000
0001
0000
0100
0010
0100
0010
,  // measure 18
0001
1000
0001
0000
0100
0010
1000
0100
1000
0100
1000
0000
0001
1000
0001
0100
,  // measure 19
0010
0100
0010
0000
1000
0001
1000
0100
0010
0100
1000
0000
0001
1000
0100
0010
,  // measure 20
0100
0010
0100
0000
0010
1000
0010
1000
0001
1000
0100
0000
0001
0010
0100
0010
,  // measure 21
0001
0000
1000
0000
0100
0010
0100
1000
0001
0100
0010
0100
0010
1000
0001
1000
,  // measure 22
0001
0100
0010
0100
0001
1000
0100
1000
0010
1000
0010
1000
0001
1000
0001
1000
,  // measure 23
0100
0010
0100
0010
0001
1000
0001
1000
0010
0100
0010
0100
0001
0010
0100
0010
,  // measure 24
0100
0010
0100
1000
0001
1000
0001
1000
0100
0010
0100
0010
0100
0010
1000
0010
,  // measure 25
1000
0000
0000
0000
0010
0100
0001
0100
0001
0010
0100
0000
1000
0010
1000
0010
,  // measure 26
1000
0000
0000
0000
0100
0001
0100
0001
0100
0000
0000
0000
0010
1000
0010
1000
,  // measure 27
0010
0000
0000
0000
1000
0001
1000
0001
1000
0000
0000
0000
0100
0010
0100
0010
,  // measure 28
0100
0000
0000
0000
1000
0010
0000
0100
0001
0000
0000
0001
0010
0000
0000
0010
,  // measure 29
0100
0000
0000
0100
1000
0001
0010
0100
1000
0001
0010
0100
1000
0100
0010
0001
,  // measure 30
1000
0100
0010
0001
0000
0000
1000
0000
0000
1000
0000
0000
1000
0000
0000
0010
,  // measure 31
0000
0000
0010
0000
0010
0000
0000
0100
0000
0000
0100
0000
0000
0100
0000
0000
,  // measure 32
0001
0000
0000
0010
1000
0000
0000
0010
0100
0000
0000
0100
0001
0000
0000
0100
,  // measure 33
0001
0000
0000
1000
0010
0000
0000
1000
0010
0000
0000
0100
0001
0000
0000
0100
,  // measure 34
0001
0000
0000
0010
0001
0000
0000
0010
0001
0000
0000
0100
0001
0000
0000
1000
,  // measure 35
0100
0000
0000
1000
0010
0000
0000
1000
0001
0000
0000
0100
0001
0000
0000
0010
,  // measure 36
0001
0000
0000
0001
1000
0000
0000
0010
1000
0000
0000
0100
1000
0000
0000
0001
,  // measure 37
1000
0000
0000
0100
1000
0000
0000
0010
0100
0000
0001
0000
0100
0000
0000
0010
,  // measure 38
1000
0000
0000
0100
1000
0000
0001
0000
0100
0000
0001
1000
0000
0000
1000
0000
,  // measure 39
1000
0000
0100
0000
0010
0000
0100
0000
1000
0000
0000
1000
0000
0000
1000
0000
,  // measure 40
0001
0000
0010
0001
0100
1000
0100
0001
,  // measure 41
1000
0100
0010
0100
1000
0010
0100
0001
,  // measure 42
0100
0010
1000
0000
0001
0000
0100
0001
,  // measure 43
1000
0200
0010
0010
,  // measure 44
0310
0000
0000
0000
0010
0001
0100
1000
,  // measure 45
0100
0001
1000
0100
0010
0100
1000
0000
,  // measure 46
0001
0100
1000
0001
1000
0001
1000
0000
,  // measure 47
1000
0100
0001
1000
0001
0000
0100
0000
,  // measure 48
0010
0000
1001
0000
0010
0001
1000
0010
,  // measure 49
0100
0000
1000
0000
0100
0000
0000
0001
0000
0000
0001
0000
0000
0000
0000
0000
,  // measure 50
0100
0000
0001
0010
0000
0100
0000
1000
,  // measure 51
0010
0100
0001
1000
0001
0000
0010
0000
,  // measure 52
0100
0000
0000
0000
1000
0100
0000
0000
0100
0010
0000
0000
0010
0001
0000
0000
,  // measure 53
0001
0100
0000
0000
0100
0010
0000
0000
0010
1000
0000
0000
1000
0100
0000
0000
,  // measure 54
0100
0000
1001
0001
0100
0000
1001
1000
,  // measure 55
0100
0000
1000
0001
0100
0000
0010
1000
,  // measure 56
0001
0010
0100
0000
1000
0000
0001
0000
,  // measure 57
0010
0220
0000
0000
,  // measure 58
0330
0000
0000
0000
1000
0001
1000
0001
1000
0001
0010
0100
0010
0100
0010
0100
,  // measure 59
1000
0001
1000
0001
0100
0010
0100
0010
1000
0001
1000
0001
0010
0100
0010
0100
,  // measure 60
1000
0001
1000
0001
0010
0100
0010
0100
0010
0001
1000
0001
0010
0100
1000
0001
,  // measure 61
0010
0100
1000
0001
0100
0010
0100
0010
1000
0001
1000
0001
0010
0100
0010
0100
,  // measure 62
0010
0001
1000
0001
0100
0010
0100
0010
1000
0001
0010
0100
1000
0001
0010
0100
,  // measure 63
1000
0001
0100
0010
0100
0010
0100
0001
1000
0001
1000
0001
1000
0010
0100
0010
,  // measure 64
0100
0010
1000
0001
1000
0001
0010
0100
0010
0100
1000
0100
0010
0001
1000
0100
,  // measure 65
0010
0100
0010
1000
0001
1000
0001
0100
0010
0100
0010
0100
0001
1000
0010
0100
,  // measure 66
0001
1000
0010
0100
0001
1000
0001
1000
0001
0010
0100
0000
1000
0001
0010
0100
,  // measure 67
1000
1001
0000
0000
0001
1000
0100
0010
0100
0010
0100
0000
1000
0001
1000
0001
,  // measure 68
1000
0010
0100
0000
0100
0001
0010
0001
1000
0001
1000
0000
0010
0100
0010
0100
,  // measure 69
1000
0001
1000
0000
0010
0100
0001
0010
0001
0010
0001
0000
1000
0001
1000
0010
,  // measure 70
0100
0010
0100
0000
0001
1000
0001
0010
0100
0010
0001
0000
1000
0001
0010
0100
,  // measure 71
0010
0100
0010
0000
0100
0001
0100
0001
1000
0001
0010
0000
1000
0100
0010
0100
,  // measure 72
1000
0000
0001
0000
0010
0100
0010
0001
1000
0010
0100
0010
0100
0001
1000
0001
,  // measure 73
1000
0010
0100
0010
1000
0001
0010
0001
0100
0001
0100
0001
1000
0001
1000
0001
,  // measure 74
0010
0100
0010
0100
1000
0001
1000
0001
0100
0010
0100
0010
1000
0100
0010
0100
,  // measure 75
0010
0100
0010
0001
1000
0001
1000
0001
0010
0100
0010
0100
0010
0100
0001
0100
,  // measure 76
0001
0000
0000
0000
0100
0010
1000
0010
1000
0100
0010
0000
0001
0100
0001
0100
,  // measure 77
0001
0000
0000
0000
0010
1000
0010
1000
0010
0000
0000
0000
0100
0001
0100
0001
,  // measure 78
0100
0000
0000
0000
0001
1000
0001
1000
0001
0000
0000
0000
0010
0100
0010
0100
,  // measure 79
0010
0000
0110
0000
0100
0100
1000
1000
,  // measure 80
0001
0001
0100
0100
0010
0010
1000
1000
,  // measure 81
0001
0001
0100
0100
0001
0001
1000
1000
,  // measure 82
0001
0001
0010
0010
0010
0010
0010
0010
,  // measure 83
0010
0010
0010
0010
0010
0010
0010
0010
,  // measure 84
0010
0010
1001
0000
0000
0000
0000
0000
,  // measure 85
0010
0100
0010
0000
1001
0000
0000
0000
0000
0000
0000
0000
0000
0000
0000
0000
;
