#TITLE:SOUND STAR;
#SUBTITLE:(Type-R Remix);
#ARTIST:DJ Tora +R -SEQ;
#TITLETRANSLIT:;
#SUBTITLETRANSLIT:;
#ARTISTTRANSLIT:;
#CREDIT:;
#BANNER:sound stars-bn.PNG;
#BACKGROUND:sound stars-bg.png;
#LYRICSPATH:;
#CDTITLE:cdtitle.png;
#MUSIC:sound.ogg;
#OFFSET:-0.049;
#SAMPLESTART:57.840;
#SAMPLELENGTH:15.4500;
#SELECTABLE:YES;
#BPMS:0.000=145.000;
#STOPS:;
#BGCHANGES:0.000=soundstar.avi=1.000=0=0=1,
99999=-nosongbg-=1.000=0=0=0 // don't automatically add -songbackground-
;

//---------------dance-single - ----------------
#NOTES:
     dance-single:
     :
     Hard:
     9:
     0.651,0.973,0.134,0.187,0.605:
0000
0000
0000
0000
,
0000
0000
0000
0000
,
2001
0100
0000
0100
,
0000
0000
0100
0000
3000
0000
0001
1000
,
0000
0102
0000
0010
,
0000
0000
0100
0000
0000
0003
0010
0100
,
0000
2001
0000
0100
,
0000
0000
0010
0000
0000
3000
0100
0010
,
0000
0200
0000
0010
,
0000
0300
0010
0100
0010
0000
0100
0000
,
1001
0000
0001
0100
1000
0000
1000
0100
,
0010
0000
0001
0010
0100
0000
0100
0010
,
0001
0000
1000
0100
0010
0000
0001
0010
,
0100
1000
0100
0010
0001
0000
0001
0010
,
0100
0000
1000
0100
0010
0000
0001
0100
,
0010
0100
0001
0100
0010
0000
1000
0010
,
0100
0000
0001
0100
0010
0000
1000
0010
,
0100
0001
0100
0010
1000
0000
0001
0000
,
0110
0200
1000
0001
,
0310
0100
0010
0000
1000
0001
0010
0100
,
0210
1000
0001
0310
,
0010
0001
0100
0001
0100
0000
0010
0000
,
2100
0000
0010
0000
0001
0000
0001
3000
,
0101
0001
1000
0010
0100
0000
0001
1000
,
1200
0000
0010
0000
1000
0300
0010
0000
,
0010
0001
0100
0001
0100
0000
0001
0000
,
1002
0100
2003
3010
,
2001
0100
3002
0013
,
1002
0100
0013
0100
,
0210
0001
1000
0310
,
0110
0100
1000
0001
0100
0010
0100
0001
,
1000
0100
0010
0001
0100
0001
1000
0000
,
1000
0100
0010
0001
0010
0100
1000
0000
,
0100
0001
0100
0001
0100
0001
0100
0001
0100
0001
0100
0001
0100
0000
0000
0000
,
2002
0000
0000
3003
,
0220
0000
0000
0330
,
1000
0001
0000
0000
0100
0000
0001
0000
0010
0100
0000
0100
1000
0000
0001
0000
,
0100
0000
0010
0000
0100
0000
0001
1000
0000
0001
0000
0000
0001
0000
0100
0000
,
0001
1000
0000
0000
0100
0000
0000
1000
0000
0001
0000
0010
0100
0000
0010
0000
,
0100
0000
1000
0000
1000
0000
0001
0000
0001
1000
0000
0000
1000
0001
1000
0000
,
0001
0000
0000
0000
0100
0000
0000
0010
0000
1000
0000
0001
0010
0000
0100
0000
,
0010
0000
0100
0000
1000
0000
0000
0001
0100
0000
0010
0000
0010
0000
1000
0000
,
0001
0100
0000
0000
0001
0000
0000
1000
0000
0010
0000
0010
1000
0000
0001
0000
,
0100
0100
0001
0001
1000
1000
0001
0000
,
0100
0001
0000
0000
0010
0000
0000
0100
0000
0100
0000
1000
0010
0000
0100
0000
,
0001
0000
1000
0000
0010
1000
0000
0001
0000
0001
0000
0010
0001
0000
1000
0000
,
0100
1000
0000
0000
0001
0000
0000
0001
0000
1000
0000
1000
0010
0000
0100
0000
,
0010
0000
0100
0000
0001
0000
0001
0000
1000
0000
0001
0000
1000
0001
1000
0000
,
0001
0100
0000
0000
0001
1000
0000
0001
0000
1000
0000
0100
0010
0000
0100
0000
,
0010
0000
0100
0000
1000
0001
0000
0010
0000
0001
0000
1000
0100
0000
0010
0000
,
0001
0100
0000
0000
0010
0000
0000
1000
0000
0100
0000
1000
0010
0000
0100
0000
,
0001
0010
0100
1000
0001
0010
0100
0000
,
1000
0100
1000
0100
1000
0100
1000
0001
1000
0001
1000
0001
0100
0001
0100
0001
,
0100
0001
0010
0001
0010
0001
0100
0001
0100
0001
1000
0001
1000
0010
1000
0010
,
1000
0001
0100
0001
0100
0001
1000
0001
1000
0001
0010
0001
0010
0001
1000
0001
,
1000
0100
1000
0100
1000
0100
1000
0001
1000
0001
1000
0000
0001
0000
0001
0000
,
0001
0010
0100
1000
0001
1000
0100
0010
0001
1000
0100
0010
0001
0010
0100
1000
,
0001
0010
0001
1000
0001
0010
0100
1000
0001
0010
0100
1000
0001
1000
0100
0010
,
0001
1000
0100
0010
0001
1000
0100
0010
0001
1000
0100
0010
0001
1000
0001
0010
,
0100
1000
0001
0010
0100
1000
0001
0010
0100
1000
0001
1000
0001
1000
0100
0000
,
0210
0000
1300
0100
0020
0000
0031
0010
,
0200
0000
1300
0001
0200
0000
0000
0300
,
0100
0001
0000
0000
1000
0100
0000
0000
0010
0100
0000
0100
1000
0000
0010
0000
,
0100
0001
0000
0000
1000
0000
0000
0001
0000
0100
0000
0010
1000
0000
0100
0000
,
0010
0100
0000
0000
0010
0000
0000
0001
0000
1000
0000
0001
0010
0000
0100
0000
,
1000
0000
0001
0000
1000
0000
0100
0010
0000
0100
0000
0010
0100
0010
0100
0000
,
0010
0000
0000
0001
0100
0000
0001
0100
0000
0010
0000
0010
1000
0000
0001
0000
,
0100
0000
0001
0000
1000
0000
0001
1000
0000
0001
0000
0001
0100
0000
0001
0000
,
1000
0000
0100
0000
1000
0000
0001
1000
0000
0001
0000
0010
0100
0000
0010
0000
,
0100
0000
0100
0000
0100
0000
0200
0000
0000
0000
0000
0000
0000
0000
0000
0300
,
1000
0001
0000
0000
0100
0000
0000
0010
0000
1000
0000
0001
0010
0000
0001
0000
,
0100
0001
0000
0000
1000
0000
0100
0010
0000
0100
0000
1000
0001
0000
0100
0000
,
0010
0100
0000
0000
0001
0000
0000
1000
0000
0010
0000
0010
1000
0000
0100
0000
,
1000
0000
0001
0000
0100
0000
0010
0000
0100
0000
0001
0100
0001
0100
0001
0000
,
1000
0001
0000
0000
0100
0000
0000
0001
0000
0010
0000
0100
1000
0000
0100
0000
,
1000
0000
0001
0000
0010
0000
0001
1000
0000
0100
0000
0010
0001
0000
1000
0000
,
0100
1000
0000
0000
0001
0000
0000
0100
0000
0010
0000
0010
1000
0000
0001
0000
,
0010
0010
0100
0100
1000
0001
0100
0010
,
2002
0000
0000
0000
,
3003
0000
0000
0000
;

//---------------dance-single - ----------------
#NOTES:
     dance-single:
     :
     Medium:
     6:
     0.380,0.501,0.134,0.119,0.000:
0000
0000
0000
0000
,
0000
0000
0000
0000
,
0020
0100
0000
0100
,
0000
0000
0100
0000
0030
0000
0100
0100
,
0000
2000
0000
0001
,
0000
0000
0001
0000
3000
0000
0001
0001
,
0000
0002
0000
0100
,
0000
0000
0100
0003
0000
0000
1000
1000
,
0000
0020
0000
0100
,
0000
0100
0030
0100
,
0001
0000
1000
0001
0010
0000
0001
0000
,
1000
0100
0100
0000
,
1000
0000
0001
0010
0001
0000
1000
0000
,
0010
0000
0100
1000
0001
0000
0000
0000
,
0100
0000
1000
0001
1000
0000
0001
0000
,
1000
0010
0100
0000
,
0001
0000
0010
1000
0001
0000
0100
0000
,
0001
0000
1000
0001
0010
0000
0000
0000
,
0210
1000
0310
0000
,
0120
0001
0130
0000
,
0210
1000
0310
0000
,
0201
0010
0301
0000
,
2010
0010
3100
0001
,
1002
0100
0013
0000
,
0210
0000
0001
0000
1000
0300
0010
0000
,
0120
0000
1000
0000
0001
0030
0100
0000
,
1001
0100
0100
0000
,
1001
0010
0010
0000
,
1100
0010
0010
0000
,
0101
0010
0010
0000
,
1001
0000
1000
0000
,
1001
0001
0100
0001
,
1000
0001
1000
0001
1000
0001
1000
0001
,
0010
0100
0010
0100
0010
0100
0010
0100
,
0200
0000
0000
0000
,
0000
0000
0000
0300
,
1001
0001
0100
1000
,
0010
1000
0001
0000
0100
0001
0010
0000
,
0100
0000
1000
0000
0001
0000
1000
0100
,
0010
0100
0010
0000
0001
0000
0100
0000
,
1000
0000
0010
0000
0001
0000
1000
0100
,
0001
0000
0010
0000
1000
0000
0001
0100
,
0010
0000
0001
0000
1000
0000
0100
0010
,
1000
0001
0100
0010
,
0000
1000
0000
0001
0000
0010
0000
0100
,
0000
1000
0000
0001
0000
0010
0001
0001
,
0000
0100
0000
0010
0000
1000
0000
0001
,
0000
0100
0000
0010
0000
1000
1000
0000
,
0000
0001
0000
0100
0000
0010
0000
1000
,
0000
0001
0000
0010
0100
0000
0100
0100
,
0000
1000
0001
0100
,
0010
1000
0001
0000
,
1100
0000
1000
0100
1000
0100
0001
0100
,
1000
0100
0001
0100
1000
0100
0001
0100
,
1000
0100
0001
0100
1000
0100
0001
0100
,
1000
0100
0001
0100
1000
0100
0001
0000
,
0100
0000
1000
0001
0100
1000
0100
0001
,
0100
1000
0100
0001
0100
1000
0100
0001
,
0100
1000
0100
0001
0100
1000
0100
0001
,
0100
1000
0100
0001
0100
1000
0100
0000
,
0001
0000
1000
0100
0010
0000
0001
0010
,
0100
0000
1000
0100
0010
0000
0000
0000
,
1001
0001
0100
1000
,
0000
0000
0001
0000
1000
0000
0010
1000
,
0100
0001
0100
1000
,
0001
0000
0001
0000
0002
0000
0000
0003
,
1000
0001
0100
1000
,
0001
0100
1000
0000
0010
0000
0001
0000
,
0100
0000
0010
0000
0010
1000
0100
0000
,
0100
0100
0100
0000
,
1000
0001
0100
1000
,
0001
0000
0010
0100
0010
0000
0001
1000
,
0001
0010
0100
1000
,
0001
0001
0001
0000
,
1000
0001
0100
0100
,
0010
1000
0001
0000
,
0001
0000
1000
0000
,
0010
0100
0010
0100
0010
0000
0100
0000
,
2002
0000
0000
0000
,
3003
0000
0000
0000
;

//---------------dance-single - ----------------
#NOTES:
     dance-single:
     :
     Easy:
     4:
     0.293,0.442,0.105,0.179,0.000: // measure 1
0000
0000
0000
0000
,  // measure 2
0000
0000
0000
0000
,  // measure 3
0120
0000
0000
0100
,  // measure 4
0000
0100
0030
0100
,  // measure 5
0000
2001
0000
0010
,  // measure 6
0000
0010
0000
3010
,  // measure 7
0000
0102
0000
0100
,  // measure 8
0000
0100
0000
0103
,  // measure 9
0000
0002
0000
0010
,  // measure 10
0000
0103
0000
0000
,  // measure 11
1000
0000
0001
0000
,  // measure 12
1000
1000
1000
0000
,  // measure 13
0001
0000
0010
0000
,  // measure 14
0100
0100
0100
0000
,  // measure 15
1000
0000
0001
0000
,  // measure 16
0010
0010
0010
0000
,  // measure 17
0100
0000
0001
0000
,  // measure 18
1000
1000
1000
0000
,  // measure 19
0020
0100
0031
0000
,  // measure 20
0200
1000
0310
0000
,  // measure 21
0002
0100
0013
0000
,  // measure 22
2000
0010
3100
0000
,  // measure 23
1002
0100
1003
0000
,  // measure 24
0002
0100
1003
0000
,  // measure 25
2000
0100
3001
0000
,  // measure 26
2001
0010
3100
0001
,  // measure 27
1000
0001
0100
0000
,  // measure 28
0001
1000
0001
0000
,  // measure 29
0001
1000
0001
0000
,  // measure 30
1000
0001
0100
0000
,  // measure 31
1000
0001
0100
0001
,  // measure 32
1000
0100
1000
0001
,  // measure 33
0100
0001
0001
0001
,  // measure 34
0001
0001
0010
0010
,  // measure 35
0220
0000
0000
0000
,  // measure 36
0000
0000
0000
0330
,  // measure 37
1000
0001
0100
1000
,  // measure 38
0010
0001
0001
0000
,  // measure 39
0001
0010
1000
0100
,  // measure 40
0001
0001
0001
0000
,  // measure 41
0100
1000
0001
0100
,  // measure 42
0010
0010
0010
0000
,  // measure 43
0100
0001
1000
0010
,  // measure 44
0001
0001
0001
0000
,  // measure 45
1000
0010
1000
0100
,  // measure 46
0100
0100
1000
0000
,  // measure 47
0001
0100
1000
0100
,  // measure 48
0010
0100
0001
0000
,  // measure 49
1000
0010
0001
0100
,  // measure 50
1000
0001
0010
0000
,  // measure 51
0100
1000
0001
0100
,  // measure 52
0010
0100
0001
0000
,  // measure 53
0100
0100
0100
0100
,  // measure 54
0100
0100
0100
0100
,  // measure 55
0100
0100
0100
0100
,  // measure 56
0100
0100
0100
0000
,  // measure 57
0010
0010
0010
0010
,  // measure 58
0010
0010
0010
0010
,  // measure 59
0010
0010
0010
0010
,  // measure 60
0010
0010
0010
0010
,  // measure 61
0020
0000
0000
0000
,  // measure 62
0000
0000
0000
0030
,  // measure 63
1001
0001
0100
1000
,  // measure 64
0100
0001
0010
0000
,  // measure 65
1000
0102
1003
0102
,  // measure 66
1003
0102
1003
0100
,  // measure 67
0001
0010
0100
1000
,  // measure 68
0010
0001
0100
1000
,  // measure 69
0010
0001
1000
0100
,  // measure 70
2001
3100
1002
0103
,  // measure 71
1001
0001
0100
1000
,  // measure 72
0100
0001
0100
0000
,  // measure 73
0010
1000
0001
0010
,  // measure 74
0002
0100
0103
0000
,  // measure 75
2000
0100
3100
0001
,  // measure 76
0010
1000
0100
0000
,  // measure 77
1000
0010
0001
0100
,  // measure 78
1000
0010
0100
0000
,  // measure 79
2002
0000
0000
0000
,  // measure 80
3003
0000
0000
0000
;

//---------------dance-double - Copied from----------------
#NOTES:
     dance-double:
     Copied from:
     Hard:
     9:
     0.639,0.973,0.336,0.052,0.224:
00000000
00000000
00000000
00000000
,
00000000
00000000
00000000
00000000
,
01000000
00001000
00010000
01000000
,
00010000
00000000
00001000
00000000
00000100
00000000
00000101
00000101
,
00000000
00000100
00001000
01000000
,
00100000
00000000
01000000
00000000
00010000
00000000
10010000
10010000
,
00000000
01000000
00100000
00010000
,
00001000
00000000
00000100
00000000
00000001
00000000
00001001
00001001
,
00000000
00000100
00000010
00001000
,
00010000
01000000
10000000
01000000
00010000
00000000
01000000
00000000
,
01100000
00000000
10000000
00100000
00010000
00000000
10000000
00100000
,
00010000
00100000
10000000
01000000
00010000
00000000
00001000
00010000
,
01000000
00000000
00010000
00001000
00000010
00000000
00001000
00000010
,
00000001
00001000
00000100
00000001
00000100
00000000
00000100
00001000
,
00000001
00000000
00000001
00000100
00001000
00000000
00001000
00010000
,
00100000
00010000
00001000
00010000
01000000
00000000
00010000
01000000
,
10000000
00000000
00010000
10000000
01000000
00000000
01000000
00010000
,
00001000
00010000
01000000
00010000
00001000
00000000
00000010
00000000
,
00000110
00000000
00000001
00001000
00000001
00000000
00000100
00000000
,
00001000
00000010
00000100
00000000
00000001
00000000
00000010
00000010
,
00000010
00000001
00000100
00001000
,
00010000
01000000
00010000
01000000
00010000
00000000
01000000
00000000
,
10010000
00000000
01000000
00000000
00010000
00000000
01000000
01000000
,
02000000
00000000
00000000
00000000
00000000
00000000
00000000
03000000
,
10010000
00000000
00100000
00000000
00001000
00000000
01000000
00100000
,
01000000
00001000
00010000
01000000
00100000
00001000
00010000
01000000
,
10010000
00000000
00010000
00000000
10000000
01000000
00100000
00001000
,
01001000
00000000
00010000
00001000
00000100
00000001
00001000
00000100
,
00000011
00000000
00001100
00000010
00001000
00000001
00000100
00000100
,
00001010
00000000
00000010
00000100
00000001
00001000
00000010
00000000
,
00010010
00001000
01001000
00010000
,
10010000
01000000
01100000
00101000
,
00010000
01000000
10000000
00010000
10000000
00010000
00000100
00000001
,
00001000
00000001
00001000
01000000
10000000
00010000
10000000
01000000
,
00002000
00000000
00000000
00003000
,
00001001
00000000
00000000
00000000
,
10100000
00100000
00010000
00001000
00010000
01000000
00100000
00001000
,
00010000
01000000
00010000
00001000
00000100
00000001
00001000
00000010
,
00000100
00000001
00000010
00000100
00010000
00001000
00000100
00001000
,
00010000
01000000
00010000
01000000
10000000
00010000
00100000
00000000
,
00011000
00001000
00000100
00000001
00001000
00000010
00000100
00000001
,
00000010
00000100
00010000
00001000
00000010
00000100
00001000
00000000
,
00000101
00000001
00000010
00000100
00010000
00001000
00000100
00001000
,
00010000
00001000
00010000
01000000
10000000
00010000
00010000
00000000
,
00110000
11000000
01000000
00100000
00001000
00010000
01000000
00010000
,
00001000
00000100
00000001
00001000
00000010
00000100
00000001
00000000
,
00000101
00001010
00000100
00010000
00001000
01000000
00100000
01000000
,
00001000
00010000
01000000
00010000
00001000
00000000
01100000
00000000
,
10010000
00010000
01000000
00100000
10000000
00010000
00010000
10000000
,
01000000
00010000
00001000
00000100
00000001
00001000
00001000
00000001
,
00000100
00001000
00010000
01000000
10000000
00010000
00010000
10000000
,
01000000
00010000
00001000
00000100
00000001
00001000
00001000
00000000
,
00010000
00001000
00010000
00001000
01000000
00010000
01000000
00010000
10000000
00010000
10000000
00010000
10000000
01000000
00100000
01000000
,
00100000
00001000
00010000
00001000
00010000
00000100
00001000
00000100
00001000
00000001
00001000
00000001
00000100
00000010
00000100
00000010
,
00001000
00000001
00001000
00000001
00000010
00000100
00000010
00000100
00000010
00000001
00001000
00000001
00001000
00000010
00000100
00000010
,
00001000
00000100
00001000
00000100
00010000
00001000
00010000
00001000
01000000
00010000
01000000
00010000
10000000
00000000
10000000
00000000
,
00010000
00100000
00010000
00100000
01000000
10000000
00010000
00100000
01000000
10000000
00010000
00100000
00001000
00010000
00000010
00000100
,
00000001
00001000
00000010
00000100
00000001
00001000
00000010
00000100
00000001
00000010
00000100
00001000
00000001
00000010
00000100
00001000
,
00000010
00010000
00001000
00100000
00010000
10000000
01000000
00100000
00010000
10000000
01000000
00100000
00010000
00100000
00001000
00010000
,
00000010
00001000
00000001
00000100
00000010
00001000
00000001
00000100
00000010
00001000
00000001
00000010
00000100
00000000
00001000
00000000
,
00010010
00000000
00010000
00001000
00200000
00000000
01300000
10000000
,
00020000
00000000
00130000
01000000
00020000
00000000
00000000
00030000
,
10010000
00000000
01000000
00010000
00100000
00001000
00010000
01000000
,
10000000
00100000
10000000
00100000
01000000
00000000
00010000
00100000
,
01000000
00100000
10000000
00100000
01000000
00100000
00010000
00001000
,
00010000
00001000
00000100
00000010
00000100
00000001
00001000
00000000
,
00000101
00000001
00000010
00000100
00001000
00000100
00000001
00000100
,
00000010
00000001
00001000
00000001
00001000
00000100
00000010
00000000
,
00011000
00001000
00010000
01000000
00010000
00001000
00010000
01000000
,
10000000
10000000
00010000
00010000
10000000
00010000
00010000
00000000
,
00110000
11000000
00100000
01000000
00010000
01000000
00100000
00010000
,
00001000
00010000
00001000
00000100
00000001
00001000
00000001
00000000
,
00001010
00000101
00000001
00000010
00000100
00001000
00000001
00000001
,
00000010
00000010
00000100
00000100
00001000
00000001
00001000
00000000
,
00000101
00000100
00001000
00000000
00011000
00010000
01000000
00000000
,
11000000
00010000
01000000
00000000
10100000
00010000
00100000
00000000
,
00011000
00000100
00001000
00000000
00001010
00000001
00000100
00000000
,
00001000
00001000
00000001
00000001
00000010
00000100
00000010
00000000
,
00002002
00000000
00000000
00000000
,
00003003
00000000
00000000
00000000
;
