#TITLE:RODRIGO;
#SUBTITLE:(W.I.P. REMIX);
#ARTIST:The Planets;
#TITLETRANSLIT:;
#SUBTITLETRANSLIT:;
#ARTISTTRANSLIT:;
#CREDIT:;
#BANNER:RODRI.PNG;
#BACKGROUND:Copia de RODRI-BG.png;
#LYRICSPATH:;
#CDTITLE:Copia (35) de Dance Mania (poi).png;
#MUSIC:rodrigo.mp3;
#OFFSET:-2.714;
#SAMPLESTART:14.070;
#SAMPLELENGTH:23.620;
#SELECTABLE:YES;
#BPMS:0.000=136.000;
#STOPS:;
#BGCHANGES:;

//---------------dance-single - ----------------
#NOTES:
     dance-single:
     :
     Challenge:
     8:
     0.540,0.710,0.018,0.248,0.252: // measure 1
0000
0000
0000
0000
,  // measure 2
0000
0000
0000
0000
,  // measure 3
0000
0000
0000
0000
,  // measure 4
0000
0000
0000
0000
,  // measure 5
0010
0000
1000
0000
,  // measure 6
0001
0000
1000
0001
,  // measure 7
0100
0100
1001
0100
,  // measure 8
0100
0000
1000
0010
0100
0000
0001
0010
,  // measure 9
0100
0000
0000
1000
0000
0000
0001
0000
1000
0001
1000
0000
0010
0000
0000
0000
,  // measure 10
0100
1000
0100
0001
1000
0000
0100
0001
,  // measure 11
0100
0000
0010
0001
1000
0100
0010
0001
,  // measure 12
1000
0100
0020
0000
0032
0000
1003
0100
,  // measure 13
1000
0010
0100
0001
0200
0000
0320
0000
,  // measure 14
0230
0000
0000
0300
2000
0000
0000
0000
3200
0000
0000
0300
0001
0000
1000
0000
,  // measure 15
0020
0000
0000
0000
0000
0030
1000
0000
0100
0000
0010
0100
0010
0000
0001
1000
,  // measure 16
0001
0000
0100
0010
0100
0000
0001
1000
0001
0000
1000
0010
1000
0000
0001
0000
,  // measure 17
1000
0001
0010
0001
1000
0001
0100
0000
0001
0000
0100
0000
0010
0000
1000
0000
,  // measure 18
0100
1000
0010
0100
0001
0000
1000
0100
,  // measure 19
0001
0000
0000
0100
0000
0000
1000
0000
0001
1000
0001
0000
0000
0000
1000
0000
,  // measure 20
0010
0100
0010
0100
0001
0000
0001
1000
,  // measure 21
0100
0000
0001
0100
1000
0010
0010
0001
,  // measure 22
0001
0100
0002
0000
0000
0003
0100
0010
,  // measure 23
1000
0100
0100
1000
0001
1000
0001
0010
,  // measure 24
0100
0010
0001
0000
1000
0000
0010
1000
,  // measure 25
0002
0000
0000
0000
0000
0003
0100
0000
0010
0000
1000
0000
0100
0000
1000
0000
,  // measure 26
0010
0100
0001
0010
0001
1000
0100
1000
,  // measure 27
0100
0000
0001
0000
0100
0000
0000
0000
0100
1000
0000
0000
0200
0000
0000
0000
,  // measure 28
0320
0000
0000
0000
0230
0000
0000
0300
0001
0000
0000
0001
1000
0000
0100
0000
,  // measure 29
1000
0000
0000
0001
0100
0000
0001
0000
0100
0000
0010
0000
0020
0000
0000
0000
,  // measure 30
2030
0000
0000
3000
0100
0000
0000
0100
0001
0000
0000
0000
0100
0000
0001
0000
,  // measure 31
0100
0000
1000
0000
0010
0000
0001
0000
0010
0000
0000
0100
0010
0000
0000
0000
,  // measure 32
0020
0000
0000
0000
0130
0000
0000
0001
0200
0000
0000
0000
0310
0000
0000
0010
,  // measure 33
2000
0000
0000
0000
3100
0000
0000
0100
0002
0000
0000
0000
0103
0000
0000
0100
,  // measure 34
2000
0000
0000
0000
0001
3000
0000
0001
1000
0000
0000
0000
1000
0000
0000
1000
,  // measure 35
0020
0000
0000
0000
0130
0000
0000
0100
0002
0000
0000
0000
0203
0000
0000
0000
,  // measure 36
0320
0000
1030
0000
0100
1000
0010
0100
,  // measure 37
0001
0000
0010
0000
0100
0000
0000
0000
1000
0100
1000
0000
0001
0000
1000
0000
,  // measure 38
0010
0100
0001
0010
0100
0000
1000
0100
,  // measure 39
0010
0000
0000
0001
0000
0000
1000
0000
0001
1000
0001
0000
0000
0000
0010
0000
,  // measure 40
0100
0000
1000
0000
0001
1000
0001
1000
0001
0000
0000
0000
0100
0000
0010
0000
,  // measure 41
0100
0000
0010
0010
1000
0010
0100
0001
,  // measure 42
0001
1000
0100
0000
1000
0000
1000
1000
,  // measure 43
0100
0001
0001
0100
1000
0001
1000
0001
,  // measure 44
1000
0100
0010
0100
0010
0000
0100
0100
,  // measure 45
2000
0000
3001
0000
0100
0010
0100
0001
,  // measure 46
1000
0100
0010
0001
1000
0100
0010
0001
,  // measure 47
1000
0000
0000
0000
0001
0000
0000
0000
0001
0000
0100
0001
0010
0100
1000
0001
,  // measure 48
0010
0100
1000
0100
0010
0100
0010
0100
0010
0100
0010
0001
1000
0001
1000
0001
,  // measure 49
0100
0010
0100
0010
0100
0000
0000
0000
0100
0000
0010
0000
0100
0000
0001
0000
,  // measure 50
0100
0001
1000
0010
1000
0010
1000
0010
,  // measure 51
1000
0000
0001
0000
1000
0000
0000
0000
1000
0000
0001
1000
0001
1000
0001
1000
,  // measure 52
0001
0100
0010
0100
0010
0100
0010
1000
0010
1000
0010
1000
0001
1000
0001
1000
,  // measure 53
0010
0100
0010
0100
0010
0000
0000
0000
0001
0000
1000
0000
0100
0000
0010
0000
,  // measure 54
0001
1000
0100
0010
0001
1000
0001
1000
,  // measure 55
0010
0100
0010
0100
0001
1000
0100
1000
,  // measure 56
0001
0100
0001
1000
0100
1000
0010
1000
,  // measure 57
0001
0010
0100
0000
0220
0000
0000
0000
,  // measure 58
0000
0000
0000
0000
0000
0330
0000
0000
0000
0000
0000
0000
0000
0000
0000
0000
;

//---------------dance-double - ----------------
#NOTES:
     dance-double:
     :
     Hard:
     9:
     0.539,0.684,0.055,0.266,0.216:
00000000
00000000
00000000
00000000
,
00000000
00000000
00000000
00000000
,
00000000
00000000
00000000
00000000
,
00000000
00000000
00000000
00000000
,
00000000
00000000
00010000
00000000
,
00001000
00000000
00010000
00010000
,
00010000
00000000
00010000
00000000
00011000
00000000
00000100
00001000
,
00000001
00000100
00000010
00001000
00000100
00000000
00010000
00001000
,
00010000
00000000
00000000
01000000
00000000
00000000
10000000
00000000
00010000
10000000
00010000
00000000
00000000
00100000
00000000
00000000
,
00001000
00010000
00000100
00000000
00001000
00000000
00000001
00000100
,
00000010
00000000
00010000
00001000
00100000
00100000
00010000
00010000
,
01000000
00000000
01000000
00000000
00020000
00000000
00000000
00000000
20000000
00030000
00000000
30000000
00100000
00000000
10000000
00000000
,
01000000
00010000
00001000
00001000
00000002
00000000
00000203
00000000
,
00000320
00000000
00000000
00000000
00002030
00000000
00000000
00000000
00000100
00003000
00000000
00000000
00001000
00000000
00000001
00000000
,
00000010
00000000
00000000
00000000
00000100
00000000
00000000
00000000
00001000
00000000
00000010
00001000
00000010
00000000
00010000
00001000
,
00010000
00000000
00001000
00100000
00001000
00000000
01000000
00010000
01000000
00000000
00100000
10000000
00100000
00000000
00100000
00010000
,
00100000
00010000
00100000
00010000
00100000
00010000
00100000
00000000
00010000
00000000
01000000
00000000
00100000
00000000
10000000
00000000
,
01000000
00100000
00001000
00010000
00000100
00000000
00001000
00000100
,
00000001
00000000
00000000
00000100
00000000
00000000
00001000
00000000
00000010
00000100
00000010
00000000
00000000
00000000
00000100
00000000
,
00000001
00001000
00000100
00000010
00000100
00000000
00010000
00001000
,
00100000
00010000
01000000
00100000
10000000
10000000
00010000
00010000
,
10000000
10000000
00020000
00000000
00230000
00000000
00301000
00010000
,
00000000
00000100
00001000
00000000
00000010
00000000
00000100
00000000
00000002
00000000
00000000
00000000
00002003
00000000
00000000
00000000
,
00000002
00003000
00000000
00000000
00002000
00000003
00000000
00000000
00000001
00003000
00000000
00000000
00000010
00000000
00000100
00000000
,
00010000
00001000
01000000
00100000
01000000
00001000
00010000
00001000
,
00100000
00000000
00010000
00000000
01000000
00000000
00100000
00000000
20100000
00000000
00000000
00000000
00010000
30000000
00000000
00000000
,
12000000
00000000
03100000
00000000
00011000
00001000
00010000
00000100
,
00001000
00000001
00000100
00000010
00001000
00000100
00010000
00001000
,
00100000
00000000
00000000
00010000
00000000
00000000
01000000
00000000
00000000
00001000
00010000
00000000
00001000
00000000
00100000
00000000
,
00010000
00000000
01000000
00000000
10000000
00000000
01000000
00000000
00020000
00000000
00000000
00030000
10000000
00000000
01000000
00000000
,
00100000
00001000
00010000
00000100
00000002
00000000
00000203
00000000
,
00002300
00000000
00003010
00000000
00010000
00001000
00010000
00100000
,
20000000
00000000
00000000
00000000
01000000
30000000
00000000
00000000
00010000
00000000
00001000
00000000
00000010
00000000
00000001
00000000
,
00000100
00000000
00010000
00001000
00000100
00000001
00000010
00000000
,
00000100
00000000
00000010
00001000
00010000
01000000
20000000
00000000
,
00020000
30000000
00000000
00000000
00100000
00030000
00000000
00000000
10000000
00000000
01000000
00000000
00100000
00000000
00000000
00000000
,
00100000
00000000
01000000
00000000
10000000
00000000
00000000
00000000
10000000
00010000
10000000
00000000
00020000
00000000
00000000
00030000
,
01000000
00100000
10000000
01000000
00100000
00000000
00001000
00010000
,
00000010
00000000
00000000
00000100
00000000
00000000
00100000
00000000
00010000
01000000
00010000
00000000
00000000
00100000
00000000
00000000
,
00001000
00000000
00010000
00000000
00000100
00001000
00000100
00000000
00001100
00000000
00000000
00000000
00001000
00000000
00000001
00000000
,
00000100
00000000
00000010
00010000
00001000
00100000
00100000
00001000
,
00001000
00000000
00010000
00000000
00020000
00000000
00000000
00000000
00000000
00000000
00000000
00030000
00001000
00000000
00000000
00010000
,
00000000
00001000
01000000
00000000
00100000
00000000
01000000
00000000
00020000
00000000
00000000
00000000
20030000
00000000
00000000
00000000
,
31000000
00000000
00020000
00000000
00030100
00000000
00001000
00000100
,
00000020
00000000
00000000
00000000
00000030
00000001
00000000
00000000
00001000
00000000
00000100
00000000
00000010
00000000
00000100
00000000
,
00010000
00001000
00100000
00010000
00100000
01000000
10000000
01000000
,
00010000
00000000
01000000
00000000
10000000
00000000
00000000
00000000
10000000
00100000
10000000
00100000
01000000
00100000
00010000
00100000
,
01000000
00100000
10000000
00100000
01000000
00100000
00010000
00000000
00100000
00000000
00001000
00000000
00010000
00000000
00000100
00000000
,
00001000
00000001
00000100
00000010
00010000
00001000
00100000
00010000
,
01000000
00010000
10000000
00010000
00100000
00010000
10000000
00010000
,
10000000
00000000
00000000
00000000
01000000
00000000
00000000
00000000
00010000
00001000
00010000
00001000
00010000
00000100
00001000
00000100
,
00000010
00000100
00000010
00000100
00001000
00000000
00000001
00001000
00000001
00000100
00000001
00000100
00000001
00000010
00000001
00000010
,
00000001
00001000
00000001
00001000
00000100
00000010
00000100
00000010
00000100
00000000
00001000
00000000
00000001
00000000
00000100
00000000
,
00000010
00001000
00000100
00010000
00001000
00100000
00010000
01000000
,
00100000
10000000
00010000
00100000
01000000
10000000
00010000
01000000
,
00100000
10000000
00010000
01000000
00100000
10000000
00010000
00100000
,
00001000
00010000
00001000
00000000
02020000
00000000
00000000
00000000
,
00000000
00000000
00000000
03030000
00000000
00000000
00000000
00000000
;
