#TITLE:ROAD STAR;
#SUBTITLE:;
#ARTIST:DJ TORA +R -SEQ;
#TITLETRANSLIT:;
#SUBTITLETRANSLIT:;
#ARTISTTRANSLIT:;
#CREDIT:;
#BANNER:road star-bn.png;
#BACKGROUND:road star-bg.png;
#LYRICSPATH:;
#CDTITLE:cdtitle.png;
#MUSIC:20 Road Star DJ TORA+R-SEQ.mp3;
#OFFSET:-0.049;
#SAMPLESTART:44.660;
#SAMPLELENGTH:11.900;
#SELECTABLE:NO;
#BPMS:0.000=145.190;
#STOPS:;
#BGCHANGES:;

//---------------dance-single - ----------------
#NOTES:
     dance-single:
     :
     Hard:
     9:
     0.624,0.775,0.447,0.140,0.247: // measure 1
0000
0000
0000
0000
,  // measure 2
0000
0000
0000
0000
,  // measure 3
0000
0000
0000
0000
,  // measure 4
0000
0000
0000
0000
,  // measure 5
0010
0000
0100
0010
0000
0001
0000
1000
,  // measure 6
0000
0020
0100
0000
0031
1000
0001
1000
,  // measure 7
0001
0000
0020
0100
0000
0130
0000
0010
,  // measure 8
0000
0100
0010
0100
0010
0000
0100
0000
,  // measure 9
1001
0000
0010
0000
0100
0001
0000
1000
,  // measure 10
0000
0010
0100
0001
0010
0100
1000
0000
,  // measure 11
1001
0000
0200
0010
0000
0310
0000
1001
,  // measure 12
0000
0010
1000
0001
0100
1000
0001
0100
,  // measure 13
0210
0000
0301
1000
0000
1000
0000
0001
,  // measure 14
0000
2000
0010
0000
3100
0001
0100
0001
,  // measure 15
0102
0000
0010
0010
0000
1000
0000
0013
,  // measure 16
0000
1000
1000
0000
1010
0000
1001
0000
,  // measure 17
0000
0011
0000
1100
0000
0011
0100
1000
,  // measure 18
0000
0001
0010
0001
0000
1010
0001
0000
,  // measure 19
0000
0101
0000
1010
0000
0101
0010
1000
,  // measure 20
0000
0001
0100
0010
1000
0001
0001
0000
,  // measure 21
0010
0000
0100
0110
0000
1001
0000
0110
,  // measure 22
0010
0100
0001
1000
0100
0010
0100
0000
,  // measure 23
1000
1000
0001
0001
0010
0010
0100
0100
,  // measure 24
1000
0001
1000
0001
1000
0001
1000
0001
1000
0001
1000
0000
0001
0000
0010
0000
,  // measure 25
2200
0000
0000
0000
0000
0000
0000
3300
,  // measure 26
0010
0100
1000
0001
,  // measure 27
0202
0000
0000
0000
0000
0000
0000
0303
,  // measure 28
1001
0001
0010
0001
1000
0100
0001
0100
,  // measure 29
0010
0001
0010
0000
0011
0000
0110
0000
,  // measure 30
0010
0100
1000
0100
0001
0100
1000
0002
,  // measure 31
0000
0010
0103
0000
0101
0000
1100
0000
,  // measure 32
0001
1000
0100
0010
0100
1000
0001
0100
,  // measure 33
0010
1010
1001
1100
,  // measure 34
0001
0001
1000
0100
0010
0001
1000
0020
,  // measure 35
0000
0001
0130
0000
0101
0000
0011
0000
,  // measure 36
1001
0000
1000
0001
1000
0000
0010
0000
0100
0000
0001
0000
0010
0000
0100
0000
,  // measure 37
1000
0000
0010
1000
0010
0000
0100
0000
0001
0000
1000
0001
1000
0000
0100
0000
,  // measure 38
0010
0000
0001
1000
0010
0000
0100
0000
0001
0000
0001
0010
0100
0000
0010
0000
,  // measure 39
1000
0000
1000
0010
0100
0000
0001
0000
1000
0000
0001
1000
0100
0000
0000
0000
,  // measure 40
1100
0000
1000
0001
0100
0000
0001
0000
0101
0000
1000
0010
1000
0000
0010
0000
,  // measure 41
0110
0000
0001
1000
0001
0000
1001
0000
0110
0000
1000
0000
0001
0000
0100
0000
,  // measure 42
1001
0000
0100
0010
0100
0000
1000
0000
0101
0000
0010
1000
0010
0000
0011
0000
,  // measure 43
1100
0000
0010
1000
0001
0000
1001
0000
0010
0100
0001
0000
0110
0000
0000
0000
,  // measure 44
1000
0010
0001
1000
0100
0000
0001
0000
1000
0010
0001
1000
0100
0000
0001
0000
,  // measure 45
1000
0100
0001
1000
0010
0000
0001
0000
1000
0010
0001
1000
0100
0000
0001
0000
,  // measure 46
0010
1000
0001
0100
1000
0000
0001
0000
0010
1000
0001
0100
1000
0000
0001
0000
,  // measure 47
1000
0010
0001
1000
0100
0000
0001
0000
1000
0100
0001
1000
0010
0000
1000
0000
,  // measure 48
0010
0001
0100
1000
0001
0000
1000
0000
1000
0100
0001
0010
1000
0000
0001
0000
,  // measure 49
1000
0010
0100
1000
0010
0000
0001
0000
1000
0100
0001
0010
1000
0000
0001
0000
,  // measure 50
1000
0010
0100
1000
0010
0000
0100
0000
0001
0010
0001
0100
1000
0000
0001
0000
,  // measure 51
0010
1000
0010
0001
1000
0000
0100
0000
0010
0001
0010
0100
1000
0100
0010
0000
,  // measure 52
2001
0000
0100
0000
0100
0000
0100
3000
,  // measure 53
1002
0000
0010
0000
0010
0000
0010
0003
,  // measure 54
1001
0000
0100
0010
0100
0010
0001
1000
,  // measure 55
0010
0100
0010
0100
0001
0000
0001
0000
,  // measure 56
1000
0010
0100
0001
0010
0100
0000
1100
,  // measure 57
0000
0001
0010
0000
0110
0000
1100
0000
,  // measure 58
1001
0001
0100
1000
0100
0001
1000
0100
,  // measure 59
0000
0100
0010
0000
0010
0000
0100
0000
,  // measure 60
1000
0001
0100
0010
0000
0010
0000
1000
,  // measure 61
0001
0000
0100
0000
0001
0000
1000
0000
0010
1000
0001
0000
1000
0000
0001
0000
,  // measure 62
0200
0000
0000
0000
0000
0000
0000
0000
0000
0000
0000
0300
0000
0000
0000
0000
;

//---------------dance-single - ----------------
#NOTES:
     dance-single:
     :
     Medium:
     6:
     0.414,0.483,0.177,0.168,0.000:
0000
0000
0000
0000
,
0000
0000
0000
0000
,
0000
0000
0000
0000
,
0000
0000
0000
0000
,
1000
0000
0001
0100
,
0010
0000
1000
0001
0010
0000
0100
0000
,
2002
0000
0000
3003
0100
0000
0010
0000
,
0100
0001
1000
0000
0010
0000
0210
0000
,
2000
3300
0011
0100
,
1000
0001
0100
0000
0010
0000
0010
0010
,
0100
0001
1000
0100
,
0010
0001
1100
0101
,
0010
0000
1000
0001
,
0100
0001
1000
0000
0010
0000
0002
1000
,
0020
0033
1100
0000
,
0001
0001
0010
0000
0100
0000
1001
0000
,
0000
1010
0000
0101
0000
0001
0001
1000
,
0000
1000
1000
0001
0000
0010
0010
0000
,
0000
1100
0000
0011
0000
0100
0100
0010
,
0000
0100
0100
0010
0000
0100
0100
0000
,
0000
1001
0000
0110
0000
0001
0000
0100
,
0000
1000
0000
0010
0000
0001
0001
1000
,
0000
0001
0100
0001
1000
0001
1000
0001
,
1000
0100
1000
0100
0010
0100
0010
0100
,
2002
0000
0000
0000
,
0000
0000
0000
3003
,
0220
0000
0000
0330
,
0100
0000
0001
0000
1000
0100
0010
0000
,
0001
0000
1000
0000
0010
0100
1000
0000
,
0001
0000
0100
0000
0010
0100
0001
0000
,
0010
0000
0001
1000
0100
0000
0010
0000
,
0001
1000
0010
0000
0100
0000
1000
0000
,
0010
0001
0100
0000
0010
0000
0001
0000
,
1000
0100
0001
0000
0010
0000
0100
0000
,
1001
0010
0100
0000
,
1000
0100
0010
0000
0001
0010
0100
0000
,
1000
0010
0100
0001
1000
0000
0001
0000
,
0010
0001
1000
0000
0100
1000
0010
0000
,
0100
0001
1000
0010
0100
0000
0001
0000
,
1000
0000
0100
0010
0100
0000
1000
0010
,
0100
0000
0001
0100
1000
0000
0010
0000
,
0001
0010
1000
0000
1000
0010
0001
0000
,
0100
1000
0100
0010
0100
0000
0001
0000
,
1000
0001
1000
0000
0100
0010
0100
0000
,
1000
0001
0100
0000
0010
0000
0010
0000
,
0100
0001
1000
0000
0100
0000
0010
0000
,
0001
1000
0001
1000
0001
0000
0000
0000
,
1000
0100
0010
0001
1000
0010
0100
0001
,
0010
0100
1000
0010
0100
0010
0100
0001
,
1000
0100
0010
0001
1000
0010
0100
0001
,
0100
0010
1000
0001
1000
0100
0010
0000
,
0220
0000
0000
0300
,
0100
0000
0100
0000
0100
0000
0100
0030
,
1001
0000
0010
0000
0100
0001
0100
0000
,
0010
1000
0001
0001
,
1000
0000
0100
0000
0001
0010
0100
0000
,
2000
3002
2003
3001
,
0100
0010
0100
0001
,
0010
0100
0010
0000
0001
0000
1000
0000
,
0010
0000
0100
0001
0010
0000
0100
0000
,
0020
0230
0320
0130
,
1001
0000
0000
0000
;

//---------------dance-single - ----------------
#NOTES:
     dance-single:
     :
     Easy:
     3:
     0.323,0.483,0.140,0.251,0.000:
0000
0000
0000
0000
,
0000
0000
0000
0000
,
0000
0000
0000
0000
,
0000
0000
0000
0000
,
0010
0000
1000
0000
,
0001
0001
0001
0000
,
0100
0000
0010
0000
,
1000
1000
1000
0000
,
0001
0100
1000
0010
,
0000
0010
1000
0100
,
0001
0000
0010
0000
,
0001
0100
1000
0001
,
0100
0000
0010
0000
,
0001
1000
0100
0100
,
0010
0000
0001
0000
,
1000
1000
0010
0100
,
0000
0001
1000
0001
,
1000
0001
1000
0100
,
0000
1000
0001
1000
,
0001
1000
0001
0100
,
0000
0010
0100
0001
,
0010
0100
1000
0001
,
0100
0100
0100
0100
,
0010
0010
0010
1000
,
2002
0000
0000
0003
,
0000
0000
0000
3000
,
0002
0000
0000
0003
,
0110
0100
1000
1000
,
0001
0001
0100
1000
,
0010
0010
0100
0100
,
0001
0001
1000
0100
,
0010
0010
0001
0001
,
1000
0010
0100
0001
,
1000
1000
0100
0100
,
1000
0001
1000
0000
,
0102
1000
0013
2100
,
0001
3010
1200
0010
,
1300
0201
0010
0301
,
0012
1000
0013
2100
,
0001
3100
1020
0100
,
0031
1002
0100
1003
,
2010
0001
3100
1020
,
0001
0100
1030
1001
,
0100
0010
0001
1000
,
0010
0100
0001
0010
,
0100
1000
1000
0001
,
0010
0100
1000
0001
,
2000
3200
0302
0203
,
2300
3020
0032
0023
,
0230
0302
0023
0230
,
2300
3010
0002
0103
,
1001
0000
0100
0100
,
0100
0100
0100
0100
,
1001
0010
0100
0001
,
1000
1000
0001
0001
,
1000
1000
0100
0100
,
0001
0001
0100
0100
,
1000
1000
0010
0010
,
0001
0001
1000
1000
,
0010
0010
0001
0001
,
1000
0100
1000
0001
,
0010
0000
0000
0000
;

//---------------dance-double - Copied from----------------
#NOTES:
     dance-double:
     Copied from:
     Hard:
     9:
     0.628,0.710,0.410,0.019,0.335:
00000000
00000000
00000000
00000000
,
00000000
00000000
00000000
00000000
,
00000000
00000000
00000000
00000000
,
00000000
00000000
00000000
00000000
,
10000000
00000000
01000000
00010000
00000000
00001000
00000000
00000010
,
00000000
00000001
00000100
00000000
00001000
00000000
00010000
00100000
,
10000000
00000000
00010000
00100000
00000000
01000000
00000000
00010000
,
00000000
00001000
00000010
00000100
00010000
01000000
10000000
00000000
,
00110000
00000000
00000000
00000000
00000000
00000000
00000000
00001010
00000000
00000000
00000101
00000000
00000000
00000000
00000001
00000000
,
00000000
00001000
00000001
00000100
00001000
00010000
00001000
00100000
,
00110000
00000000
00000000
00000000
00000000
00000000
00000000
11000000
00000000
00000000
00110000
00000000
00000000
00000000
00001000
00000000
,
00000000
00010000
00001000
00010000
00001000
00010000
00001000
01000000
,
00011000
00000000
00000100
00000010
00000000
00000110
00000000
00001001
,
00000000
00000010
00000001
00000000
00000110
00000000
00101000
00000000
,
00110000
00000000
01000000
00010000
00000000
00100000
00000000
01000000
,
00010000
00001000
00100000
01000000
10000000
00010000
00100000
00000000
,
01100000
00000000
10010000
00010000
01000000
00011000
00001000
00000100
,
00000000
00001001
00000100
00000010
00000001
00001000
00001010
00000000
,
00000000
00000101
00000000
00001100
00000000
00011000
00010000
01000000
,
00000000
10100000
00010000
01000000
00000000
00011000
00000010
00000000
,
00000000
00011000
00000000
00110000
01000000
00100000
01000000
10000000
,
00010000
10000000
01000000
00010000
00001000
00000100
00000001
00001000
,
00000100
00000010
00000001
00001000
00000010
00000100
00000001
00001000
,
00001000
00010000
00001000
00010000
00001000
00010000
00001000
00010000
00001000
00010000
00001000
00010000
00001000
00010000
00001000
00010000
,
00002000
00000000
00000000
00000000
,
00010000
00010000
00013000
00000000
,
10010000
00000000
00000000
00000000
,
11000000
01000000
00100000
00001000
00010000
01000000
00010000
00001000
,
00000010
00000001
00001000
00000001
00000101
00000000
00001001
00000000
,
00000010
00000001
00000100
00001000
00010000
00001000
00000010
00001000
,
00000000
00010000
01000000
00000000
00011000
00000000
00000110
00000000
,
00001000
00000001
00000010
00001000
00000010
00000001
00000100
00001000
,
00010000
01000000
00100000
00000000
10010000
00000000
00011000
00000000
,
00100000
00010000
01000000
00001000
00010000
00000010
00000100
00000001
,
00001000
00000100
00000010
00000000
00001001
00000000
00011000
00000000
,
00100000
00010000
00100000
00010000
00100000
00000000
01000000
00000000
10000000
01000000
10000000
01000000
10000000
00000000
01000000
00000000
,
00100000
00001000
00100000
00001000
00100000
00000000
00001000
00000000
00010000
00000100
00010000
00000100
00010000
00000000
00001000
00000000
,
00010000
00000010
00010000
00000010
00010000
00000000
00001000
00000000
01000000
00001000
01000000
00001000
01000000
00000000
00001000
00000000
,
00010000
00000100
00010000
00000100
00010000
00000000
00000100
00000000
00001000
00000000
00000001
00000000
00000100
00000000
00000000
00000000
,
00000001
00000100
00000001
00000100
00000001
00000000
00000010
00000000
00000100
00000010
00000100
00000010
00000100
00000000
00010000
00000000
,
00001000
00010000
00001000
00010000
00001000
00000000
00100000
00000000
01000000
00100000
01000000
00100000
01000000
00000000
10000000
00000000
,
00010000
10000000
00010000
10000000
00010000
00000000
01000000
00000000
00100000
01000000
00100000
01000000
00100000
00000000
01000000
00000000
,
00010000
10000000
00010000
00000000
00100000
01000000
00100000
00000000
00001000
00000000
00010000
00000000
01000000
00000000
00000000
00000000
,
10000000
01000000
00010000
01000000
00100000
00000000
00010000
00000000
10000000
00100000
00010000
00001000
01000000
00000000
00010000
00000000
,
00000100
00001000
00000100
00000010
00001000
00000000
00000010
00000000
00000001
00000100
00000010
00000001
00000010
00000000
00000100
00000000
,
00000001
00000010
00000100
00001000
00000100
00000000
00010000
00000000
00001000
00100000
01000000
00010000
01000000
00000000
10000000
00000000
,
00100000
00010000
00001000
00100000
01000000
00000000
00010000
00000000
00001000
00000010
00000100
00010000
00001000
00000000
00000010
00000000
,
00000100
00010000
00001000
00100000
01000000
00000000
00010000
00000000
00001000
00000100
00000001
00001000
00000100
00000000
00000010
00000000
,
00001000
00010000
01000000
00100000
00010000
00000000
10000000
00000000
01000000
00100000
00001000
00010000
01000000
00000000
10000000
00000000
,
00100000
01000000
00001000
00000000
00010000
00001000
00100000
00000000
01000000
00010000
00001000
00000000
00000100
00000001
00001000
00000000
,
00000100
00000010
00000001
00001000
00000010
00000000
00000100
00000000
00000001
00001000
00000100
00000010
00000100
00001000
00000001
00000000
,
00002001
00000001
00000001
00000001
,
00000001
00000001
00000001
00003001
,
00001001
00000000
00000100
00000001
00000010
00000100
00000010
00001000
,
00010000
00001000
01000000
00000000
01100000
00000000
01010000
00000000
,
10000000
01000000
00100000
00010000
10000000
01000000
00000000
01000000
,
00000000
10000000
00010000
00000000
01010000
00000000
10100000
00000000
,
00100000
00000000
10000000
00010000
00100000
01000000
00100000
00001000
,
00010000
01000000
10000000
00000000
11000000
00000000
00011000
00000000
,
00001000
00000100
00000001
00001000
00000100
00000010
00000000
00000001
,
00000000
00000000
00000010
00000000
00001000
00000000
00000000
00000000
00000101
00000000
00000000
00000000
00001000
00010000
00001000
00000000
,
00011000
00000000
00000000
00000000
;
