#TITLE:REQUIEM FOR A DREAM;
#SUBTITLE:~Unicron mix~;
#ARTIST:Unkown Error;
#TITLETRANSLIT:;
#SUBTITLETRANSLIT:;
#ARTISTTRANSLIT:;
#CREDIT:;
#BANNER:requie-bn.png;
#BACKGROUND:requie-bg.png;
#LYRICSPATH:;
#CDTITLE:cdtitle.png;
#MUSIC:Unknown Error Shadows (Unicorn Remix) (from www.boomp3.com).mp3;
#OFFSET:-0.049;
#SAMPLESTART:22.200;
#SAMPLELENGTH:15.400;
#SELECTABLE:YES;
#BPMS:0.000=86.300,32.000=172.600,96.000=86.300,112.000=172.600,143.500=345.199,144.000=345.199;
#STOPS:;
#BGCHANGES:0.000=1212121212.mpg=1.000=0=0=1,
99999=-nosongbg-=1.000=0=0=0 // don't automatically add -songbackground-
;

//---------------dance-single - ----------------
#NOTES:
     dance-single:
     :
     Hard:
     10:
     0.781,1.000,0.230,0.180,0.083:
0000
0000
0000
0000
,
0000
0000
0000
0000
,
0000
0000
0000
0000
,
0000
0000
0000
0000
,
1000
0000
0000
0001
1000
0000
0100
0000
0010
0000
0010
0000
0010
0000
0000
0000
,
0001
0000
0000
0001
0100
0000
0010
0000
1000
0000
1000
0000
1000
0000
0000
0000
,
0001
0000
0000
1000
0100
0000
0010
0000
0001
0000
0001
0000
0001
0000
0000
0000
,
0010
0000
0100
0000
0010
0000
0000
0100
0010
0000
0010
0000
0010
0000
0000
0000
,
1002
0000
0100
0000
0010
0003
1000
0200
,
0001
0000
0310
0000
0110
0000
0010
0001
,
0100
0000
1000
0000
0120
0000
1030
0010
,
0100
0010
0001
0010
1000
0010
0100
0000
,
1000
1000
1000
0000
0100
0000
0001
0100
,
0002
0000
0010
0003
0101
0000
0010
0100
,
1000
1020
1000
0100
,
0031
0010
0100
0010
1000
0100
0001
0000
,
0100
0100
0100
0010
0010
0000
0100
1000
,
0200
0000
0001
0300
0110
0000
0010
0001
,
0010
0000
0100
0000
1100
0000
1000
0010
,
0001
0010
0100
1000
0100
0001
1000
0000
,
0100
0100
0100
0000
0010
0000
0001
0010
,
1000
0000
0001
0000
0210
0000
1300
0100
,
0001
0000
0100
0000
0110
0000
0010
0001
,
0010
1000
0010
0100
1000
0001
0010
0000
,
1002
1000
1000
0000
0003
0000
0000
0000
0120
0100
0100
0030
0000
0000
0010
0000
,
1002
1000
1000
0003
0000
0000
1000
0010
0100
0010
0100
0001
1000
0100
0010
0000
,
0210
0010
0010
0300
0000
0000
1000
0000
1002
1000
1000
0003
0000
0000
0001
0000
,
0201
0001
0001
0000
0300
0000
0010
1000
0010
1000
0010
1000
0001
0000
0000
0000
,
1002
0000
1003
0000
1200
0000
1000
0300
,
1002
0013
2010
3010
,
0012
0103
2010
3100
,
1020
1030
1002
0013
,
0210
0000
0010
0300
0020
0000
0031
0000
,
0102
0103
1020
1030
,
1000
0001
0010
0100
,
1000
0100
1000
0100
1000
0100
1000
0001
0010
0001
0010
0001
0010
0000
0000
0000
,
0100
1000
0100
1000
0100
0000
0000
0001
,
1000
0001
1000
0000
0010
0000
0000
0000
,
0100
0001
0100
0001
0100
0000
0000
1000
,
0100
1000
0100
0000
0010
0000
0000
0000
,
1000
0100
1000
0100
0001
0000
0000
0100
,
0010
0001
0010
0000
0001
0000
0000
0000
,
1000
0100
1000
0100
1000
0000
0000
0001
,
0010
0001
0010
0000
0001
0000
0000
0000
,
0100
1000
0100
0010
0100
0000
0000
0001
,
1000
0001
1000
0000
0001
0000
0000
0000
,
0001
0010
0001
0010
0100
0000
0000
1000
,
0001
1000
0001
0000
1000
0000
0000
0000
,
0010
0100
0010
0100
0010
0000
0000
1000
,
0001
1000
0001
0000
0100
0000
0000
0000
,
0100
0001
0100
0001
0100
0000
0000
0100
,
0010
0100
0010
0000
1000
0000
0000
0000
,
0001
1000
0100
1000
0100
0000
0010
0001
,
0010
0001
1000
0000
0010
0000
0000
0000
,
0100
0001
1000
0100
1000
0000
0000
1000
,
0010
0100
0001
0000
1000
0000
0000
0000
,
1000
0100
0001
0100
0010
0000
0001
0000
,
0010
0100
0010
0000
1000
0000
0000
0000
,
0010
0100
1000
0100
0001
0000
0100
0000
,
0010
0001
1000
0000
,
1001
0000
0010
0000
0001
0000
0100
1000
,
0100
0001
0101
0000
,
0010
0000
1000
0010
1000
0000
0001
0000
,
1000
0100
0110
0000
,
0010
0000
0001
0010
0100
0000
0010
0000
,
0100
1000
1001
0000
,
1000
0000
0010
0100
0010
0000
0100
0000
,
0001
1000
1001
0000
,
1000
0010
0100
0010
0001
0000
0010
0000
,
0001
0010
0100
0010
1000
0000
0000
0000
,
1000
0100
0010
0100
0001
0000
0001
0000
,
0001
0100
0010
0100
1000
0000
0000
0000
,
1000
0010
0100
0010
0001
0000
0001
0000
,
0010
0100
0010
1000
0010
0000
0000
0000
,
1000
0100
0010
0100
0001
0000
0001
0000
,
0001
0100
0010
0100
1000
0000
0000
0000
,
1000
0010
0100
0010
0001
0000
0001
0000
,
0010
0100
0010
1000
0000
0000
0000
0000
,
1000
0100
0010
0100
0001
0000
0001
0000
,
0001
0100
0010
0100
1000
0000
0000
0000
,
1000
0010
0100
0010
0001
0000
0000
0000
,
0001
0010
0100
0010
0100
0000
0000
0000
,
0001
0100
0010
0100
0001
0000
0000
0000
,
0100
0010
1000
0100
1000
0000
0000
0000
,
1000
0001
0010
0001
0010
0000
0000
0000
,
0001
0100
0001
0100
0001
0000
0000
0000
,
1000
0010
1000
0010
1000
0000
0000
0000
,
0001
0010
0001
0010
0001
0000
0000
0000
,
0010
0100
0010
0100
0010
0000
0000
0000
,
0001
0100
0001
0100
0001
0000
0000
0000
,
1000
0010
1000
0010
1000
0000
0100
0000
,
1000
0001
0010
0000
,
1000
0100
1000
0100
1000
0100
1000
0001
,
1000
0001
1000
0001
1000
0001
1000
0001
,
0010
0001
0010
0001
0010
0001
0010
0001
,
0010
0001
1000
0001
1000
0001
1000
0000
,
1000
0010
0100
0010
0100
0010
0100
0010
,
0100
0010
0100
0010
0100
0001
0100
0001
,
0100
0001
0100
0001
1000
0001
1000
0001
,
1000
0001
0010
0001
0010
0001
0010
0000
,
0010
0001
0100
0001
0100
0001
0100
0001
,
0100
0001
1000
0001
1000
0001
1000
0010
,
1000
0010
1000
0010
1000
0100
1000
0100
,
1000
0100
1000
0100
1000
0000
1000
0000
,
0001
0010
0001
1000
0001
0010
0001
1000
,
0001
0100
0001
0100
0001
0000
0001
0000
,
0001
0100
0001
1000
0001
1000
0010
1000
,
0010
1000
0010
1000
0010
1000
0010
0000
,
0100
0010
0100
0001
0100
0010
0100
0001
,
0100
0010
0100
0001
0100
0000
0100
0000
,
0001
0100
0001
1000
0001
0100
0001
1000
,
0001
0100
0001
1000
0001
0100
0001
0000
,
1000
0001
1000
0010
1000
0001
1000
0010
,
1000
0001
1000
0010
1000
0001
1000
0000
,
1000
0100
1000
0001
1000
0100
1000
0001
,
1000
0100
1000
0001
1000
0100
1000
0000
,
1000
0000
0100
0001
0100
0000
0010
0000
,
1000
0100
1000
0000
0001
0000
0010
0100
,
0010
0001
1000
0010
,
0100
0010
0100
0000
0001
0000
1000
0000
,
1000
0100
0001
0100
0010
0100
0001
0100
,
0010
0100
0001
0100
1000
0100
0010
0100
,
1000
0001
1000
0001
1000
0001
1000
0001
,
0100
0010
0100
0001
0100
0000
0000
0000
,
1001
0000
0000
0000
;

//---------------dance-single - ----------------
#NOTES:
     dance-single:
     :
     Medium:
     9:
     0.585,0.770,0.202,0.202,0.000:
0000
0000
0000
0000
,
0000
0000
0000
0000
,
0000
0000
0000
0000
,
0000
0000
0000
0000
,
2000
0000
0000
0000
3001
0001
0001
0000
,
0002
0000
0000
0000
1000
1000
1000
0003
,
0020
0000
0000
0000
0100
0100
0100
0030
,
0200
0000
0000
0000
0010
0010
0010
0300
,
1001
0000
0001
0000
0100
0000
0001
1000
,
0200
0000
1000
0000
1000
0300
0001
0010
,
0002
0000
0100
0000
0103
0000
0001
0100
,
0001
1000
0001
1000
0001
0000
1000
0000
,
1020
0000
1000
0000
1030
0000
0001
0100
,
0002
0000
0100
0000
1003
0000
0001
1000
,
0002
0000
1000
0000
1003
0000
0001
0010
,
0001
0010
0001
0010
0001
0010
0100
0000
,
1000
1000
1000
0000
0001
0000
0100
0000
,
0001
0001
0001
0000
0100
0000
0010
0000
,
0010
0010
0010
0000
1000
0000
0001
1000
,
0001
1000
0010
1000
0001
1000
0001
0000
,
1000
1000
1000
0000
0001
0000
0010
0000
,
0100
0100
0100
0000
0010
0000
0001
0000
,
1000
1000
1000
0000
0001
0000
0100
0000
,
0010
1000
0001
1000
,
1002
0000
0000
0003
2200
0000
0000
3300
,
0202
0303
1000
1000
,
0012
0003
0102
0003
,
2200
3300
0000
1000
0001
0000
1000
0000
,
1100
0001
0102
1003
,
1020
0000
1030
0000
1002
0000
0010
0003
,
0210
0000
0010
0300
0012
0000
0100
0003
,
1002
1003
1020
1030
,
0100
1000
0001
0010
,
0001
1000
0010
1000
,
1010
1010
1010
1010
,
0001
0100
0001
0000
,
0000
0000
0000
0000
0000
0000
0100
1000
,
0100
0000
1000
0000
,
0001
0100
0001
0100
0001
0000
1000
0100
,
1000
0100
1000
0000
0001
0000
0000
0000
,
0001
0010
0001
0000
0100
0000
0010
0000
,
0100
0010
0100
0000
0010
0000
0000
0000
,
1000
0001
1000
0000
0100
0000
0010
0000
,
0001
0010
0001
0000
0000
0000
0000
0000
,
1000
0001
1000
0000
0010
0000
0100
0000
,
0001
0100
0001
0000
1000
0000
0000
0000
,
0100
1000
0100
0000
1000
0000
0001
0000
,
0010
0100
1000
0000
,
0001
1000
0001
0000
1000
0000
0010
0000
,
0100
0001
1000
0000
,
0001
1000
0001
0000
0100
0000
0000
0000
,
0001
1000
0001
0000
0100
0000
0000
0000
,
0010
0100
0010
1000
,
0001
0010
0001
1000
,
0100
1000
0001
0010
,
0001
0100
0001
1000
,
0010
1000
0100
1000
,
0001
0010
0001
0000
,
0100
0010
0100
0010
0100
0000
0001
0000
,
1000
0001
1000
0002
,
1000
0000
0103
1000
,
0001
1000
0010
0000
,
1001
1000
0100
1000
,
0001
0010
0001
0000
,
1001
0010
0001
1000
,
0001
1000
0100
0000
,
1000
0000
1000
0000
,
1000
0000
1000
0000
,
0010
0001
1000
0010
,
0100
0001
0001
0000
,
0100
0001
0101
1000
,
0010
1000
0100
0000
,
1000
0000
0001
1000
0001
0000
0010
0000
,
0100
0010
0001
0000
,
1000
0000
1000
0000
,
0001
0001
0010
0000
,
0110
0100
0110
0010
,
0001
0100
0010
0000
,
0100
0000
0010
0100
0010
0000
0100
0000
,
0001
1000
0001
0000
1000
0000
0000
0000
,
0100
0010
1001
0100
,
1000
0001
1000
0000
,
0010
0000
1000
0010
1000
0000
0001
0000
,
0100
0010
0010
0000
,
0100
0000
0001
0100
0001
0000
1000
0000
,
0010
0010
1000
0000
,
0001
0000
0001
0010
0100
0000
1000
0000
,
0001
1000
0010
0000
,
1000
0000
1000
0010
0100
0000
0001
0000
,
1000
0001
1000
0000
,
0001
0000
0001
0010
0100
0000
1000
0000
,
0001
1000
0001
0000
,
1000
0100
0001
0100
,
1000
0001
0010
1000
,
0010
0001
1000
0010
,
0001
1000
0100
0001
,
1000
0100
0001
1000
,
0010
0001
1000
0010
,
0100
1000
0001
1000
,
0010
0100
1000
0001
,
1000
0100
0001
0010
,
1000
0100
0001
1000
,
0010
0100
0001
0100
,
0010
1000
0100
0010
,
1000
0001
0010
0100
,
0010
0001
1000
0010
,
0100
0001
0100
0010
,
1000
0001
0010
0100
,
1001
0000
0000
0000
1000
0100
1000
0100
,
1000
0001
0010
0001
0010
0001
0010
0001
,
0100
0001
0100
0001
0100
0001
0100
0001
,
1000
0001
1000
0001
1000
0001
1000
0001
,
1000
0010
1000
0010
1000
0010
1000
0010
,
1000
0010
1000
0100
1000
0100
1000
0100
,
1000
0001
1000
0001
1000
0001
1000
0001
,
0010
0001
0010
0001
0010
0001
1000
0000
,
0001
0100
1000
0010
,
0100
0001
0100
0010
,
1000
0000
0001
1000
0001
0000
0010
0000
,
0100
0010
0001
1000
,
0010
0100
0001
0010
,
0100
1000
0001
1000
,
0010
0010
1000
1000
,
0001
0001
0100
0010
,
2002
0000
0000
0000
,
0000
0000
0000
0000
0000
0000
0000
3003
;

//---------------dance-single - ----------------
#NOTES:
     dance-single:
     :
     Easy:
     5:
     0.305,0.548,0.151,0.151,0.000:
0000
0000
0000
0000
,
0000
0000
0000
0000
,
1000
0000
0000
0000
,
0000
0000
0000
0000
,
0100
0000
0001
0000
,
1000
0000
0001
0000
,
0010
0000
0001
0000
,
0100
0000
1000
0000
,
1002
0100
0103
0001
,
1000
0001
1000
0001
,
2100
0001
0100
3001
,
1000
0001
1000
0000
,
1002
0010
0100
0010
,
0100
0013
0010
0000
,
2001
0010
3100
0000
,
2001
0010
0100
0010
,
3100
1000
1001
0000
,
0100
0001
0001
0000
,
0100
1000
1000
0000
,
1000
0001
1000
0001
,
1000
0010
0010
0000
,
0200
0001
0301
0000
,
0020
1000
1030
0000
,
0001
0100
0001
0100
,
1001
0000
1000
0000
,
0110
0000
0001
0000
,
1010
0000
0101
0000
,
0011
0000
1100
0000
,
1000
0001
0100
0010
,
1000
0001
1000
0001
,
1000
0001
1000
0001
,
1000
0001
1000
0000
,
0010
0000
0010
0000
,
0010
0000
0010
0000
,
0100
0100
0100
0100
,
0100
0100
0100
0100
,
0000
0100
0000
0000
,
1000
0000
0001
0000
,
1000
0000
0001
0000
,
0010
0000
0100
0000
,
1000
0000
0001
0000
,
0100
0000
0010
0000
,
0100
0000
0001
0000
,
1000
0000
0100
0000
,
0200
0000
0000
0000
,
0000
0000
0000
0300
,
2000
0000
0000
0000
,
0000
0000
3000
0000
,
0002
0000
0000
0000
,
0000
0000
0003
0000
,
0020
0000
0000
0000
,
0000
0000
0000
0030
,
0100
0000
0000
1000
,
0001
0000
0010
0000
,
0100
0000
1000
0000
,
0001
0000
0000
1000
,
0010
0000
0000
0100
,
0001
0000
0000
0100
,
0010
0000
1000
0000
,
0001
0000
0000
0000
,
1200
0000
1000
0000
,
1000
0300
0000
0000
,
0201
0000
0001
0000
,
0001
0300
0000
0000
,
0012
0000
0010
0000
,
0013
0000
0000
0000
,
1020
0000
1000
0000
,
1000
0030
0000
0000
,
1000
0000
0001
0000
,
0010
0000
0000
0000
,
0001
0000
1000
0000
,
0100
0000
0000
0000
,
1000
0000
0001
0000
,
0100
0000
0000
0000
,
0010
0000
1000
0000
,
0001
0000
0000
0000
,
0010
0000
0010
0000
,
0010
0000
0000
0000
,
0100
0000
0100
0000
,
0100
0000
0000
0000
,
1000
0000
1000
0000
,
1000
0000
0000
0000
,
0001
0000
0001
0000
,
0001
0000
0000
0000
,
1000
0000
0001
0000
,
1000
0000
0000
0000
,
0010
0000
0100
0000
,
0010
0000
0000
0000
,
0100
0000
0001
0000
,
1000
0000
0010
0000
,
1000
0000
0001
0000
,
0001
0000
0000
0000
,
1000
0000
0100
0000
,
0001
0000
0100
0000
,
1000
0000
0010
0000
,
0001
0000
0010
0000
,
0100
0000
1000
0000
,
0100
0000
0001
0000
,
1000
0000
0100
0000
,
0001
0000
0100
0000
,
0010
0000
0001
0000
,
0010
0000
1000
0000
,
0001
0000
0100
0000
,
1000
0000
0010
0000
,
0001
0000
0010
0000
,
0100
0000
0001
0000
,
0010
0000
1000
0000
,
0010
0000
1000
0000
,
0210
0000
0010
0000
,
0010
0000
0310
0000
,
1200
0000
1000
0000
,
1000
0000
1000
0300
,
0012
0000
0010
0000
,
0010
0000
0013
0000
,
0102
0000
0100
0000
,
0100
0000
0100
0003
,
1000
0000
0010
0000
,
0100
0000
0001
0000
,
0010
0000
0100
0000
,
1000
0000
0010
0000
,
0100
0001
0010
0100
,
1000
0010
0100
0001
,
1000
0100
0010
0100
,
1000
0001
0100
0010
,
2002
0000
0000
0000
,
0000
0000
0000
0000
,
0000
0000
0000
0000
,
3003
0000
0000
0000
;

//---------------dance-double - Copied from----------------
#NOTES:
     dance-double:
     Copied from:
     Hard:
     10:
     0.727,1.000,0.166,0.158,0.061:
00000000
00000000
00000000
00000000
,
00000000
00000000
00000000
00000000
,
00010000
00010000
00000000
00000000
00000000
00000000
00000000
00000000
,
00000000
00000000
00000000
00000000
,
00010000
00000000
00000000
00000100
00001000
00000000
00000001
00000000
00000001
00000000
00000001
00000000
00000100
00000000
00000000
00000000
,
00000010
00000000
00000000
00010000
00001000
00000000
00001000
00000000
00100000
00000000
00100000
00000000
00100000
00000000
00000000
00000000
,
00010000
00000000
00000000
10000000
00010000
00000000
10000000
00000000
00100000
00000000
00100000
00000000
00100000
00000000
00000000
00000000
,
00010000
00000000
00000000
00000100
00001000
00000000
00000001
00000000
00000100
00000000
00000100
00000000
00000100
00000000
00000000
00000000
,
00001002
00000000
00000000
00000000
00000010
00000000
00000000
00000000
00001000
00000003
00000000
00000000
00000001
00000000
00000010
00000000
,
00000200
00000000
00010000
00000000
00001000
00000300
00010000
00001000
,
00200000
00000000
00000000
00000000
00010000
00000000
00000000
00000000
01000000
00000000
00000000
00300000
00010000
00000000
00100000
00000000
,
00010000
10000000
01000000
00100000
00010000
10000000
01000000
00000000
,
12000000
00000000
00100000
00000000
10000000
03000000
00100000
00001000
,
00020000
00000000
00000000
00000000
00001000
00000000
00000000
00000000
00001000
00000000
00000000
00030000
00000010
00000000
00001000
00000000
,
00000002
00000000
00000010
00000000
00000010
00000003
00001000
00000001
,
00000010
00000100
00001000
00000001
00000010
00000100
00001000
00000000
,
00001002
00000000
00001000
00000000
00001000
00000003
00000000
00000000
00000010
00000000
00000000
00000000
00010000
00000000
00001000
00000000
,
00100000
00010000
01020000
10030000
,
20100000
00000000
00000000
00000000
00010000
30000000
00000000
00000000
01010000
00000000
00000000
00000000
00100000
00000000
00001000
00000000
,
01000000
00010000
00100000
00001000
01000000
00010000
00100000
00000000
,
00001000
00001000
00001000
00000000
00010000
00000000
00000100
00001000
,
00000001
00000000
00000100
00000000
00001010
00000000
00000100
00010000
,
00001000
00000000
01000000
00000000
00010000
00000000
10000000
01000000
,
00100000
00010000
10000000
01000000
00010000
00001000
00000010
00000000
,
00002002
00000000
00000000
00000000
00000000
00003003
00001000
00000001
00001000
00000002
00000000
00000000
00000003
00000000
00000100
00000010
,
00000100
00000020
00000000
00000000
00000000
00000030
00010000
00001000
00010000
01000000
10000000
00010000
00100000
01000000
10000000
00000000
,
00010000
00010000
00010000
00000000
00000000
00000000
00000000
00000000
00000100
00000100
00000100
00000000
00000000
00000000
00000000
00000000
,
00000001
00000001
00000001
00000000
00000000
00000000
00000000
00000000
00001000
00001000
00001000
00000000
00000000
00000000
00000000
00000000
,
00001002
00000013
00000102
00001003
,
00020010
00031000
00102000
01003000
,
00020100
00031000
02001000
03010000
,
10020000
10000000
10030000
00010000
,
00100000
01000000
10000000
00010000
,
00100000
00010000
10000000
01000000
,
00100000
00000000
00000000
00001000
00010000
00000000
00000010
00000000
00000100
00000000
00000001
00000000
00001000
00000000
00000100
00000000
,
00000010
00000001
00001000
00000010
00000100
00000001
00001000
00000000
,
00000000
00000000
00000000
00000000
00002002
00000000
00000000
00000000
00000000
00000000
00000000
00003003
00000000
00000000
00000000
00000000
,
00001000
00000100
00000010
00000000
,
00000001
00000100
00000001
00000100
00000010
00000000
00010000
00000000
,
00001000
00100000
01000000
00000000
,
10000000
01000000
10000000
01000000
00100000
00000000
00001000
00000000
,
00010000
00000100
00001000
00000000
,
00000001
00000100
00000001
00000100
00000010
00000000
00010000
00000000
,
00001000
00100000
01000000
00000000
,
10000000
01000000
10000000
01000000
00100000
00000000
00001000
00000000
,
00010000
00000010
00000100
00000000
,
00000001
00000100
00000001
00000100
00000010
00000000
00010000
00000000
,
00001000
00100000
01000000
00000000
,
10000000
01000000
10000000
01000000
00100000
00000000
00001000
00000000
,
00010000
00000010
00000100
00000000
,
00000001
00000100
00000001
00000100
00000010
00000000
00010000
00000000
,
00001000
00100000
01000000
00000000
,
10000000
01000000
00010000
00001000
,
00000010
00000001
00000100
00001000
,
00010000
00100000
10000000
01000000
,
00010000
00001000
00000010
00000001
,
00000100
00001000
00010000
01000000
,
10000000
00010000
10000000
00001000
,
00000100
00000001
00001000
00000001
,
00001000
00000001
00001000
00000000
,
00001001
00000010
00000001
00000100
,
00001000
00100000
00110000
00000000
,
10000000
00000000
00000000
10000000
01000000
00000000
00100000
00000000
,
00001000
00010000
00000100
00000000
,
00010000
00000000
00000000
00010000
00001000
00000000
00100000
00000000
,
00001000
00001000
01000000
00010000
,
00100000
00000000
00010000
00100000
00010000
00000000
00100000
00000000
,
01000000
10000000
10010000
00000000
,
00100000
00000000
00001000
00010000
00001000
00000000
00000100
00000000
,
00000010
00001000
00001001
00000000
,
00000010
00000000
00000001
00000010
00000001
00000000
00000010
00000000
,
00000100
00001000
00000010
00000000
,
00000010
00000001
00000010
00000000
00000001
00000000
00000100
00000000
,
00001000
00000000
00010000
00000000
00000000
00100000
00000000
00000000
,
10000000
00010000
10000000
00000000
01000000
00000000
00100000
00000000
,
00000000
00001000
00010000
00000000
01000000
00000000
00000000
00000000
,
00010000
00001000
00010000
00000000
00001000
00000000
00000000
00000010
,
00000000
00000001
00000100
00000000
00001000
00000000
00000000
00000000
,
00010000
00001000
00010000
00000000
00100000
00000000
01000000
00000000
,
00010000
00100000
01000000
00000000
,
10000000
01000000
10000000
00000000
01000000
00000000
00000000
00010000
,
00000000
00001000
00000100
00000000
00000000
00000001
00000000
00000000
,
00000100
00000001
00000100
00000000
00001000
00000000
00010000
00000000
,
01000000
10000000
00010000
00000000
,
00100000
01000000
00100000
00000000
00001000
00000000
00010000
00000000
,
00000000
00000110
00000000
00000010
00000100
00000000
00000001
00000000
,
00001000
00000001
00001000
00000000
00000100
00000000
00010000
00000000
,
00001000
00100000
00001000
00000000
00100000
00000000
00010000
00000000
,
01000000
00100000
01000000
00000000
00000000
00100000
10000000
00000000
,
00010000
00110000
10000000
01000000
,
00100000
00001000
00010000
00000000
00000010
00000000
00000100
00000000
,
00000001
00000000
00001000
00000010
00001000
00000000
00000000
00000000
,
00001000
00000001
00001000
00000001
00000010
00000001
00000010
00000001
,
00000100
00000001
00000100
00000001
00001000
00000010
00001000
00000010
,
00010000
00001000
00010000
00001000
00010000
00001000
00100000
00010000
,
00100000
00010000
01000000
00010000
10000000
00010000
10000000
00010000
,
00100000
00001000
00010000
00001000
00010000
00001000
00010000
00000100
,
00001000
00000100
00001000
00000001
00001000
00000001
00000100
00000010
,
00000100
00000010
00001000
00000100
00001000
00000100
00010000
00001000
,
00100000
00010000
00100000
00000000
00100000
00000000
00100000
00000000
,
00100000
00000000
00100000
00010000
10000000
00010000
10000000
00010000
,
10000000
01000000
00100000
01000000
00100000
01000000
00100000
00001000
,
00100000
00001000
00100000
00001000
00010000
00001000
00010000
00000100
,
00001000
00000100
00001000
00000100
00001000
00000001
00001000
00000001
,
00001000
00000001
00000010
00000001
00000010
00000001
00000010
00000001
,
00001000
00000000
00000001
00001000
00000100
00010000
00000100
00010000
,
00000100
00010000
00001000
01000000
00001000
01000000
00001000
01000000
,
00010000
10000000
00010000
10000000
00010000
00000000
00010000
00000000
,
00100000
00010000
00100000
00001000
00010000
00001000
00010000
00001000
,
00010000
00000100
00001000
00000100
00001000
00000001
00001000
00000001
,
00001000
00000001
00000100
00000001
00000100
00000001
00001000
00000010
,
00001000
00000010
00010000
00001000
00010000
00001000
00100000
00001000
,
00100000
00001000
00100000
00010000
01000000
00010000
01000000
00010000
,
10000000
00100000
10000000
00010000
00100000
00001000
00100000
00000100
,
00010000
00000100
00001000
00000001
00001000
00000001
00001000
00000010
,
00001000
00000001
00001000
00000000
00000001
00000000
00000000
00000000
,
00001000
00000010
00000100
00000010
00000001
00000010
00000100
00000010
,
00001000
00000010
00000100
00000010
00000001
00000010
00000100
00000010
,
00001000
00000100
00001000
00000100
00001000
00000100
00000010
00000100
,
00000001
00000100
00000010
00000100
00001000
00000100
00001000
00000100
,
00010000
00001000
00100000
00010000
00100000
00010000
00100000
01000000
,
00100000
10000000
00100000
01000000
00100000
00010000
00100000
01000000
,
10000000
01000000
10000000
01000000
10000000
01000000
10000000
01000000
,
00100000
01000000
00010000
01000000
00100000
01000000
10000000
00000000
,
10010000
00000000
00000000
00000000
;
