#TITLE:PHAT BASS;
#SUBTITLE:;
#ARTIST:DJ Hush;
#TITLETRANSLIT:;
#SUBTITLETRANSLIT:;
#ARTISTTRANSLIT:;
#CREDIT:;
#BANNER:;
#BACKGROUND:;
#LYRICSPATH:;
#CDTITLE:cdtitle.png;
#MUSIC:phat bass.ogg;
#OFFSET:-0.049;
#SAMPLESTART:49.900;
#SAMPLELENGTH:11.900;
#SELECTABLE:NO;
#BPMS:0.000=130.000,89.000=519.996,105.000=130.000;
#STOPS:40.000=6.940
;
#BGCHANGES:;

//---------------dance-single - ----------------
#NOTES:
     dance-single:
     :
     Hard:
     8:
     0.552,0.607,0.220,0.119,0.485:
0000
0000
0000
0000
,
1200
0000
0000
0000
1000
0000
0000
0000
1000
0000
0000
0000
1000
0300
0000
0000
,
0201
0001
0001
0300
,
0120
0100
0100
0030
,
1002
0000
0100
0000
0100
0003
0000
0000
,
0120
0000
0000
0000
0001
0000
0000
0000
0001
0000
0000
0000
0001
0030
0000
0000
,
1200
1000
1000
1300
,
1020
0031
0210
1300
,
1001
0010
2002
0000
,
0000
0000
0000
0000
0000
0000
0000
0000
0000
0000
0000
3003
0000
0000
0000
0000
,
0010
0000
0000
0000
1000
0000
0000
0001
0000
0100
0001
0000
0001
1000
0001
0000
,
0100
0000
0000
0000
0001
0000
0000
0010
0000
0100
1000
0000
0010
0100
0010
0000
,
0100
0000
0000
0000
1000
0000
0000
0001
0000
0100
1000
0000
0001
1000
0001
0000
,
0100
0000
0000
0000
0010
0000
0000
0010
0000
1000
0001
0000
0100
0001
0100
0000
,
0001
0000
0000
0000
1000
0000
0000
0010
0000
0010
1000
0000
0001
0000
0000
0001
,
0000
0001
0100
0000
0001
0000
0000
0001
0000
0001
0100
0000
0001
0000
0000
0001
,
0000
0001
0100
0000
0001
0000
0000
0001
0000
0001
0100
0000
0001
0000
0000
0001
,
0000
0001
0100
0000
0001
0000
0000
0001
0000
0001
0100
0000
0001
0000
0000
1000
,
0000
0001
1000
0000
0001
0000
0000
0100
0000
0010
0100
0000
0010
0000
0000
1000
,
0000
0010
0001
0000
1000
0000
0000
0001
0100
0000
0000
0001
0100
0000
0000
0010
,
1000
0000
0000
0010
0100
0000
0001
0000
0010
0000
0100
0000
1000
0000
0010
0000
,
1000
0000
0001
0000
0010
0001
0010
0001
1000
0100
0010
0001
1000
0010
0100
0001
,
1000
0100
1000
0000
2002
0000
0000
0000
0000
0000
0000
0000
0000
0000
0000
0000
,
0000
0000
0000
0000
,
0000
0000
0000
0000
,
0000
0000
0000
0000
,
3003
0000
0000
0000
1001
0000
0000
0000
0001
0000
0000
0000
0100
0001
0100
0000
,
0010
0000
0010
0000
1000
0000
0000
0001
0000
0001
0010
0000
0001
0100
0001
0000
,
1000
0000
0010
0000
0010
0000
0000
1000
0000
0100
1000
0000
0100
1000
0100
0000
,
1000
0000
0001
0000
0001
0000
0000
0100
0000
0010
1000
0000
0001
0010
0001
0000
,
0100
0000
0100
0000
0001
0000
0000
1000
0000
0010
1000
0000
0100
1000
0100
0000
,
1000
0000
0010
0000
0010
0000
0000
1000
0000
0001
0100
0000
0001
1000
0001
0000
,
1000
0000
0010
0000
0010
0000
0000
0001
0000
0010
1000
0000
0100
0001
0100
0000
,
1000
0000
0010
0000
0001
0000
0000
1000
0000
0100
0000
0000
0001
0100
1000
0000
,
0010
0000
0000
0000
0110
0000
0000
0100
1000
0000
0010
0000
0100
0000
0000
0001
,
0010
0000
0001
0000
0100
0000
0000
1000
0100
0000
0001
0000
1000
0000
0000
1000
,
0010
0000
0001
0000
0100
0000
0000
0001
0010
0000
0100
0000
0001
0000
0000
1000
,
0010
0000
0001
0000
0100
0000
0000
0010
0001
0000
0010
0000
0100
0000
0000
0001
,
0010
0000
0100
0000
1000
0000
0000
0010
1000
0000
0001
0000
0010
0000
0000
1000
,
0010
0000
0001
0000
0100
0000
0000
1000
0100
0000
0001
0000
0010
0000
0000
0001
,
0010
0000
1000
0000
0001
0000
0000
0100
1000
0000
0001
0000
0010
0000
0000
1000
,
0001
0000
0100
0000
0010
0000
0001
1000
0001
1000
1000
0001
1000
0001
1000
0001
,
1000
0000
0000
0000
0101
0000
0000
0010
1000
0000
0010
0000
0100
0010
0100
0000
,
0001
0000
0001
0000
0100
0000
0000
0000
0110
0000
0000
0000
0001
1000
0001
0000
,
0010
0000
0010
0000
0001
0000
0000
0000
1100
0000
0000
0000
0010
1000
0010
0000
,
1000
0000
0001
0000
0010
0000
0000
0000
0110
0000
0000
0000
1000
0001
1000
0000
,
0100
0000
0010
0000
0011
0000
0000
0000
0100
0000
1000
0000
0010
0100
0010
0000
,
1000
0000
0010
0000
0110
0000
0000
0000
1001
0000
0000
0000
0100
0001
0100
0000
,
0001
0000
1000
0000
1010
0000
0000
0000
0001
0000
0100
0000
0001
1000
0001
0000
,
0100
0101
1001
0010
,
0100
0000
0000
0000
1001
0000
0000
1000
0100
0000
1000
0000
0001
0000
0000
1000
,
0001
0000
0100
0000
0010
0000
0000
0010
1000
0000
0001
0000
0010
0000
0000
0010
,
0001
0000
0100
0000
0010
0000
0000
0010
0100
0000
0010
0000
1000
0000
0000
1000
,
0001
0000
1000
0000
0001
0000
0000
0100
0001
0000
0100
0000
0001
0000
0000
0001
,
1000
0000
0100
0000
1000
0000
0001
0000
0010
0000
0001
0000
0100
0001
0000
0001
,
0100
0000
0001
0000
1000
0000
0001
0000
0100
0000
0010
0000
1000
0001
0000
0001
,
1000
0000
0001
0000
0100
0000
0010
0000
1000
0000
0001
0000
0010
0100
0000
0100
,
1000
0001
0200
0000
0000
0300
0000
0000
;

//---------------dance-single - ----------------
#NOTES:
     dance-single:
     :
     Medium:
     5:
     0.337,0.418,0.046,0.156,0.000:
0000
0000
0000
0000
,
2000
0000
0001
0000
0001
3000
0000
0000
,
0200
0001
0301
0000
,
0020
0000
0001
0000
0001
0030
0000
0000
,
0200
1000
1300
0000
,
0020
0100
0130
0000
,
0200
0001
0301
0000
,
0020
0100
0130
0001
,
1001
0001
0002
0000
,
0000
0000
0000
0000
0000
0000
0000
0003
,
1000
0000
1000
0000
0001
0000
0100
0010
,
0100
0000
0002
0000
1000
0003
0100
0001
,
2000
0000
0010
0000
0001
3000
0100
1000
,
0002
0000
0100
0000
1003
0000
0010
1000
,
0001
0000
0100
0000
0010
0100
0001
0000
,
1000
0100
1000
0000
0001
0010
0100
0000
,
1000
0100
0010
0000
0001
0100
0010
0000
,
0010
1000
0100
0000
0100
0001
1000
0000
,
0010
1000
0001
0000
0100
0000
0001
0000
,
1000
0010
1000
0001
,
0100
0000
0001
1000
0001
1000
0001
0010
,
0100
0010
0100
0010
0001
1000
0010
0100
,
0010
2002
0000
0000
,
0000
0000
0000
0000
,
0000
0000
0000
0000
,
0000
0000
0000
0000
,
3003
0000
1001
0000
0001
0000
0100
0001
,
1000
0000
0010
0000
0001
0000
1000
0100
,
0010
0000
0001
0000
0001
0000
1000
0100
,
0010
0000
0001
0000
0001
0000
0001
0010
,
0100
0000
1000
0000
1000
0000
0001
0010
,
0100
0000
1000
0000
1000
0000
0001
0010
,
0100
0000
1000
0000
1000
0000
0010
0100
,
0010
0000
2000
0000
0001
0000
0001
3000
,
0000
0000
1001
0000
0001
0000
0100
0010
,
1000
0000
0001
0000
0001
0000
0010
0001
,
1000
0100
0010
0000
0010
0000
0010
0001
,
0100
0001
0200
0000
0001
0300
0001
1000
,
0001
2000
0010
0000
3010
0000
0001
0100
,
0001
0000
1000
0000
0010
0000
0001
1000
,
0100
0000
0010
0000
0001
0000
0100
0001
,
1000
0020
0000
0000
,
0030
0100
0001
1000
,
0010
0000
0010
0000
0100
0000
0001
1000
,
0001
0100
0001
0000
0000
0000
0100
0001
,
0100
0000
0010
0000
0000
0000
0100
0001
,
1000
0010
0010
0000
0000
0000
0001
1000
,
0100
0010
0010
0000
0000
0000
0001
0100
,
0010
0100
0100
0000
0000
0000
0001
1000
,
0100
0100
0000
0000
0001
0000
1000
0000
,
0000
1001
0001
0100
,
1000
0010
0001
1000
,
0100
0010
0001
1000
,
0010
0010
0000
0000
0100
0000
0001
0000
,
0100
0100
0000
0000
0001
0000
1000
0000
,
0010
0010
0000
0000
0001
0000
1000
0000
,
0001
0001
0000
0000
0001
0000
0100
0000
,
1000
1000
0000
0000
0000
0000
0000
0000
;

//---------------dance-single - ----------------
#NOTES:
     dance-single:
     :
     Easy:
     3:
     0.228,0.236,0.092,0.110,0.000:
0000
0000
0000
0000
,
0200
0000
0000
0300
,
0002
0000
0000
0003
,
2000
0000
0000
3000
,
0200
0000
0000
0300
,
0002
0000
0000
0003
,
2000
0000
0000
3000
,
0020
0000
0130
0000
,
2002
0000
0000
0000
,
0000
0000
0000
0000
,
3003
1000
0001
0100
,
0100
0000
0000
0001
,
1000
0100
0100
0000
,
0000
0010
1000
0001
,
0000
0100
0100
0001
,
0001
1000
1000
0001
,
0001
1000
1000
0010
,
0010
0100
0100
0001
,
0000
1000
0000
0001
,
1000
0001
0000
1000
,
1000
0001
0001
0100
,
0100
0100
0100
0100
,
0100
0220
0000
0000
,
0000
0000
0000
0000
,
0000
0000
0000
0000
,
0000
0000
0000
0330
,
0000
0110
0010
1000
,
0001
0000
0100
0001
,
1000
0000
0100
0001
,
1000
0000
0010
1000
,
0001
0000
0100
1000
,
0001
0000
0010
0001
,
0001
0000
0100
1000
,
0001
0000
0000
0000
,
0000
1000
0010
0100
,
0001
1000
0010
0001
,
0100
1000
0100
0001
,
0010
1000
0010
0001
,
0100
0100
1000
0010
,
0010
0001
0100
1000
,
1000
0100
0001
0001
,
0001
2000
0000
0000
,
3000
1100
0100
0100
,
0100
0000
0000
0101
,
0100
0100
0000
0011
,
0010
0010
0000
1100
,
1000
1000
0000
1010
,
0010
0010
0000
0101
,
0001
0001
0000
0110
,
0100
0100
0000
0000
,
0000
0001
1000
0001
,
1000
0001
0100
0001
,
0100
0001
1000
0001
,
1000
0100
1000
0010
,
0100
0010
0100
0010
,
1000
0001
1000
0001
,
1000
0001
0001
1000
,
0001
0100
0000
0000
;

//---------------dance-double - Copied from----------------
#NOTES:
     dance-double:
     Copied from:
     Hard:
     7:
     0.450,0.472,0.330,0.238,0.000: // measure 1
00000000
00000000
00000000
00000000
,  // measure 2
00200000
00001000
00001000
00301000
,  // measure 3
00020000
00000100
00000100
00030100
,  // measure 4
00002000
01000000
01000000
00003000
,  // measure 5
02000000
00001000
00001000
03000000
,  // measure 6
00020000
00000000
00000100
00000000
00000100
00030000
00000000
00000000
,  // measure 7
00002000
00000000
00000001
00000000
00000001
00003000
00000000
00000000
,  // measure 8
00020000
02030000
23000000
30010000
,  // measure 9
10010000
01000000
02000000
00000000
,  // measure 10
00000000
00000000
00000000
03000000
,  // measure 11
10000000
00000000
00101000
00000000
00001000
00010000
01000000
10000000
,  // measure 12
00010000
00000000
00100000
00000000
00001000
00000000
00010000
00001000
,  // measure 13
00000100
00000001
00001000
00000000
00000100
00000000
00000010
00001000
,  // measure 14
00010000
01000000
10000000
00000000
00010000
00000000
00100000
00001000
,  // measure 15
01000000
00000000
01100000
00000000
00011000
00001000
00000100
00000000
,  // measure 16
00011000
00010000
01000000
00000000
00011000
00001000
00000100
00000000
,  // measure 17
00011000
00010000
01000000
00000000
00011000
00001000
00000010
00000000
,  // measure 18
00011000
00010000
00100000
00000000
00011000
00001000
00000010
00000000
,  // measure 19
00011000
00010000
00100000
00000000
01001000
00000000
00011000
00000000
,  // measure 20
00001100
00001001
00000010
00001001
,  // measure 21
00000101
00000000
00001000
00000001
00000100
00000001
00000010
00000100
,  // measure 22
00010000
00001000
00000010
00001000
00010000
01000000
10000000
00010000
,  // measure 23
00100000
02200000
00000000
00000000
,  // measure 24
00000000
00000000
00000000
00000000
,  // measure 25
00000000
00000000
00000000
00000000
,  // measure 26
00000000
00000000
00000000
00000000
,  // measure 27
03300000
00000000
10010000
00000000
00010000
00000000
01000000
00100000
,  // measure 28
10000000
00010000
11000000
00000000
00110000
00000000
00100000
00001000
,  // measure 29
00010000
01000000
00010000
00000000
00011000
00000000
00001000
00000010
,  // measure 30
00000100
00001000
00001100
00000000
00000101
00000000
00000010
00001000
,  // measure 31
00000001
00000100
00000101
00000000
00001010
00000000
00000100
00000010
,  // measure 32
00001000
00010000
00001000
00000000
01000000
00100000
00010000
00001000
,  // measure 33
00010000
01000000
11000000
00000000
00101000
00000000
00010000
01000000
,  // measure 34
00010000
00000010
00010010
00000000
00001100
00000000
00001000
00000000
,  // measure 35
00001000
00000000
00001001
00000000
00000001
00000100
00000001
00000010
,  // measure 36
00000001
00000100
00001000
00000000
00010000
00001000
00010000
01000000
,  // measure 37
10000000
00100000
10000000
00000000
00010000
00100000
01000000
00010000
,  // measure 38
00001000
00100000
01000000
00000000
00010000
00000000
00000010
00001000
,  // measure 39
00000100
00000001
00000100
00000000
00000010
00000000
00000001
00000100
,  // measure 40
00001000
01000000
00100000
00000000
01000000
00001000
00010000
00000010
,  // measure 41
00000100
00001000
00010000
00000000
00100000
00000000
01000000
00001000
,  // measure 42
00100000
01000000
00010000
00000000
01000000
10000000
00010000
00000000
,  // measure 43
00100000
00000000
02100000
00000000
10000000
00000000
00100000
00010000
,  // measure 44
03020000
00000000
00001000
00000000
00030200
00000000
00001000
00000010
,  // measure 45
00000001
00001300
00000002
00000000
00000203
00000000
00000001
00000010
,  // measure 46
00002300
00000000
00010000
00000000
02003000
00000000
00010000
00100000
,  // measure 47
10000000
00000000
03200000
00000000
20300000
00000000
00010000
00100000
,  // measure 48
02000000
30000000
00100000
00000000
03020000
00000000
00001000
00000010
,  // measure 49
00030200
00000000
00001000
00000000
00000320
00000000
00000001
00000100
,  // measure 50
00001000
00000000
00000032
00000000
00000100
00000000
00001003
00000001
,  // measure 51
00000100
00000000
00001001
00000000
00000010
00000100
00001000
00000000
,  // measure 52
00010000
00100000
01000000
00000000
00001000
00010000
01000000
00000000
,  // measure 53
10000000
00100000
10000000
00000000
00001000
00100000
01000000
00000000
,  // measure 54
00010000
00001000
01000000
00000000
00010000
00100000
00001000
00010000
,  // measure 55
00000010
00000100
00000001
00000000
00000001
00000000
00001000
00000100
,  // measure 56
00000010
00001000
00010000
00000000
01001000
00000000
00010000
00001000
,  // measure 57
00010000
01000000
01000000
00000000
01001000
00000000
00010000
00001000
,  // measure 58
00010000
01000000
01001000
00000000
00000000
00000000
00000000
00000000
;
