#TITLE:PHANTOM OF THE OPERA;
#SUBTITLE:(Technical trance remix);
#ARTIST:Kosenko;
#TITLETRANSLIT:;
#SUBTITLETRANSLIT:;
#ARTISTTRANSLIT:;
#CREDIT:;
#BANNER:;
#BACKGROUND:;
#LYRICSPATH:;
#CDTITLE:cdtitle.png;
#MUSIC:01-angels-the_phantom_of_the_opera-usf.ogg;
#OFFSET:-0.109;
#SAMPLESTART:28.140;
#SAMPLELENGTH:11.900;
#SELECTABLE:NO;
#BPMS:0.000=143.000;
#STOPS:;
#BGCHANGES:;

//---------------dance-single - ----------------
#NOTES:
     dance-single:
     :
     Hard:
     9:
     0.577,0.614,0.199,0.143,0.370:
0000
0000
0000
0000
,
0000
0000
0000
0000
,
0000
0000
0000
0000
,
0000
0000
0000
0000
,
0000
0000
0000
0000
,
1001
0001
0200
0001
,
0001
0000
0301
0000
1000
0001
0010
0100
,
0100
1001
0100
2001
,
0010
0000
0000
0000
0000
0000
0000
0000
3000
0000
0000
0000
0100
0001
0100
0010
,
0100
0201
0310
0102
,
0013
0000
0101
0000
0001
0010
0100
1000
,
2000
3001
2000
3001
,
1001
0110
0000
0000
1000
0100
0010
0001
,
0001
0210
0301
0102
,
1003
0000
1100
0000
0001
0010
0100
1000
,
0001
0021
1030
0012
,
0000
0000
0000
0000
0013
0000
0000
0000
0000
0000
0000
0000
0100
0001
1000
0100
,
0010
0000
0100
0000
1000
0001
0010
0000
,
0100
1000
0001
0000
0100
0100
0010
0010
,
0100
2001
3100
0001
,
1010
0101
0000
0000
0010
0010
1000
0001
,
0020
0100
0000
1030
,
0001
0000
1001
0000
0010
0100
0001
0000
,
0010
0000
0100
0000
1000
0000
0001
1000
0001
0000
0100
0000
0010
0000
0100
0010
,
0100
0002
2003
0000
,
3100
0000
0000
0010
0100
0000
1000
0000
0001
0000
0000
0100
0001
0000
1000
0000
,
0010
0000
1000
0000
0001
0000
0100
0000
0001
0000
0000
0010
0001
0000
0100
0000
,
0001
0010
0100
1000
0010
1000
0001
0001
,
1000
0000
1000
0000
0010
0000
0100
0000
0010
0000
0000
0100
0001
0000
1000
0000
,
0010
0000
0000
1000
0001
0000
0100
0000
0001
0000
0010
0000
0100
0000
0000
0000
,
1000
0000
0000
0100
1000
0000
0100
0000
0001
0000
0000
0100
1000
0000
0100
0000
,
0001
0000
0000
0100
1000
0000
0100
0000
0001
0000
0001
0000
0010
0000
0100
0000
,
1000
0000
0001
0000
1010
0000
0010
0100
,
0101
0000
0001
0100
0010
0001
0010
1000
,
0100
0010
1000
0010
0001
0000
0100
0010
,
0001
0010
1000
0010
0010
0000
0100
0001
,
1000
0100
0010
0000
0010
0100
1000
0000
,
1001
0001
0100
0010
0010
0000
0001
0000
,
1000
0000
0100
1000
0001
0010
0100
1000
,
0001
0010
0100
1000
0001
0010
0100
1000
,
0001
0000
0000
0000
2000
0000
0000
0000
0001
0000
0000
0001
0000
0000
3001
0000
,
1000
1001
1001
1001
,
0001
0000
0100
0000
0010
0000
0100
0000
0001
0000
0000
0010
0000
0000
0100
0000
,
0100
0000
0000
0100
0000
0000
0100
0000
1000
0000
0000
0001
0000
0000
0001
0000
,
1000
0000
0010
0000
1000
0000
0100
0000
1000
0000
0000
1000
0000
0000
0001
0000
,
0001
0000
0000
1000
0000
0000
1000
0000
1000
0000
0000
0001
0000
0000
0100
0000
,
0010
0000
0100
0000
0001
0000
1000
0000
0010
0000
0000
0010
0000
0000
1000
0000
,
0100
1000
0000
0001
0000
0000
0001
0000
0100
0000
0000
0010
0000
0000
0010
0000
,
1000
0000
0001
0000
0010
0000
0001
0000
1000
0000
0000
0100
0000
0000
0100
0000
,
1000
0001
0000
0001
0000
0000
0100
0000
0010
1000
0000
0100
0000
0000
0100
0000
,
1000
0100
0000
0010
0000
0000
0010
0000
0100
0000
1000
0000
0001
0000
0100
0000
,
0010
0100
0000
0001
0000
0001
1000
0000
0010
0000
0000
0010
0000
0100
0010
0000
,
1000
0000
0000
0001
0000
0010
0100
0000
1000
0000
0100
0000
0100
0000
1000
0000
,
0001
0010
0100
1000
0001
1000
0100
0010
,
0001
0000
1000
0001
1000
0000
0001
0000
0010
0000
0100
0000
0010
0000
0001
0000
,
2000
0000
0000
0000
0000
0000
0000
0000
0000
0000
0000
0000
0000
0000
0000
0000
0000
0000
0000
0000
0000
0000
0000
0000
0000
0000
0000
0000
0000
0000
0000
0000
0000
0000
0000
0000
0001
0000
0000
0000
0000
0000
0000
0000
0000
0000
0000
0000
0000
0000
0000
0000
0000
0000
0000
0000
0000
0000
0000
0000
0000
0000
0000
0000
0000
0000
0000
0000
0000
0000
0000
0000
0001
0000
0000
0000
0000
0000
0000
0000
0000
0000
0000
0000
0000
0000
0000
0000
0000
0000
0000
0000
0000
0000
0000
0000
0001
0000
0000
0000
0000
0000
0000
0000
0000
0000
0000
0000
0000
0000
0000
0000
0000
0000
0000
0000
0000
0000
0000
0000
0000
0000
0000
0000
0000
0000
0000
0000
0000
0000
0000
0000
0001
0000
0000
0000
0000
0000
0000
0000
0000
0000
0000
0000
0000
0000
0000
0000
0000
0000
0000
0000
0000
0000
0000
0000
0000
0000
0000
0000
0000
0000
0000
0000
0000
0000
0000
0000
0001
3000
0000
0000
0000
0000
0000
0000
0000
0000
0000
0000
0000
0000
0000
0000
0000
0000
0000
0000
0000
0000
0000
0000
,
0000
0000
0100
0100
1000
0001
0100
0010
,
0110
0000
0000
0001
0010
0000
0100
0000
1000
0010
0000
0001
1000
0000
0001
0000
,
0100
0000
0010
0000
1000
0000
0100
0000
1000
0000
0000
0001
0000
0000
0100
0000
,
0010
0100
0000
0001
0000
0000
1000
0000
0010
1000
0000
0001
0000
0000
0010
0000
,
0001
0010
0000
0000
0001
0000
0100
0000
0001
0000
0000
0010
0000
0000
0001
0000
,
0100
0001
0000
0010
0100
0000
1000
0000
0100
0000
1000
0000
0001
0000
0100
0000
,
0010
0000
0010
0000
1000
0000
0001
0000
0100
0000
0000
0100
0000
0000
0010
0000
,
1000
0000
0000
0001
0000
0000
0010
0000
0100
0000
0000
0100
0000
0000
1000
0000
,
0001
0000
0010
0000
0100
0000
0010
0000
0001
0000
0000
1000
0000
0000
0010
0000
,
0100
0001
0000
0001
0000
0010
0100
0000
0100
1000
0000
0010
0000
0010
0100
0000
,
0001
1000
0000
0010
0000
0010
0100
0000
0001
0010
0000
0100
0000
0100
0010
0000
,
0001
1000
0000
0100
0000
0001
0100
0000
0001
1000
0000
0010
0000
1000
0010
0000
,
0010
0001
0000
0000
0100
1000
0001
0000
0100
0010
0000
1000
0000
0001
0010
0000
,
0100
1000
0000
0010
0000
0100
0001
0000
1000
0100
0000
0010
0100
0000
1000
0000
,
0010
0100
0001
0010
0100
1000
0001
1000
,
0100
0100
1000
1000
,
0001
1000
0001
1000
0001
0100
0010
0100
0010
0100
1000
0100
0010
0100
0001
0000
,
2002
0000
3003
0000
;

//---------------dance-single - ----------------
#NOTES:
     dance-single:
     :
     Medium:
     5:
     0.382,0.435,0.103,0.286,0.000:
0000
0000
0000
0000
,
0000
0000
0000
0000
,
0000
0000
0000
0000
,
0000
0000
0000
0000
,
2000
0000
0000
0000
0000
0000
0000
3000
,
1000
0001
1000
0001
,
1000
0000
1000
0000
0001
0010
0100
1000
,
2000
0001
0000
0001
,
0000
0000
3001
0000
0000
0000
0001
1000
,
0200
0010
0000
1300
,
0000
0000
0100
0000
0001
0010
0100
1000
,
0002
1000
0000
1003
,
1000
0001
0000
0000
0100
0010
1000
0001
,
0200
0010
0000
0010
,
0000
0000
0310
0000
0100
0001
0010
0001
,
2000
0000
0100
0000
0000
0000
0100
3000
,
0000
0000
0001
0000
0000
0000
1000
0100
,
0020
0100
0000
0100
,
0000
0000
0100
0030
0001
0010
0100
2000
,
0001
0000
0001
0000
0000
0000
0001
3000
,
0001
1000
0000
0000
0010
0100
0010
1000
,
0002
0100
0000
0100
,
0000
0100
0000
0100
,
0000
0100
0000
0103
,
0001
0000
0000
0000
,
1000
0000
0001
0000
0010
0000
0100
1000
,
0002
0000
0010
0003
2000
0000
3100
0001
,
1000
0000
0010
0100
0010
0100
0001
1000
,
0001
0010
0100
1000
,
0001
0100
0020
0000
,
0030
0100
0001
2000
,
0100
0000
0100
0100
0100
0100
0100
0100
,
0100
3000
0001
0000
0100
0000
0010
0000
,
1002
0000
1003
0100
,
0000
0001
1000
0010
,
2100
0100
3001
0000
,
0100
0001
1000
0000
,
0010
1000
0001
0000
0001
0000
0000
0000
,
0100
0001
0010
0100
1000
0001
1000
0100
,
0010
0001
0010
0001
,
0002
0000
0000
0003
,
1002
1000
1000
1003
,
2001
0001
0001
3001
,
0120
0100
0100
0130
,
0102
0100
0100
0103
,
2100
0000
0100
0000
0100
0000
0100
3000
,
1002
0100
0100
0103
,
2001
0100
0100
0100
,
3100
0000
1000
0001
1000
0000
0001
0000
,
0020
0000
0100
0000
0001
0000
0001
0030
,
0002
0000
0100
0000
0100
0003
2000
0000
,
0010
0010
3002
0010
,
0013
0100
1000
0001
,
1000
0001
0010
0000
0001
0100
0001
0000
,
1000
0001
0010
0100
1000
0001
1000
0100
,
0020
0100
0100
0130
,
0000
0000
0000
0000
,
1001
0001
0100
1000
,
0010
0000
1000
0001
0100
0000
0010
0000
,
0001
0010
0100
1000
,
0001
0100
0010
1000
0001
0000
0100
0000
,
2000
0000
0100
3000
0001
0000
0100
0000
,
0001
0100
0001
1000
0001
0000
0002
0000
,
0100
2003
0100
3001
,
0100
0000
0010
0100
0010
0000
1000
0000
,
1002
0010
0103
0001
,
2001
0010
3100
1002
,
0100
2003
0100
3002
,
0100
0003
1000
0000
0001
0000
1000
0000
,
0010
1000
0001
0000
0100
0000
0001
0000
,
0001
0010
0100
1000
0001
0010
0100
1000
,
0001
0010
0100
1000
,
1000
0100
0010
0001
1000
0100
0010
0001
,
1000
0000
0000
0000
;

//---------------dance-single - ----------------
#NOTES:
     dance-single:
     :
     Easy:
     3:
     0.281,0.406,0.151,0.223,0.000:
0000
0000
0000
0000
,
0000
0000
0000
0000
,
0000
0000
0000
0000
,
0000
0000
0000
0000
,
0020
0000
0000
0030
,
0200
0000
0000
0000
,
0000
0300
0100
0002
,
0010
0000
0010
0003
,
0000
0000
0000
0001
,
2000
0000
0000
0000
,
3000
0000
1000
0001
,
0020
0000
0000
0030
,
0100
0000
1000
0001
,
0200
0000
0000
0000
,
0000
0300
0010
1000
,
0002
0000
0000
0003
,
0000
0000
0000
0001
,
2000
0000
0000
0000
,
0000
3000
0001
0010
,
0200
0000
0000
0300
,
0010
0000
1000
0001
,
0200
0010
0000
0010
,
0000
0010
0000
0010
,
0000
0010
0000
0310
,
0010
0000
0000
0000
,
1000
0001
0001
0000
,
0100
1000
0100
0001
,
0010
1000
0010
0001
,
0100
1000
0001
0010
,
0200
0000
1300
0000
,
1000
0001
0100
0010
,
1000
0002
0100
0100
,
0103
0000
0001
1000
,
2002
3000
0100
0003
,
1000
0010
1000
0001
,
0020
0100
0100
0130
,
1000
0001
0100
0000
,
1000
0000
0001
0000
,
1000
0010
0100
0001
,
1000
0010
0100
0001
,
0000
0001
0000
0000
,
2100
0001
0001
3001
,
0102
1000
1000
1003
,
2100
0001
0001
3001
,
0102
1000
1000
1003
,
2100
0001
0001
3001
,
0102
1000
1000
1003
,
0201
0001
0001
0301
,
1200
1000
1000
1300
,
1002
0100
0010
0103
,
2001
0010
0100
3010
,
1002
0100
0010
0103
,
2001
0010
0100
3010
,
0100
0010
0100
0010
,
1000
0001
0010
0100
,
2000
0000
0000
3000
,
0000
0000
0000
0000
,
1100
0001
0100
1000
,
0100
0001
1000
0010
,
0001
0100
0010
0001
,
1000
0010
0100
1000
,
1000
0001
0100
0010
,
0001
0010
1000
0100
,
1000
0001
0100
0100
,
0000
0001
1000
0000
,
1001
0000
0110
0000
,
0101
0000
1100
0000
,
0001
1000
1000
1000
,
0001
0100
0001
0000
,
0001
0001
0001
0000
,
0001
1000
0010
0100
,
0001
0010
0100
1000
,
0001
0010
0001
1000
,
0110
0000
0000
0000
;

//---------------dance-double - Copied from----------------
#NOTES:
     dance-double:
     Copied from:
     Hard:
     9:
     0.552,0.584,0.151,0.087,0.346:
00000000
00000000
00000000
00000000
,
00000000
00000000
00000000
00000000
,
00000000
00000000
00000000
00000000
,
00000000
00000000
00000000
00000000
,
00002000
00010000
00010000
00013000
,
00002000
00010000
00010000
00023000
,
00001000
00000000
00001000
00000000
00031000
00010000
01000000
10000000
,
02000000
00001000
00000000
00001000
,
00000000
00000000
00000000
00000000
03001000
00000000
00000000
00000000
00000000
00000000
00000000
00000000
00010000
00001000
00010000
00001000
,
00000100
00000001
00000000
00000200
,
00000001
00000000
00001300
00000000
00000001
00000100
00001000
00010000
,
01000000
10000000
00000000
00010000
,
00110000
11000000
00000000
00000000
00100000
01000000
00010000
00001000
,
00000200
00000010
00000000
00000010
,
00000000
00000000
00000310
00000000
00000100
00000001
00001000
00000100
,
00000010
00011000
01000000
20010000
,
00000000
00000000
00000000
00000000
30100000
00000000
00000000
00000000
00000000
00000000
00000000
00000000
10000000
01000000
10000000
01000000
,
00100000
00210000
00300000
00120000
,
10030000
00000000
00010000
00000000
00001000
00010000
01000000
10000000
,
00010000
00000000
00100000
00000000
00001000
00010000
01000000
00000000
,
00011000
01001000
00000000
00000000
00010000
00001000
00000100
00000001
,
00000010
00000101
00000010
00000101
,
00000010
00000101
00001000
00001001
,
00000100
00000000
00000000
00000000
00000001
00000000
00000000
00000000
00001000
00000000
00000001
00001000
00000001
00000000
00000000
00000000
,
00000010
00000100
00001000
00000000
,
00000101
00000000
00000000
00000100
00000001
00000000
00000010
00000000
00000100
00000000
00000000
00010000
00001000
00000000
00000100
00000000
,
00001000
00000000
00000000
00010000
01000000
00000000
00010000
00000000
01000000
00000000
00000000
10000000
00010000
00000000
00100000
00000000
,
01000000
00000000
00000000
00010000
00001000
00000000
00000010
00000000
00000001
00000000
00001000
00000000
00000100
00000000
00000001
00000000
,
00000100
00000000
00000010
00000000
00000001
00000000
00001000
00000000
00000001
00000000
00000000
00000010
00000001
00000000
00000100
00000000
,
00000010
00000000
00000000
00000100
00001000
00000000
00010000
00000000
00001000
00000000
00000000
00000100
00000001
00000000
00001000
00000000
,
00000100
00000000
00000000
00000010
00001000
00000000
00010000
00000000
00001000
00000000
00010000
00000000
01000000
00000000
10000000
00000000
,
00010000
00100000
00001000
00010000
01000000
10000000
01000000
00010000
,
00001000
00000000
00010000
01000000
10000000
00100000
01000000
00010000
,
00100000
00000000
00001000
00010000
01000000
00000000
00100000
00001000
,
00010000
00100000
00010000
00001000
00100000
01000000
00100000
00001000
,
00010000
00100000
00010000
00001000
00010000
00001000
00010000
00000000
,
00001000
00000100
00000001
00000001
,
00001000
00000000
00000001
00000000
00001000
00000001
00001000
00000000
,
00001000
00000001
00000010
00000100
00001000
00010000
01000000
00100000
,
10000000
00000000
00010000
00000000
10000000
00000000
01000000
00000000
00100000
00010000
00100000
00010000
00100000
00010000
00100000
00000000
,
00010000
00000000
00000000
00000000
,
10010000
01010000
10010000
10100000
,
00100000
00000000
10000000
00000000
00010000
00000000
01000000
00000000
00100000
00000000
00000000
00100000
00000000
00000000
10000000
00000000
,
01000000
00000000
00000000
00100000
00000000
00000000
00001000
00000000
00010000
00000000
00000000
00001000
00000000
00000000
00000100
00000000
,
00000001
00000000
00001000
00000000
00000010
00000000
00000100
00000000
00000001
00000000
00000000
00000010
00000000
00000000
00001000
00000000
,
00010000
00000000
00000000
00001000
00000000
00000000
00010000
00000000
01000000
00000000
00000000
10000000
00000000
00000000
01000000
00000000
,
00100000
00000000
00001000
00000000
00010000
00000000
00001000
00000000
00000100
00000000
00000000
00000001
00000000
00000000
00000001
00000000
,
00000100
00000000
00000000
00000010
00000000
00000000
00000010
00000000
00001000
00000000
00000000
00000100
00000000
00000000
00010000
00000000
,
00001000
00000000
00010000
00000000
00000010
00000000
00000100
00000000
00000001
00000000
00000000
00001000
00000000
00000000
00000001
00000000
,
00000010
00000001
00000000
00000001
00000000
00001000
00000100
00000000
00001000
00000010
00000000
00001000
00000000
00000100
00010000
00000000
,
00001000
01000000
00000000
00010000
00000000
00100000
00001000
00000000
00010000
00000000
00010000
00000000
00010000
00000000
00010000
00000000
,
00001000
00010000
00000000
00001000
00000000
01000000
00010000
00000000
10000000
00000000
00000000
00100000
00000000
00000000
10000000
00000000
,
00010000
00000000
00000000
00100000
00000000
00000000
01000000
00000000
00100000
00000000
00001000
00000000
00010000
00000000
01000000
00000000
,
10000000
00000000
00010000
00000000
10000000
00000000
00010000
00100000
00010000
00000000
01000000
00000000
00010000
00000000
10000000
00010000
,
10000000
00100000
01000000
00010000
10000000
01000000
00010000
00001000
,
00000100
00000000
00000000
00000001
00000000
00000000
00000001
00000000
00000001
00000000
00000000
00000001
00000000
00000000
00000001
00000000
,
00000000
00001000
00000001
00000010
00000100
00000000
00000010
00000001
,
00001001
00000000
00000000
00000100
00000001
00000000
00000001
00000000
00000010
00000100
00000000
00000010
00000100
00000000
00010000
00000000
,
00001000
00000000
01000000
00000000
00100000
00000000
01000000
00000000
00001000
00000000
00000000
00010000
00000000
00000000
01000000
00000000
,
10000000
00100000
00000000
10000000
00010000
00000000
00100000
00000000
01000000
00000000
00010000
00000000
00001000
00000000
01000000
00000000
,
00010000
00000000
00001000
00000000
00000010
00000000
00000100
00000000
00000001
00000000
00000000
00001000
00000000
00000000
00000100
00000000
,
00000010
00000001
00000000
00000100
00000000
00000001
00001000
00000000
00000001
00000000
00000000
00000100
00000000
00000000
00000001
00000000
,
00000010
00000000
00000100
00000000
00010000
00000000
00001000
00000000
00000100
00000000
00000000
00001000
00000000
00000000
00010000
00000000
,
00100000
01000000
00000000
00001000
00000000
00010000
01000000
00000000
00010000
00000000
00000000
00001000
00000000
00000000
00000010
00000000
,
00000100
00000000
00001000
00000000
00000001
00000000
00000010
00000000
00000100
00000000
00000000
00001000
00000000
00000001
00000000
00000000
,
00000100
00000010
00000000
00000100
00000000
00000001
00000010
00000000
00000100
00001000
00000000
00000010
00000000
00010000
00001000
00000000
,
01000000
00100000
00000000
01000000
00000000
00001000
00010000
00000000
01000000
00000000
10000000
00000000
00100000
00000000
00010000
00000000
,
00001000
00000010
00000000
00000100
00000000
00001000
00000100
00000000
00000001
00000100
00000000
00000010
00000000
00000001
00001000
00000000
,
00000100
00000000
00000000
00000010
00000000
00000000
00000001
00000000
00000100
00000000
00000000
00000010
00000000
00000000
00000100
00000000
,
00001000
00010000
00100000
01000000
00001000
00010000
01000000
00000000
,
10000000
01000000
00100000
00010000
00001000
00000100
00000010
00000001
,
00001000
00000100
00001000
00000001
00000100
00000001
00001000
00000000
,
00000001
00001000
00000001
00001000
00000001
00000010
00000001
00000010
00000100
00000010
00000100
00001000
00000001
00001000
00000001
00000000
,
00002002
00000000
00003003
00000000
;
