#TITLE:ONLY TIME WE TELL;
#SUBTITLE:;
#ARTIST:INTERFACE;
#TITLETRANSLIT:;
#SUBTITLETRANSLIT:;
#ARTISTTRANSLIT:;
#CREDIT:;
#BANNER:onlytimewetell-bn.png;
#BACKGROUND:onlytimewetell-bg.png;
#LYRICSPATH:;
#CDTITLE:cdtitle.png;
#MUSIC:INTERFACE - ONLY TIME WE TELL.mp3;
#OFFSET:-0.029;
#SAMPLESTART:15.800;
#SAMPLELENGTH:11.900;
#SELECTABLE:NO;
#BPMS:0.000=140.000;
#STOPS:;
#BGCHANGES:;

//---------------dance-single - ----------------
#NOTES:
     dance-single:
     :
     Hard:
     8:
     0.529,0.528,0.146,0.117,0.112:
0000
0000
0000
0000
,
0000
0000
0000
0000
,
0000
0000
0000
0000
,
0000
0000
0000
0000
,
1000
0000
0001
0000
0010
0000
0001
0000
0100
0000
0001
0000
1000
0001
1000
0000
,
0001
0000
0100
0000
0010
0000
0000
0000
1000
0000
0000
0000
0001
0100
0001
0000
,
1000
0000
0010
0000
1000
0000
0000
0000
0100
0000
1000
0000
0001
1000
0001
0000
,
0100
0000
0001
0000
1000
0000
0100
1000
0100
0000
0000
0000
0010
0000
0001
0000
,
1001
0000
0100
0001
1001
0000
0010
0110
,
0000
0000
1000
0001
0100
0010
1000
0001
,
0020
0000
0000
0030
0200
0000
1000
0000
1000
0000
0300
0000
0002
0000
0010
0000
,
0003
0000
0100
0001
1000
0010
1000
0001
,
0002
0000
0000
0000
0100
0000
0100
0000
0100
0003
0000
0000
2000
0000
0010
0000
,
0000
0000
0010
3000
0000
0000
0001
0000
0100
0000
0000
0000
0001
0000
1000
0000
,
0000
0100
0000
0000
0010
0000
0001
0000
1000
0000
0000
0000
0001
0000
1001
0000
,
0000
0000
0100
0000
0010
0100
0001
0000
,
1002
0010
2003
0100
,
3001
0000
0010
0001
1000
0100
1000
0000
,
0010
1000
0100
1000
0010
0100
0001
0000
,
0100
0001
0100
0001
0000
0000
1000
0001
1000
0000
0100
0000
1000
0000
0001
0000
,
1001
0000
0100
0010
0010
0000
1000
0001
,
0000
0000
0010
0100
1000
0100
0001
0100
,
1000
0000
0001
0010
0100
0000
0100
0010
,
0000
0000
0001
0010
1000
0010
0001
0100
,
0101
0000
0001
1000
0010
0000
1000
0001
,
0000
0000
0100
0001
1000
0001
1000
0010
,
1000
0001
0100
0001
0101
0000
0001
1000
,
0000
0010
0010
1000
0001
0100
0001
1000
,
1100
0000
0000
0000
0100
0000
0010
0000
0000
0000
0010
0000
0000
0001
0000
0000
,
0000
0100
0000
0000
0000
0000
0000
0000
0001
0000
0100
0000
0001
0000
0000
0000
,
2000
0000
0000
3000
0010
0000
0100
0000
0000
0000
0002
0000
0000
0000
1000
0000
,
0000
0013
2000
0000
0100
3001
0000
0000
,
1001
0000
0010
0001
0100
1000
0100
0001
,
1000
0100
0010
0001
1000
0010
0100
0001
,
1001
0000
0010
0000
0100
0001
1000
0010
,
0100
0000
0000
0100
0000
0000
0100
0000
0001
0000
0000
0001
0000
0000
0001
0000
,
0010
0100
1000
0001
1000
0010
1000
0001
,
0100
0001
1000
0100
0001
0010
1000
0200
,
0000
0000
0000
0010
0000
0001
0000
1300
,
0000
1100
0000
0002
0000
0000
0013
0000
,
0100
0000
1000
0000
0001
0000
0000
0000
0100
0010
0100
0000
0001
0000
0000
0000
,
1001
0000
0000
0000
0001
0000
0010
0000
0001
0000
0100
0000
0001
1000
0001
0000
,
1000
0010
0100
0000
0001
0000
1000
0000
0100
0000
0010
0000
0100
0000
1000
0000
,
0010
1000
0010
0000
0100
0000
0001
0000
1000
0000
0100
0000
0010
0000
0001
0000
,
1000
0000
0010
1000
0010
0000
0100
0000
0001
0000
1000
0000
0001
0000
1000
0000
,
1001
0000
0100
0100
0001
1000
0100
1000
,
0001
0100
0001
0000
1000
0000
0001
0000
0010
0000
0100
0000
0010
0000
0001
0000
,
1000
0001
1000
0000
0100
0000
0010
0000
0100
0000
1000
0000
0010
0000
0100
0000
,
0001
0000
0100
0000
1000
0000
0100
0001
0100
0000
0001
0000
1000
0000
0010
0000
,
0010
1000
0000
0000
0010
0000
0100
0000
0001
0000
0000
0000
0100
0000
0001
0000
,
0000
1000
0100
0000
0010
0100
1000
0001
,
0010
0000
0001
0010
0000
0001
0100
0001
,
1000
0000
0010
1000
0000
0100
1000
0100
,
1000
0000
0010
0100
0001
0000
0010
0001
,
0010
1000
0010
0000
0001
0000
1000
0100
,
0001
0000
0100
0000
1000
0000
0001
0000
0010
0000
0001
0010
0001
0000
0010
0000
,
0100
0000
1000
0000
0100
0000
1000
0100
1000
0000
0001
0000
0010
0000
0100
0000
,
1001
0000
0000
0000
;

//---------------dance-single - ----------------
#NOTES:
     dance-single:
     :
     Medium:
     6:
     0.372,0.389,0.088,0.224,0.000:
0000
0000
0000
0000
,
0000
0000
0000
0000
,
0000
0000
0000
0000
,
0000
0000
0000
0000
,
1000
0000
0001
0100
,
0010
1000
0001
0000
0100
0000
0001
1000
,
0001
1000
0001
0000
0010
0000
0100
0010
,
0100
0010
0100
0000
0010
0000
0001
0000
,
0102
1000
0010
2003
,
0100
0000
3000
0000
1000
0000
0001
0010
,
0100
0000
1000
0001
0001
0000
0100
1000
,
0000
0000
0010
0000
0100
0000
0001
1000
,
0001
0000
0010
0100
0010
0000
0001
0010
,
0000
0000
0000
0000
0001
0000
1000
0100
,
1000
0000
0001
0000
1000
0000
0010
0101
,
0000
0000
0001
1000
,
0200
0320
0032
0200
,
0000
0000
0303
0000
0001
1000
0200
0000
,
0310
0000
0100
0010
0000
0200
0000
2300
,
0000
3000
0002
0003
0200
0000
0320
0000
,
1030
0000
0001
0100
0001
0000
1000
0020
,
0000
0000
0130
0000
0001
0000
1000
0100
,
1000
0000
0001
1000
1000
0000
0010
0100
,
0000
0000
0001
0000
0100
0000
0010
1000
,
0001
0000
0010
0001
0010
0000
0001
0100
,
0000
0000
0001
0000
1000
0000
0100
1000
,
0000
0001
0000
0100
0010
0000
1000
1001
,
0000
0000
0001
0100
,
1000
0000
0100
0010
0001
0000
1000
0000
,
1000
0000
1000
0000
0001
0010
0100
0000
,
0001
0000
0001
0000
0001
0000
0100
0010
,
0000
0100
0000
0010
0000
1000
1001
0000
,
0001
0000
0100
0000
0001
1000
0100
0000
,
0010
0000
1000
0000
0001
0100
0010
0000
,
0001
0000
1000
0100
0010
0000
1000
0000
,
0100
1000
0001
0000
1000
0000
0001
0000
,
1001
0000
0000
0000
0100
0000
0001
1000
,
0010
0200
0302
2003
,
0100
3000
0000
0000
0000
0000
1000
0000
,
0001
0010
0100
0000
,
2002
0000
3000
0000
0200
0000
0000
0303
,
0001
0000
0100
0000
0010
0000
1000
0001
,
0100
0000
0010
0000
0010
0000
1000
0001
,
0010
0000
0100
0000
0100
0000
1000
0001
,
0010
1000
0001
0000
1000
0100
1000
0000
,
0001
0000
0100
0000
0001
1000
0001
0000
,
1000
0000
0010
0000
1000
0001
1000
0000
,
0001
0000
0100
0000
0001
1000
0001
0000
,
0010
0100
0010
0000
,
0012
0000
0000
1000
2003
0000
0100
0100
,
3000
0000
1000
0000
0001
0000
0100
0010
,
0100
0000
0002
0000
1003
0001
0010
0000
,
0001
0100
0010
0000
,
0102
0000
0000
0100
0100
0000
1000
0003
,
1000
0000
0001
0000
0010
0000
0100
1000
,
0001
0000
0010
0000
1000
0000
1000
0100
,
0001
1000
0010
0100
,
1001
0000
0000
0000
;

//---------------dance-single - ----------------
#NOTES:
     dance-single:
     :
     Easy:
     2:
     0.240,0.278,0.059,0.127,0.000:
0000
0000
0000
0000
,
0000
0000
0000
0000
,
0000
0000
0000
0000
,
0000
0000
0000
0000
,
0200
0000
0300
0001
,
0000
1000
0000
0001
,
0000
0010
0000
0001
,
0000
0100
0000
0000
,
0001
0001
0001
0000
,
1000
0000
0001
0100
,
1000
0000
0010
1000
,
0001
0000
0100
0001
,
1000
0000
0010
0001
,
1000
0000
0100
1000
,
0001
0010
0100
0000
,
0000
0000
1000
0002
,
0100
2003
0010
3002
,
0000
0003
1000
0010
,
0100
0001
1000
1000
,
0002
0000
2000
3003
,
1001
0000
0001
0100
,
1000
0000
0010
1000
,
0001
0000
0100
0001
,
1000
0000
0010
0001
,
1000
0000
0100
0001
,
1000
0000
0010
1000
,
0001
0000
0100
0001
,
1000
0000
0010
0010
,
0100
0100
0001
0001
,
0000
0000
1000
0010
,
0100
0100
1000
0001
,
0100
0000
0001
0000
,
1001
0000
0010
1000
,
0001
0100
0001
1000
,
0002
0003
1000
0001
,
0010
0200
0000
0300
,
1001
0000
1000
0010
,
0100
0100
0001
1000
,
0100
0000
1000
0100
,
0010
0002
0000
0003
,
2000
0000
0002
3003
,
1001
0001
1000
0100
,
1000
0010
0100
0001
,
1000
0100
1000
0010
,
0100
0001
0010
1000
,
1001
0000
1000
0100
,
0001
0010
1000
0010
,
0100
0001
0100
0001
,
1000
0001
1000
0000
,
0002
0000
0100
0000
,
1000
0003
0002
1000
,
0000
0103
0000
1000
,
0000
0001
0000
1000
,
0000
0010
0000
0100
,
0000
1000
0000
1000
,
0000
0001
0000
0001
,
0000
0010
0100
0001
,
1001
0000
0000
0000
;

//---------------dance-double - Copied from----------------
#NOTES:
     dance-double:
     Copied from:
     Hard:
     7:
     0.518,0.500,0.273,0.059,0.010: // measure 1
00000000
00000000
00000000
00000000
,  // measure 2
00000000
00000000
00000000
00000000
,  // measure 3
00000000
00000000
00000000
00000000
,  // measure 4
00000000
00000000
00000000
00000000
,  // measure 5
00001100
00000000
00001000
00000001
00001000
00000001
00000100
00001000
,  // measure 6
00010000
00001000
01000000
00001000
00010000
00000100
00001000
00000001
,  // measure 7
00001000
00000100
00010000
00001000
00100000
00010000
10000000
00010000
,  // measure 8
10000000
01000000
00010000
00001000
01000000
00001000
00010000
00000100
,  // measure 9
00001100
00000000
00001000
00000001
00000020
00000000
00001030
00000010
,  // measure 10
00000000
00000000
00000001
00000100
00001000
00010000
00001000
00010000
,  // measure 11
00000100
00000000
00000010
00001000
00010000
00000000
01000000
00020000
,  // measure 12
00000000
00030000
01000000
00000000
10000000
00010000
00100000
01000000
,  // measure 13
10000000
00000000
01000000
10000000
00020000
00030000
00100000
02000000
,  // measure 14
00000000
03000000
10000000
01000000
00010000
00000000
00001000
00100000
,  // measure 15
00000000
00001000
00010000
00000100
00000110
00000000
00000001
00002000
,  // measure 16
00000000
00000000
00000000
00003000
00000001
00000100
00001000
00000000
,  // measure 17
01001000
00000000
00010000
00000100
00000000
00010000
00002000
00003000
,  // measure 18
00100000
00000000
00010000
01000000
00001000
00010000
00000010
00000000
,  // measure 19
00000101
00000000
00001000
00000010
00000000
00000100
00000000
00001001
,  // measure 20
00000001
00000100
00000001
00001100
00001000
00000001
00000100
00000010
,  // measure 21
00001001
00000000
00000100
00000010
00001000
00000000
00100000
01000000
,  // measure 22
00000000
00000000
10000000
01000000
00010000
00001000
00010000
01000000
,  // measure 23
11000000
00000000
00010000
01000000
01100000
00000000
00010000
10010000
,  // measure 24
00000000
00000000
00100000
01000000
10000000
01000000
00010000
00001000
,  // measure 25
00101000
00000000
00010000
00001000
01001000
00000000
00010000
00000100
,  // measure 26
00000000
00001000
00000000
00000001
00000100
00000001
00001000
00000100
,  // measure 27
00000010
00000000
00000001
00001000
00001001
00000000
00000110
00011000
,  // measure 28
00000000
00000000
01000000
00000000
00100000
01000000
00010000
10000000
,  // measure 29
11000000
00000000
00100000
00001000
00010000
00001000
01000000
00010000
,  // measure 30
00100000
00001000
00010000
00000010
00001000
00000001
00000100
00000001
,  // measure 31
00001000
00000010
00001000
00000100
00010000
00001000
00100000
00010000
,  // measure 32
00100000
01000000
00000000
10000000
00000000
00010000
10010000
00000000
,  // measure 33
10010000
00000000
01000000
00100000
10000000
00010000
00100000
01000000
,  // measure 34
00100000
00001000
00010000
01000000
00100000
00001000
01000000
00000100
,  // measure 35
00010100
00000000
01001000
00000000
00010000
00001000
00100000
00010000
,  // measure 36
10000000
00000000
00000000
10000000
00000000
00000000
10000000
00000000
01000000
00000000
00000000
01000000
00000000
00000000
01000000
00000000
,  // measure 37
00010000
00001000
00000010
00000100
00001000
00000100
00000001
00000100
,  // measure 38
00000010
00000001
00000010
00001000
00010000
00001000
00100000
01000000
,  // measure 39
01100000
00000000
10010000
00000000
00000000
00000000
00100000
00001000
,  // measure 40
00000000
00010000
00000000
01000000
00000000
10000000
00000000
00100000
,  // measure 41
00000000
00010000
00000000
00001000
00000000
00000010
00000000
00000000
,  // measure 42
00001001
00000000
00000010
00000001
00000100
00001000
00010000
00001000
,  // measure 43
00000100
00000001
00001000
00000100
00000010
00000100
00001000
00000001
,  // measure 44
00000100
00001000
00010000
01000000
00100000
00001000
00010000
00001000
,  // measure 45
00100000
01000000
10000000
00010000
00100000
01000000
10000000
00000000
,  // measure 46
11000000
00000000
00100000
00001000
00010000
01000000
00010000
00001000
,  // measure 47
00000010
00000100
00010000
00001000
00000010
00000100
00010000
00001000
,  // measure 48
00000100
00001000
00010000
00100000
00010000
00001000
00000010
00000100
,  // measure 49
00010000
00000001
00001000
00000100
00000010
00000001
00001000
00000010
,  // measure 50
00000110
00000000
00000001
00001000
00000100
00000000
00000010
00000001
,  // measure 51
00000100
00000000
00001000
00010000
01000000
00000000
00100000
00010000
,  // measure 52
10000000
00000000
01000000
00010000
00001000
00000000
00000010
00000100
,  // measure 53
00010000
00000000
00001000
00000100
00000001
00000000
00000100
00000000
,  // measure 54
00011000
00000000
00010000
00100000
01000000
00000000
00010000
00100000
,  // measure 55
10000000
00000000
00100000
00010000
10000000
00000000
10000000
01000000
,  // measure 56
00010000
00000000
00001000
00010000
01000000
00000000
10000000
01000000
,  // measure 57
00100000
01000000
00010000
00001000
00000100
00000010
00000100
00000001
,  // measure 58
00001001
00000000
00000000
00000000
;
