#TITLE:NEW DIVIDE;
#SUBTITLE:;
#ARTIST:LINKIN PARK;
#TITLETRANSLIT:;
#SUBTITLETRANSLIT:;
#ARTISTTRANSLIT:;
#CREDIT:;
#BANNER:newdivide-bN.png;
#BACKGROUND:newdivide-bg.png;
#LYRICSPATH:;
#CDTITLE:cdtitle.png;
#MUSIC:linkin park - new divide (ls system remix).mp3;
#OFFSET:-0.029;
#SAMPLESTART:37.140;
#SAMPLELENGTH:15.400;
#SELECTABLE:YES;
#BPMS:0.000=150.000,31.000=75.000,63.000=150.000;
#STOPS:;
#BGCHANGES:0.000=newdividebg.avi=1.000=0=0=1,
99999=-nosongbg-=1.000=0=0=0 // don't automatically add -songbackground-
;

//---------------dance-single - ----------------
#NOTES:
     dance-single:
     :
     Hard:
     8:
     0.541,0.640,0.386,0.110,0.087:
0000
0000
0000
0000
,
0000
0000
0000
0000
,
0000
0000
0000
0000
,
0000
0000
0000
0000
,
1000
0000
0000
0001
0000
0000
0100
0001
,
1000
0000
0000
0100
0000
0000
0010
0001
,
1000
0000
0100
0000
0010
0000
0001
1000
,
0010
0000
0100
0000
0001
0000
1100
0100
,
0010
0000
0000
0010
0001
0000
0100
0000
1000
0000
0001
1000
0001
0000
0100
0000
,
2000
0000
0000
0100
0100
0100
0100
3000
1001
0000
0000
0000
0010
0001
1000
0000
,
0002
0000
0000
0003
0010
0002
1000
0000
0010
0003
1000
0100
2000
0000
0001
0000
,
0001
3000
0000
0010
0001
0100
2000
0000
0100
0000
3000
0000
0100
0001
1000
0200
,
0020
0000
0330
0000
0010
0001
1000
0100
1000
0000
0001
0010
0000
2000
0000
0000
,
0000
0000
0000
0000
0000
0000
0000
0000
3000
0000
0100
0001
1000
0000
0010
1000
,
0000
0000
0001
0100
0001
0000
1000
0000
0010
0000
1000
0100
0010
0000
0001
0010
,
1000
0000
0001
0010
1000
0000
0000
0100
0010
0000
0001
0000
1001
0000
0001
0000
,
0100
0001
1000
0001
0100
1000
0101
0000
,
1001
0000
1100
0000
0010
0001
1000
0010
,
0100
0001
1000
0000
0001
0010
0000
0001
,
1000
0000
1100
0000
0001
0010
0100
0000
,
1100
0000
0010
0100
1000
0000
0001
0000
,
0010
0000
0100
1000
0010
0100
0001
1000
,
0100
0010
0001
1000
0010
0100
0001
0000
,
1001
0000
0110
0100
1000
0010
0100
0001
,
1000
0010
0100
0001
0010
0100
1000
0001
,
0010
0001
1000
0100
0001
0100
1000
0001
,
0100
1000
1000
0001
0100
1000
1000
0001
,
0100
0001
0010
0100
1000
0000
1000
0100
,
0001
0001
1000
0100
0001
0001
1000
0100
,
0001
0100
1000
0001
0010
0001
1000
0100
,
0010
0100
1000
0010
0100
0001
0100
0000
,
0001
0000
1000
0010
0100
0001
1002
0000
,
0010
0003
1000
0100
0010
0001
1002
0000
,
0100
0003
1010
1000
1001
1000
1100
0010
,
0011
1000
0001
0010
0100
1000
0001
0000
,
0100
0000
1100
0100
0001
0010
0101
0000
,
0010
0010
1010
0001
1000
0001
0100
0000
,
0101
0000
1001
0100
0010
0001
1001
0010
,
0100
1000
1100
0001
0101
0010
0001
0010
,
0100
1000
1001
0000
0011
0001
1000
0100
,
0010
0001
1000
0010
0100
0001
1000
0001
,
1000
0001
2000
0000
0001
0000
3001
0000
,
1000
0100
0010
0001
1000
0010
0100
0000
,
0001
1000
1100
0000
0001
0000
0101
0000
,
1000
0010
0100
0001
0010
0100
1000
0000
,
1100
0000
1001
0000
0010
0001
0100
0000
,
1001
0000
0010
1000
0200
0000
0020
0000
,
0000
0330
0010
0000
0011
0000
1001
0000
,
0010
0001
1000
0100
1000
0001
0011
0000
,
1001
0000
0110
0000
0001
1000
0100
1000
,
0001
0010
0001
1000
0001
1000
0010
0000
,
0100
0001
1100
0000
0101
0000
1100
0000
,
0010
0100
0001
0010
0100
1000
1010
0000
,
0011
0000
1010
0000
0001
0100
0101
0000
,
0001
1000
0000
0000
1000
0200
0000
0000
,
0010
0300
1000
0100
1000
0000
0011
0000
,
1000
0100
0001
0000
1001
0000
0010
0000
,
0001
0100
1000
0000
0100
0000
1001
0000
,
0010
1000
0001
0100
0001
0000
1100
0000
,
0001
0000
0010
0000
0001
0010
0100
1000
,
0001
1000
0100
0001
0100
0010
0001
0010
,
0001
1000
0001
1000
0010
1000
0010
0100
,
1000
0100
1000
0100
0100
1000
0001
1000
,
0100
0010
0001
1000
0100
0010
1100
0000
,
0001
1000
0000
0010
0000
0100
0100
0001
,
0000
0001
0000
1000
0000
0100
0100
0010
,
0000
0010
0000
0001
0000
0001
1000
0010
,
0100
0001
1000
0000
0100
0000
1001
0000
;

//---------------dance-double - Copied from----------------
#NOTES:
     dance-double:
     Copied from:
     Hard:
     8:
     0.552,0.614,0.339,0.016,0.165:
00000000
00000000
00000000
00000000
,
00000000
00000000
00000000
00000000
,
00000000
00000000
00000000
00000000
,
00000000
00000000
00000000
00000000
,
01000000
00000000
00000000
00010000
00000000
00000000
10000000
01000000
,
00100000
00000000
00000000
00011000
00000000
00000000
00000100
00001000
,
00000001
00000000
00000000
00000100
00000000
00000000
00000010
00010000
,
00001000
00000000
00000000
01010000
00000000
00000000
10000000
01000000
,
00010000
00000000
00000000
00001000
00100000
00000000
01000000
00000000
10000000
10000000
10000000
00010000
00000100
00000000
00000001
00000000
,
00001000
00000000
00000000
00000100
00001000
00000100
00000010
00000000
00001001
00000000
00000000
00000000
00000010
00000001
00001000
00000000
,
00000001
00000000
00000000
00001000
00000001
00000000
00000100
00000000
00000001
00001000
00010000
00000000
00100000
00000000
01000000
00000000
,
10000000
00000000
00000000
10000000
00010000
10000000
00010000
00000000
00100000
00000000
00000000
00000000
10000000
00000000
00010000
00000000
,
00001000
00000000
00000000
00000001
00001000
00000000
00010000
00000000
01000000
00000000
00100000
10000000
00000000
00010000
00000000
00000000
,
00000000
00000000
10000000
00000000
00010000
00000000
01000000
00000000
00001000
00000000
00100000
00010000
00100000
00000000
00001000
00010000
,
00000000
00000000
00001000
00010000
10000000
00000000
00000000
00000000
00000000
00000000
10000000
00000000
00010000
00000000
00001000
00000001
,
00000000
00000000
00001000
00010000
00000000
00000000
00000000
10000000
00010000
00000000
00001000
00000000
00001001
00000000
00000000
00000000
,
00000010
00000001
00000100
00001000
00010000
01000000
10000000
00000000
,
10010000
00000000
00110000
00000000
00100000
00001000
00010000
01000000
,
10000000
00010000
10000000
01000000
00100000
00001000
00010000
00000000
,
01001000
00000000
00010000
00001000
00000100
00000001
00001001
00000000
,
00000101
00000000
00001000
00000001
00000010
00000100
00000010
00000001
,
00001000
00000010
00000100
00000001
00000100
00001000
00010000
00001000
,
00010000
00001000
00010000
00001000
00010000
00001000
01000000
00100000
,
01000000
00010000
10000000
01000000
00100000
00001000
01001000
00000000
,
00010000
00000000
00000100
00000000
00001000
00000000
00000001
00000000
00000100
00000000
00000010
00000000
00001000
00000000
00000001
00001000
,
00000001
00000000
00000100
00000001
00000100
00000000
00000001
00001000
00000001
00000000
00001000
00000000
00000100
00000000
00010000
00001000
,
00010000
00000000
00001000
01000000
00001000
00000000
01000000
00010000
01000000
00000000
00010000
00000000
10000000
00000000
01000000
00100000
,
01000000
00000000
10000000
00010000
10000000
00000000
00010000
00100000
00010000
00000000
00100000
00000000
00001000
00000000
00010000
00001000
,
00010000
00000000
00000100
00010000
00000100
00000000
00001000
00000001
00001000
00000000
00000001
00000000
00000100
00000000
00000010
00001000
,
00000010
00000000
00001000
00000001
00001000
00000000
00000001
00000010
00000001
00000000
00000010
00000000
00000100
00000000
00010000
00001000
,
00010000
00000000
00001000
01000000
00001000
00000000
00100000
00001000
00100000
00000000
00010000
00000000
00100000
00000000
00010000
00000000
,
01000000
00100000
10000000
00010000
00100000
01000000
11000000
00000000
,
00101000
00001000
00010000
01000000
00100000
00001000
01001000
00000000
,
00110000
00000000
00011000
00000010
00001000
00000100
00011000
00000010
,
00001000
00000001
00000101
00001000
00000010
00000000
00010100
00000000
,
00011000
00000000
01001000
00001000
00100000
00010000
01010000
00000000
,
00011000
00000000
00001010
00000100
00010000
00001000
00100000
00000000
,
01010000
00000000
00101000
00010000
00000110
00001000
00000010
00010000
,
00101000
00000000
01010000
00001000
00010100
00001000
01010000
00100000
,
00001000
00010000
00000010
00000000
00001100
00000001
00001000
00000001
,
00000100
00000001
00001000
00000100
00010000
00001000
01000000
00010000
,
10000000
00010000
10000000
00000000
11000000
01000000
00100000
00001000
,
00010000
01000000
10000000
00010000
10000000
01000000
00010000
00000000
,
00001000
00000010
00000001
00002002
,
00000000
00003003
00000000
00000000
00000010
00000000
00000000
00000000
00000000
00000000
00001000
00000000
00000001
00000000
00000000
00000000
,
00000010
00000000
00000101
00000000
00001000
00000010
00010000
00000000
,
00101000
00000000
00000000
00000000
00010000
01000000
00010000
00000000
10000000
00000000
00100000
00000000
00010000
00000000
00001000
00000000
,
00010000
00000000
00000000
00000000
01000000
00100000
01000000
00000000
10000000
00000000
00010000
00000000
10000000
00000000
00000000
00000000
,
01100000
00000000
00010000
00000000
00001000
00010000
01000000
00000000
,
11000000
00000000
00101000
00000000
00010000
00001000
00010000
00001000
,
00010000
00001000
00010000
00001000
00010000
00000100
00000010
00000001
,
00001000
00000001
00000100
00001000
00010000
00000100
00001100
00000000
,
00001001
00000000
00000000
00000000
00000010
00000000
00000001
00000000
00000100
00000000
00000000
00000000
00001000
00010000
00000000
00000000
,
00010000
00100000
00000000
00000000
00100000
10000000
00000000
00000000
10000000
00000000
01000000
00000000
00010000
00000000
00000000
00000000
,
00001000
00000000
00010000
00000000
01000000
10000000
00010000
00100000
,
01000000
00000000
10000000
01000000
00010000
00000000
00010000
00001000
,
00100000
01000000
00010000
00001000
00000100
00000000
00001001
00000000
,
00000010
00000001
00001000
00000100
00000010
00000000
00001001
00000000
,
00000010
00000001
00000100
00000000
00001000
00000000
00010000
00000000
,
00001000
00000000
00100000
00000000
00010000
01000000
00010000
01000000
,
00010000
10000000
00100000
10000000
01000000
00100000
00001000
00010000
,
00001000
00000010
00001000
00000010
00001000
00010000
00001000
00010000
,
01000000
00010000
01000000
00010000
01000000
10000000
01000000
00010000
,
00001000
00000100
00000001
00001000
00000100
00000010
00001000
00000010
,
00000000
00001000
00000000
00000010
00000000
00001000
00000010
00001000
,
00000000
00000010
00000000
00001000
00000000
00010000
00001000
00010000
,
00000000
00001000
00000000
00010000
00000000
01000000
10000000
00000000
,
00010000
00000000
00100000
01000000
10000000
00000000
10010000
00000000
;

//---------------dance-single - ----------------
#NOTES:
     dance-single:
     :
     Medium:
     5:
     0.350,0.324,0.150,0.079,0.000:
0000
0000
0000
0000
,
0000
0000
0000
0000
,
0000
0000
0000
0000
,
0000
0000
0000
0000
,
1000
0001
0100
0000
0010
0000
0010
0000
,
1000
0100
0001
0000
0100
0000
0010
0000
,
0001
0010
0100
0000
1000
0000
0001
0000
,
0100
0010
0000
2000
,
0002
3003
0100
0100
0010
0000
1000
1000
,
0001
0001
0001
0100
,
0010
0000
0010
1000
0100
0000
0100
1000
,
0001
0000
0010
0001
1000
0000
0010
0000
,
0010
0001
0001
1000
,
1000
0000
0010
0000
0010
0000
0100
0001
,
1000
0001
1000
0000
0000
0010
1000
0000
,
0100
0000
1000
0000
1000
0010
0110
0000
,
0001
0000
1000
0000
0010
1000
0100
0000
,
0100
0101
0000
0010
,
1000
0000
0001
1000
0100
0000
0020
0000
,
0000
0030
0100
0000
1000
0000
1001
0000
,
0000
0000
0010
0000
0100
0000
0001
1000
,
0100
0000
0010
0000
0001
0000
1000
0010
,
0100
0001
0000
0100
,
0010
1000
0000
1001
,
0001
0000
0100
0010
0100
0000
0010
1000
,
0010
0000
1000
0000
0001
0000
0010
0100
,
0010
0000
0001
0000
1000
0000
0100
0001
,
0100
0000
0010
0000
0001
0000
1000
0100
,
1000
0001
0010
0100
,
1000
0000
0010
0100
0010
0000
0100
0000
,
0001
0010
0001
0200
,
0000
0010
0310
1001
,
0000
0000
0010
1000
0100
0000
0010
0001
,
0100
0000
0010
1000
0001
0000
0100
0001
,
1000
0001
1000
0000
0010
0010
0010
0000
,
0100
0000
0010
0010
0010
0000
0100
0000
,
0001
0000
1000
0100
1000
0000
0001
0000
,
0010
0000
0001
1000
0100
0000
0010
0000
,
0001
1000
0010
0000
0100
0000
0100
0000
,
0100
0000
0010
1000
,
1001
0000
0001
0100
0001
0000
1000
0000
,
0010
0010
1000
1001
,
0010
0001
1000
0000
0100
0020
0000
0000
,
0000
0030
0100
0000
1000
0000
1001
0000
,
0000
0010
0000
0100
,
0101
0101
0000
0010
,
1000
0000
0001
0010
1000
0000
0010
0000
,
0000
0000
0100
0000
1000
0000
0001
0100
,
1000
0001
0000
1010
,
0100
0001
0100
1001
,
1001
0000
0010
0000
1000
0010
0100
0000
,
0000
0010
0100
2002
,
0000
3003
0002
0000
0000
0003
0010
0000
,
0110
0000
0110
0000
0000
0010
0001
0000
,
1000
0100
0000
0000
0010
0001
0000
0000
,
0000
0100
0010
1010
,
0010
0000
0100
0001
0100
0000
0010
0000
,
1000
0000
0001
1000
0100
0000
0010
0000
,
0001
1000
0000
0110
,
0001
0000
1000
0000
0010
0000
0100
0001
,
0100
0000
0001
1000
0001
0000
1000
0010
,
1000
0000
1000
0001
1000
0000
0100
0000
,
0010
0000
0001
0000
1000
0000
0001
0010
,
0100
0000
1000
0000
0001
0000
0010
0100
,
0000
0100
0000
0100
0000
1000
0001
1000
,
0000
0001
0000
0001
0000
0001
1000
0001
,
0000
1000
0000
1000
0000
1000
0001
1000
,
0000
0010
0000
0010
0000
0000
0220
0000
,
0000
0000
0330
0000
;

//---------------dance-single - ----------------
#NOTES:
     dance-single:
     :
     Easy:
     3:
     0.212,0.216,0.047,0.095,0.000:
0000
0000
0000
0000
,
0000
0000
0000
0000
,
0000
0000
0000
0000
,
0000
0000
0000
0000
,
2000
0000
3000
0000
,
0002
0000
0003
0000
,
0200
0000
0300
0000
,
0020
0000
0030
1000
,
0000
0001
1000
0100
,
0010
0000
0000
0002
,
0003
2000
0000
0000
,
3000
0020
0030
0000
,
0100
0000
0001
0000
,
1000
0000
0100
0000
,
0000
0010
0000
0001
,
0000
1000
0010
0110
,
0010
0100
0000
0100
,
0001
1000
0000
0100
,
1000
0001
0010
0010
,
0000
0010
0001
0100
,
0000
0010
0000
0010
,
1000
0100
1000
0001
,
0100
0100
0000
0010
,
1000
0001
0000
0101
,
1000
1000
0100
1000
,
1000
0001
0000
0001
,
0001
0001
0000
0100
,
0100
0100
0000
0010
,
0010
0010
0000
1000
,
0001
1000
0000
0010
,
0100
0010
0000
0010
,
0000
0010
0001
1000
,
0000
0100
1000
0001
,
0000
0010
1000
0001
,
0100
0001
1000
0010
,
0000
0010
0001
1000
,
0000
0100
0100
0100
,
0000
0010
0001
1000
,
0010
1000
0001
0010
,
0000
0000
0001
0001
,
0100
0010
0000
0010
,
1000
1000
0100
0100
,
0000
1000
0001
0100
,
0000
0010
1000
2002
,
0000
3003
0000
1000
,
0010
0010
0000
0100
,
1000
0001
0010
0001
,
0000
0010
0000
0200
,
0000
1300
0000
0001
,
0001
1000
1000
0010
,
1000
0100
0001
1000
,
0000
0010
1000
0200
,
0000
1300
0000
0001
,
0001
0010
0000
1100
,
0000
0101
0000
0110
,
0000
0000
0010
1000
,
0000
0010
0001
0100
,
0000
1000
0001
0010
,
0000
0100
0000
1000
,
1000
1000
0000
0001
,
0001
0001
0000
0010
,
0000
0010
0000
1000
,
0000
0001
0000
0010
,
1000
0001
0000
0100
,
0000
0100
0000
0010
,
0000
0010
0000
0001
,
0000
0001
0000
1000
,
0010
0000
0000
0200
,
0000
0000
0300
0000
;

//---------------dance-single - Copied from ----------------
#NOTES:
     dance-single:
     Copied from:
     Challenge:
     10:
     0.798,0.880,0.575,0.000,0.705: // measure 1
0000
0000
0000
0000
,  // measure 2
0000
0000
0000
0000
,  // measure 3
0000
0000
0000
0000
,  // measure 4
0000
0000
0000
0000
,  // measure 5
1100
0000
0001
1000
0000
0010
0100
0010
,  // measure 6
1001
0000
0100
0110
0100
1000
0001
0010
,  // measure 7
1100
0000
0000
0000
0010
0000
1000
0000
0001
0100
0010
0000
0100
0000
0000
0000
,  // measure 8
0101
0000
0000
0000
0000
0000
0010
0000
0000
0000
0000
0000
1000
0100
0010
0000
,  // measure 9
1001
0000
0001
0001
1100
0000
0101
0000
1100
0000
0010
1000
0100
0000
0010
0000
,  // measure 10
0101
0000
0010
0010
1000
0001
0000
0001
1001
0000
0000
0110
1000
0001
1000
0000
,  // measure 11
0110
0000
0000
0100
1100
0000
0001
0101
0000
0000
0010
1010
0001
1000
0001
0000
,  // measure 12
0100
0010
0000
0010
0100
0001
1001
0010
0100
1000
0001
0001
1000
0100
0010
1100
,  // measure 13
0101
0000
0010
1000
1100
0000
0110
0000
1001
0000
0010
1000
0000
0101
0000
0000
,  // measure 14
0000
1000
0100
1000
0001
0100
0010
0000
0100
0000
0110
0000
1001
0000
0010
1100
,  // measure 15
0000
0000
0010
0100
0001
1000
0100
0000
1100
0011
0100
1000
0010
0000
0100
0101
,  // measure 16
0000
0000
0010
1010
0000
0000
0000
0001
0100
0000
0010
0000
0110
0000
0010
0000
,  // measure 17
1000
0010
0100
0001
1000
0100
1100
0000
,  // measure 18
0110
0000
1001
0010
0100
0001
0010
0100
,  // measure 19
1000
0010
0100
1000
0010
0001
1000
0100
,  // measure 20
0010
1100
1001
0110
,  // measure 21
0010
1000
0001
0100
0010
1000
0001
0010
,  // measure 22
0100
1000
1010
0100
1100
0001
0101
0001
,  // measure 23
0011
0100
0110
0001
1001
0100
0110
0000
,  // measure 24
1001
0000
0000
0000
0110
0000
0000
0000
1001
0000
0000
0000
0010
0000
1000
0010
,  // measure 25
1000
0000
0001
0010
0100
0000
1000
0100
0010
0000
0001
1000
0010
0000
0100
0001
,  // measure 26
0010
0000
0100
1000
0010
0000
0100
0001
1000
0000
0100
0010
0001
0000
1000
0010
,  // measure 27
0100
0000
0001
0100
1000
0000
0100
0010
1000
0000
0100
0010
0100
0000
0001
0100
,  // measure 28
1000
0000
0001
0010
1000
0000
0010
0100
1000
0000
0001
1000
0010
0000
0100
0010
,  // measure 29
1000
0000
0001
0010
0100
0000
0010
0001
1000
0000
0100
0010
0001
0000
1000
0010
,  // measure 30
0100
0000
0001
0100
1000
0000
0100
0010
1000
0000
0001
0010
0100
0000
0010
1000
,  // measure 31
0001
0000
1000
0100
0010
0000
0100
1000
0001
0000
0100
0010
0100
0000
0001
1000
,  // measure 32
0001
0000
0100
0000
0010
0000
0100
0000
0001
1000
0000
0000
1100
0000
0100
1000
,  // measure 33
0100
1000
0001
0100
0010
0100
0010
0100
1000
0100
0010
0100
0010
0100
0001
1000
,  // measure 34
0100
0010
0100
0001
1000
0100
0010
0001
1000
0010
0100
0001
0010
0100
1000
0100
,  // measure 35
1000
0010
1000
0100
0010
0100
0001
1000
0001
0010
0100
0010
0100
0010
0001
1000
,  // measure 36
0001
0100
0010
0100
0001
0100
1000
0010
0100
0010
1000
0001
0100
1000
0100
0010
,  // measure 37
0100
0010
0001
1000
0010
0100
0001
0010
0100
1000
0100
0010
1000
0001
0100
0010
,  // measure 38
0100
0001
1000
0100
1000
0010
0100
0001
1000
0100
0010
0100
0010
0001
1000
0001
,  // measure 39
0100
0010
0100
0001
1000
0100
1000
0010
0100
0001
1000
0100
1000
0100
1000
0100
,  // measure 40
1000
0100
1000
0100
1000
0100
1000
0000
0001
0000
0001
0000
0110
0000
0000
0000
,  // measure 41
0100
1100
0100
0100
0001
0100
0010
1000
,  // measure 42
0010
0000
0100
0001
0100
0000
0010
1000
0010
0000
0001
1000
0100
0000
0100
0010
,  // measure 43
0001
0000
0001
1000
0100
0000
0100
1000
0010
0000
0100
0001
0010
0000
1000
0000
,  // measure 44
0010
0100
0101
0000
0010
0000
1001
0100
,  // measure 45
1000
0000
0010
0000
0100
0000
0001
0100
0001
0000
1000
0100
1000
0000
0010
1000
,  // measure 46
0010
0000
0001
0010
0001
0000
0100
0010
0100
0000
1000
0100
1000
0000
0001
0000
,  // measure 47
0101
0000
0100
0010
0100
0000
0010
1000
0010
0000
1000
0001
1000
0000
0001
0000
,  // measure 48
0100
0010
1000
0100
0010
0100
0110
0100
,  // measure 49
1000
0001
0100
0010
0100
0001
1000
1000
,  // measure 50
1000
1000
1001
0001
1001
0001
0001
0001
,  // measure 51
0001
0001
0001
1000
0001
1000
0110
0000
,  // measure 52
0010
0100
1001
0000
1100
0000
0110
0010
,  // measure 53
0100
0001
1000
0010
1000
0100
1100
0001
,  // measure 54
0101
0000
0010
0000
1001
0000
0000
0000
0010
0000
1001
0000
1001
0000
0000
0100
,  // measure 55
0000
0110
0000
0001
1000
0010
0100
0010
,  // measure 56
0100
0000
0001
0000
1000
0000
0010
0000
1000
0000
0001
0000
0010
0000
0100
1000
,  // measure 57
0010
0000
0100
0001
0010
0000
0100
1000
0010
0000
0100
0001
0010
0000
0100
1000
,  // measure 58
0010
0000
0100
0001
1000
0000
0100
0010
0001
0000
1000
0010
0100
0000
0001
0100
,  // measure 59
0010
0000
0010
1000
0100
0000
0110
0000
0001
0000
0001
0100
0010
0000
0010
1000
,  // measure 60
0100
0000
0100
0010
0001
0000
0001
1000
0010
0000
0100
0000
0010
0000
0100
0001
,  // measure 61
0100
0000
0010
1000
0010
0000
1000
0001
0010
0000
0100
0010
0100
0000
1000
0100
,  // measure 62
1000
0000
0001
1000
0001
0000
0100
0010
0100
0000
0010
1000
0010
0100
0010
0100
,  // measure 63
0001
1000
0001
1000
0100
0010
0100
0010
0001
1000
0001
1000
0100
0010
0001
1000
,  // measure 64
0100
0010
0001
1000
0010
0100
0001
0100
0010
0100
0010
0000
0010
0000
0010
0000
,  // measure 65
0000
1000
0000
0001
0000
0010
1000
0001
,  // measure 66
1000
0100
0000
1001
0000
0001
0100
0010
,  // measure 67
0000
0010
0000
0010
0000
0010
0110
0000
,  // measure 68
1001
1100
1001
1001
;
