#TITLE:My House is your House;
#SUBTITLE:(Alphazone mix);
#ARTIST:CRUSADER;
#TITLETRANSLIT:;
#SUBTITLETRANSLIT:;
#ARTISTTRANSLIT:;
#CREDIT:;
#BANNER:my house is your house-bn.png;
#BACKGROUND:my house is your house-bg.png;
#LYRICSPATH:;
#CDTITLE:cdtitle.png;
#MUSIC:CRUSADER - MY HOUSE IS YOUR HOUSE 2006 (ALPHAZONE MIX).ogg;
#OFFSET:0.091;
#SAMPLESTART:41.820;
#SAMPLELENGTH:15.300;
#SELECTABLE:YES;
#BPMS:0.000=140.000;
#STOPS:;
#BGCHANGES:0.000=myhouse1.avi=1.000=0=0=1,
99999=-nosongbg-=1.000=0=0=0 // don't automatically add -songbackground-
;

//---------------dance-single - ----------------
#NOTES:
     dance-single:
     :
     Challenge:
     9:
     0.643,0.616,0.165,0.017,0.626: // measure 1
0000
0000
0000
0000
,  // measure 2
0000
0000
0000
0000
,  // measure 3
0000
0000
0000
0000
,  // measure 4
0000
0000
0000
0000
,  // measure 5
0000
0000
0100
1100
,  // measure 6
0001
0101
1000
1000
,  // measure 7
0001
0001
0100
0100
,  // measure 8
0010
0010
1000
0001
,  // measure 9
0010
0000
0000
0000
0100
0000
0010
0000
0100
0010
0000
0000
0100
0000
1000
0000
,  // measure 10
0001
0100
0101
0000
0010
1000
0001
0010
,  // measure 11
1000
0001
1100
0000
0010
0001
1000
0010
,  // measure 12
1000
0100
0101
0000
0010
1000
0001
0010
,  // measure 13
1000
0010
1100
0000
1000
0010
0100
0001
,  // measure 14
0010
0010
0101
0000
0010
0001
0010
1000
,  // measure 15
0100
0001
0011
0000
0001
0010
0100
1000
,  // measure 16
0010
1000
1100
0000
0010
0001
1000
0010
,  // measure 17
0100
0000
0001
0000
0101
0000
0000
0000
1001
0000
0000
0001
0000
0000
0100
0000
,  // measure 18
0001
0000
0000
1000
0000
0000
0010
0000
0100
0000
0000
0001
0000
0000
0010
0000
,  // measure 19
0100
0000
0000
1000
0000
0000
0001
0000
0010
0000
0000
0100
0000
0000
1000
0000
,  // measure 20
0001
0000
0000
0100
0000
0000
0010
0000
1000
0000
0000
0001
0000
0000
0010
0000
,  // measure 21
1000
0000
0000
0100
0000
0000
0001
0000
1001
0000
0000
0100
0000
0000
0010
0000
,  // measure 22
1010
0000
0000
0001
0000
0000
0100
0000
0110
0000
0000
0001
0000
0000
1000
0000
,  // measure 23
0010
0000
0000
0001
0000
0000
0100
0000
0001
0000
0000
0010
0000
0000
0100
0000
,  // measure 24
0100
0000
0000
1000
0000
0000
0001
0000
0010
0000
0000
0100
0000
0000
0010
0000
,  // measure 25
2002
0000
0000
0000
0000
0000
3003
0000
0100
0001
0000
0001
0010
0000
0100
0000
,  // measure 26
1000
0010
0000
0010
1000
0000
0100
0000
0001
0100
0000
1000
0010
0000
0001
0000
,  // measure 27
0010
0100
0000
1000
0100
0000
0001
0000
1000
0100
0000
0010
1000
0000
0010
0000
,  // measure 28
0001
0100
0000
0010
0001
0000
0010
0000
1000
0100
0000
0010
1000
0000
0010
0000
,  // measure 29
0001
0100
0000
0010
0001
0000
0010
0000
1000
0100
0000
0010
1000
0000
0010
0000
,  // measure 30
0001
0100
0000
0010
0001
0000
0010
0000
0100
1000
0000
0100
1000
0000
1000
0000
,  // measure 31
0100
0010
0000
1000
0010
0000
0001
0000
1000
0010
0000
0001
0010
0000
0100
0000
,  // measure 32
0001
0010
0000
0100
0010
0000
1000
0000
1000
0010
0000
0001
0010
0000
0100
0000
,  // measure 33
0010
0001
0000
0100
1000
0000
0100
0000
0010
1000
0000
0001
0010
0000
0100
0000
,  // measure 34
1000
0010
0000
0100
0001
0000
0010
0000
0100
1000
0000
0010
0100
0000
0001
0000
,  // measure 35
0010
0100
0000
0100
1000
0000
0010
0000
0001
1000
0000
1000
0001
0000
0010
0000
,  // measure 36
0100
0001
0000
0001
1000
0000
0010
0000
0100
0001
0000
0010
0100
0000
1000
0000
,  // measure 37
0010
0100
0000
0100
0001
0000
0010
0000
0100
1000
0000
1000
0010
0000
0001
0000
,  // measure 38
0100
1000
0000
1000
0010
0000
0001
0000
0100
1000
0000
1000
0010
0000
0100
0000
,  // measure 39
0001
0010
0000
0010
1000
0000
0100
0000
0001
0010
0000
0010
0001
0000
0100
0000
,  // measure 40
0100
0010
0000
0010
0100
0000
0001
0000
1000
0100
0000
0100
1000
0000
0010
0000
,  // measure 41
0100
0001
0000
0001
0100
0000
0001
0000
1001
0000
0000
0001
0010
0000
0100
0000
,  // measure 42
1000
0010
0000
0010
1000
0000
0100
0000
1000
0001
0000
0100
0010
0000
0001
0000
,  // measure 43
0010
0100
0000
0100
1000
0000
0010
0000
1000
0010
0000
0001
0100
0000
1000
0000
,  // measure 44
0001
0010
0000
0001
1000
0000
0001
0000
1000
0100
0000
0100
0001
0000
0100
0000
,  // measure 45
0001
0010
0000
0010
1000
0000
0010
0000
1000
0001
0000
0001
0100
0000
0010
0000
,  // measure 46
1000
0100
0000
0100
0001
0000
0001
0000
0010
0001
0000
0010
1000
0000
0010
0000
,  // measure 47
0100
0001
0000
0100
1000
0000
0010
0000
0100
0001
0000
0100
1000
0000
0010
0000
,  // measure 48
0100
0001
0000
0100
1000
0000
0010
0000
0100
0001
0000
0001
0010
0000
0001
0000
,  // measure 49
0100
0000
0000
0000
0010
0000
0000
0000
1001
0000
1000
0010
1000
0000
0010
0000
,  // measure 50
0100
0000
0001
0100
0001
0000
0010
0000
0100
0000
1000
0100
1000
0000
0001
0000
,  // measure 51
0010
0000
0001
0010
0001
0000
1000
0000
0010
0000
1000
0010
1000
0000
0100
0000
,  // measure 52
1000
0000
0001
1000
0001
0000
0100
0000
0010
1000
0000
1000
0010
0000
0100
0000
,  // measure 53
0001
0100
0000
0100
0001
0000
0010
0000
0001
0000
0001
0000
1000
0000
1000
0000
,  // measure 54
0100
1000
0000
0100
1000
0000
0001
0000
0010
0001
0000
0010
0001
0000
0100
0000
,  // measure 55
0001
0100
0000
0001
0100
0000
0010
0000
1000
0010
0000
1000
0010
0000
0100
0000
,  // measure 56
0001
1000
0000
0001
1000
0000
0001
0000
0100
0001
0000
0100
0001
0000
1000
0000
,  // measure 57
0100
1000
0000
0100
1000
0000
0010
0000
1010
0000
0010
1000
0010
0000
1000
0000
,  // measure 58
0100
0000
0001
0100
0001
0000
0010
0000
0100
0000
1000
0100
1000
0000
0010
0000
,  // measure 59
0100
0000
0001
1000
0001
0000
0100
0000
0010
0000
0100
1000
0100
0000
0010
0000
,  // measure 60
1000
0000
0001
0100
0001
0000
0100
0000
0010
0000
0010
1000
0010
0000
0100
0000
,  // measure 61
0001
0000
0001
1000
0001
0000
0100
0000
0010
0000
0000
0000
0100
0000
0000
0000
,  // measure 62
1000
0001
0000
0000
0100
0000
0000
0000
0010
0000
1000
0010
1000
0000
0000
0000
,  // measure 63
0001
0000
0000
0000
0100
0000
0000
0000
0001
0000
0100
0001
0100
0000
0000
0000
,  // measure 64
0001
1000
0100
1000
,  // measure 65
0010
0000
0100
0001
1001
0000
0000
0000
;

//---------------dance-double - Copied from----------------
#NOTES:
     dance-double:
     Copied from:
     Challenge:
     9:
     0.541,0.476,0.139,0.139,0.000:
00000000
00000000
00000000
00000000
,
00000000
00000000
00000000
00000000
,
00000000
00000000
00000000
00000000
,
00000000
00000000
00000000
00000000
,
00000000
00000000
00000000
00000000
00100000
01000000
00001000
00010000
,
00001000
00000100
00000001
00001000
00000100
00000010
00000100
00010000
,
00001000
00100000
01000000
00010000
00001000
00010000
01000000
10000000
,
00010000
00100000
01000000
00100000
00001000
00010000
01000000
00000000
,
20000000
00000000
00010000
30000000
10010000
00000000
01000000
00100000
,
01000000
00001000
00010000
00000000
00100000
00010000
11000000
00000000
,
00100000
00001000
00011000
00000000
00000010
00000100
00001001
00000000
,
00000100
00000010
00001001
00000000
00000010
00001000
00010000
00000000
,
01000000
00001000
00010000
00000000
01000000
10000000
00010000
00000000
,
00100000
01000000
00010000
00000000
00001000
00000100
00000001
00000000
,
00001000
00000010
00000100
00000000
00000001
00000010
00000100
00000000
,
00001000
00000010
00001000
00000000
00000010
00000010
00010000
00010000
,
00001000
00001000
01000000
01000000
10010000
00000000
00000000
00000000
,
10000000
01000000
00010000
00001000
,
00000010
00000001
00000100
00001000
,
00010000
00100000
10000000
01000000
,
00010000
00001000
00000020
00000230
,
00002000
00000300
00000002
00003000
00000203
00000000
00002300
00000000
,
00023000
00230000
02300000
03020000
,
20030000
00000000
32000000
00000000
00200000
03000000
02000000
00300000
,
00200000
00000000
03000000
00300000
01100000
00000000
11000000
00100000
,
00010000
00001000
00100000
01000000
00010000
00001000
00000100
00000001
,
00001000
00000100
00000001
00000100
00000010
00001000
00100000
01000000
,
00010000
00001000
00010000
00100000
10000000
00100000
00010000
00000010
,
00000100
00001000
00100000
01000000
00001000
00000100
00000010
00001000
,
00100000
01000000
00001000
00000010
00000100
00010000
00100000
01000000
,
00001000
00000010
00000100
00010000
00100000
01000000
00001000
00000010
,
00000100
00010000
00100000
01000000
00001000
00000010
00000100
00010000
,
00100000
01000000
00100000
00000000
11000000
00000000
10000000
00100000
,
00010000
00001000
00100000
01000000
00001000
00000100
00000010
00001000
,
00100000
01000000
00010000
00001000
00000100
00000010
00010000
00100000
,
01000000
00001000
00010000
01000000
10000000
00100000
00010000
00001000
,
00000100
00000001
00001001
00000000
00000100
00000001
00000010
00001000
,
00010000
00000100
00000001
00000100
00000010
00001000
00010000
00000100
,
00001000
00010000
01000000
00100000
00010000
00001000
00000100
00000001
,
00000010
00001000
00010000
00000000
10000000
01000000
00010000
00001000
,
00000100
00000001
00001000
00000000
00001001
00000000
00000001
00000010
,
00001000
00010000
00100000
10000000
01000000
00010000
00001000
00000010
,
00000001
00000100
00001000
00010000
00100000
10000000
01000000
00010000
,
00001000
00000010
00000001
00000100
00001000
00010000
00100000
01000000
,
00010000
01000000
00010000
00000000
10010000
00000000
10000000
00100000
,
00010000
00001000
00100000
01000000
00010000
00001000
00000100
00000001
,
00000010
00001000
00010000
00000100
00000001
00000100
00000010
00001000
,
00010000
00100000
10000000
00100000
00010000
00001000
00100000
10000000
,
00010000
00001000
01000000
00000000
01010000
00000000
10000000
01000000
,
00100000
00001000
00010000
00000010
00000100
00000001
00001000
00000100
,
00000010
00001000
00010000
00000000
01000000
00001000
00000100
00001000
,
01000000
00001000
00000100
00001000
00100000
00010000
00000010
00010000
,
00100000
00010000
00000010
00010000
00100000
00001000
01000000
00001000
,
00000100
00001000
01000000
00001000
00000100
00001000
00010000
00000100
,
00000010
00001000
00010000
00000000
00010000
00000010
00010000
00000010
,
00001000
00000010
00001000
00000000
00000010
00001000
00100000
00001000
,
00000010
00001000
01000000
00001000
00000100
00000000
00001010
00000010
,
00000100
00000001
00001000
00000000
00000010
00001000
00100000
00001000
,
00000010
00001000
00100000
00001000
00010000
01000000
00010000
00000100
,
00010000
01000000
00010000
00001000
00000010
00000001
00001000
00000001
,
00000100
00000010
00000100
00000000
00001000
00010000
00100000
00000000
,
01000000
00001000
00010000
00000000
01000000
10000000
00010000
00000000
,
00100000
01000000
00010000
00000000
01000000
00001000
00100000
00000000
,
00010000
10000000
00100000
00000000
01100000
00000000
00010000
00000000
,
10000000
00000000
01000000
00100000
01100000
00000000
00000000
00000000
;
