#TITLE:LUPIN SENSEI NO THEME;
#SUBTITLE:;
#ARTIST:DJ TORA +R-SEQ;
#TITLETRANSLIT:;
#SUBTITLETRANSLIT:;
#ARTISTTRANSLIT:;
#CREDIT:;
#BANNER:lupin-bn.png;
#BACKGROUND:lupin-bg.png;
#LYRICSPATH:;
#CDTITLE:cdtitle.png;
#MUSIC:Dj TORA +R-SEQ - Lupin Sensei No theme.mp3;
#OFFSET:-0.029;
#SAMPLESTART:44.820;
#SAMPLELENGTH:11.900;
#SELECTABLE:YES;
#BPMS:0.000=140.000;
#STOPS:;
#BGCHANGES:;

//---------------dance-single - ----------------
#NOTES:
     dance-single:
     :
     Hard:
     9:
     0.621,0.719,0.339,0.051,0.424:
0000
0000
0000
0000
,
0000
0000
0000
0000
,
0000
0000
0000
0000
,
0000
0000
0000
0000
,
1000
0000
0000
0001
0000
1000
0001
0000
1000
0000
0000
0000
1000
0000
0000
0000
,
0001
0000
0000
1000
0000
0001
1000
0000
0001
0000
0000
0000
0001
0000
0000
0000
,
0010
0000
0000
0100
0000
0010
0100
0000
0010
0000
0000
0000
0010
0000
0000
0000
,
0100
0000
0000
0010
0000
0100
0010
0000
0100
0000
0000
0000
0100
0000
0000
0000
,
1000
0001
0000
0010
0001
0000
1000
0010
0000
0100
0010
0000
0200
0000
0000
0000
,
0010
0010
0010
0310
,
0100
0001
0000
1000
0100
0000
0010
0100
0000
1000
0010
0000
0210
0000
0000
0000
,
0010
0010
0010
0310
,
0100
0001
0000
1000
0100
0000
0010
0001
0000
1000
0100
0000
0020
0000
0000
0000
,
0100
0100
0100
0100
,
0130
1000
0000
0010
1000
0000
0001
0100
0000
0010
1000
0000
0200
0000
0000
0000
,
1000
1000
1000
1300
,
0001
0000
0000
1000
0000
0001
1000
0000
0001
0000
0000
0000
0001
0000
0000
0000
,
0010
0000
0000
0001
0000
0100
0001
0000
0100
0000
0000
0000
0010
0000
0000
0000
,
0010
0000
0000
1000
0000
0100
1000
0000
0100
0000
0000
0000
0010
0000
0000
0000
,
0001
0000
0000
0100
0000
0001
0100
0000
0001
0000
0000
0000
1000
0000
0000
0000
,
0001
0000
0000
0100
0000
0001
1000
0000
0001
0000
0000
0100
0000
0001
1000
0000
,
0001
0000
0000
0100
0000
0001
1000
0000
0001
0000
0000
0010
0000
0001
1000
0000
,
0010
1000
0000
0010
0100
0000
0000
0001
0100
0000
0000
0001
0010
0000
0000
0100
,
1000
0010
0100
0001
1000
0100
0010
0100
,
1000
0001
1000
0001
1000
0001
1000
0001
1000
0001
1000
0001
1000
0000
0000
0000
,
0001
0000
0000
0000
0100
0000
0000
0000
0001
1000
0000
0000
0110
0000
0000
0000
,
2002
0000
0000
3003
,
1001
0001
0010
0001
1000
0010
0100
1000
,
0100
0010
1000
0010
0100
0010
0100
0001
,
0100
0001
0010
0001
0100
0001
0100
0001
,
0010
0100
0001
0100
1000
0100
1000
0001
,
0010
0100
1000
0010
0100
0010
1000
0100
,
0010
0001
0010
0100
1000
0010
0100
0010
,
0100
0010
0000
0000
1000
0000
0001
0000
0100
0000
0001
0000
0010
0000
0100
0000
,
1000
0000
1001
0000
0001
0010
0100
0000
,
0110
0100
0010
0100
0010
0001
1000
0001
,
1001
0001
1000
0001
1000
0010
0100
0010
,
0110
0010
0100
0010
0100
0010
1000
0001
,
1001
0001
1000
0001
1000
0001
0010
0000
,
0110
0000
1000
0001
0010
0100
1000
0010
,
0100
0010
1000
0000
0100
0001
1000
0100
,
0010
0001
1000
0010
0100
0010
0000
0010
,
0100
0000
0010
0000
0100
0010
0100
0000
,
1001
0000
0001
0010
0001
0000
0100
0001
0100
0000
0001
1000
0001
0000
1000
0100
,
1000
0000
0010
1000
0010
0000
0100
0010
0100
0000
0001
0100
0001
0000
1000
0001
,
1000
0000
0100
1000
0100
0000
1000
0010
1000
0000
0010
0100
0010
0000
0100
0001
,
0100
0000
0001
1000
0001
0000
0010
0001
0010
0000
0001
0000
1000
0000
0100
0000
,
0010
0001
0001
0010
0100
1000
1000
0001
,
0010
0100
1000
0001
0001
1000
0100
0010
,
0001
0001
0100
0010
1000
0001
0001
0100
,
0010
0000
1000
0000
1000
0000
0001
0000
0100
0000
0010
0100
0010
0000
0100
0000
,
1001
0000
0000
0000
0000
0000
0001
1000
0000
0000
0001
0000
1000
0000
0000
0000
,
0011
0000
0000
0001
0000
0100
0001
0000
0100
0000
0000
0000
0101
0000
0000
0000
,
0001
0000
1000
0100
0000
1000
0010
0000
0110
0000
0000
0000
0110
0000
0000
0000
,
1000
0000
0000
0001
0000
0010
0100
0000
0110
0000
0000
0000
0110
0000
0000
0000
,
0010
0000
0001
0100
0000
0001
0010
0000
0001
0000
0000
0000
0011
0000
0000
0000
,
0010
0001
1000
0010
0100
1000
0100
0010
,
1000
0000
0100
1000
0100
0000
0010
0100
0010
0000
0001
0010
0001
0000
0100
0000
,
0001
0000
0100
0001
0100
0000
0010
0100
0010
0000
1000
0010
1000
0000
0100
0000
,
1000
0000
0001
1000
0001
0000
0100
0000
0001
0000
1000
0000
0100
0000
0000
0000
,
0110
0000
0000
1000
0000
0010
0100
0000
0110
0000
0000
0000
0101
0000
0000
0000
,
0011
0000
0000
0010
0000
0100
1000
0000
0110
0000
0000
0000
0110
0000
0000
0000
,
0100
0000
0000
0001
0000
1000
0010
0000
0110
0000
0000
0000
1001
0000
0000
0000
,
0010
0000
0000
1000
0000
0001
0100
0000
0101
0000
0000
0000
0101
0000
0000
0000
,
0010
0000
0000
0001
0000
1000
0100
0000
0110
0000
0000
0000
0110
0000
0000
0000
,
0010
0000
0000
0001
0000
1000
0010
0000
0101
0000
0000
0000
1010
0000
0000
0000
,
0101
0000
0000
0001
0000
0010
0001
0000
1100
0000
0000
0000
0011
0000
0000
0000
,
1100
0000
0000
0010
0000
0100
0010
0000
1001
0000
0000
0000
0110
0000
1100
0000
;

//---------------dance-single - ----------------
#NOTES:
     dance-single:
     :
     Medium:
     6:
     0.443,0.489,0.085,0.051,0.229:
0000
0000
0000
0000
,
0000
0000
0000
0000
,
0000
0000
0000
0000
,
0000
0000
0000
0000
,
1000
0000
0000
0001
0000
1000
0000
0000
0001
0000
0000
0000
0001
0000
0000
0000
,
0100
0000
0000
0001
0000
1000
0000
0000
0100
0000
0000
0000
0001
0000
0000
0000
,
1000
0000
0000
0100
0000
0010
0000
0000
0010
0000
0000
0000
0001
0000
0000
0000
,
0100
0000
0000
0001
0000
1000
0000
0000
1000
0000
0000
0000
0001
0000
0000
0000
,
0010
0100
0000
0100
0010
0000
0000
0000
0002
0000
0000
0000
1000
0000
0000
0000
,
1000
1000
1000
1003
,
0010
1000
0000
0001
0010
0000
0000
0000
2000
0000
0000
0000
0010
0000
0000
0000
,
0010
0010
0010
3010
,
0100
1000
0000
0010
0100
0000
0000
0000
0002
0000
0000
0000
0010
0000
0000
0000
,
0010
0010
0010
0013
,
0010
0001
0000
0000
0001
1000
0000
0000
0100
0000
0010
0000
0100
0000
0000
0000
,
1000
0001
0100
0000
,
1001
0000
0010
1000
0001
0000
0100
0000
,
0001
0000
0000
1000
0000
0100
0000
0000
0010
0000
0000
0000
0001
0000
0000
0000
,
1000
0000
0000
0010
0000
0100
0000
0000
0001
0000
0000
0000
1000
0000
0000
0000
,
0010
0000
0000
0100
0000
0001
0000
0000
1000
0000
0000
0000
0100
0000
0000
0000
,
0010
0000
0000
0001
0000
1000
0000
0000
0100
0000
0000
0010
0000
0001
0000
0000
,
1000
0000
0000
0010
0000
0100
0000
0000
0001
0000
0000
1000
0000
0001
0000
0000
,
0100
0000
0000
0001
1000
0000
0000
0001
0100
0000
0000
0001
1000
0000
0000
0001
,
0100
0001
1000
0100
0010
0100
1000
0001
,
0100
0010
0100
0001
1000
0001
1000
0000
,
0001
0000
0000
0000
1000
0000
0000
0000
0001
1000
0000
0000
1001
0000
0000
0000
,
0002
0000
0000
0013
,
0110
0000
1000
0001
0100
0001
1000
0000
,
0100
0000
1000
0000
0010
0000
0100
0001
,
0010
0001
1000
0000
0100
0000
0001
0000
,
0010
0001
1000
0010
0100
0000
1000
0000
,
0100
1000
0001
0000
0100
0010
1000
0001
,
0010
0000
0001
0000
0100
0001
0010
0100
,
1000
0000
0000
0000
0001
0000
0000
0000
1000
0000
0001
0000
0000
0001
0000
0000
,
0001
0000
0100
0010
1000
0000
0001
0000
,
0100
0001
1000
0100
1000
0010
0100
0010
,
0100
0001
1000
0001
1000
0000
0100
0010
,
0100
0000
0010
0001
0010
0001
1000
0001
,
1000
0100
1000
0100
1000
0000
0001
0000
,
0100
0000
0010
0000
1000
0001
0010
0100
,
0010
0000
0001
0000
1000
0100
0001
0000
,
0110
0000
0001
0000
1000
0010
0001
0000
,
0220
0000
0000
0330
,
1000
0000
0001
1000
0100
0010
0001
1000
,
0010
0000
0010
0000
0010
1000
0100
1000
,
0001
0000
0100
0000
0001
0010
0100
0010
,
0001
0000
0001
0010
0100
1000
0010
1000
,
0100
0010
0000
0000
0000
0001
1000
0010
,
0100
0001
0000
0000
0000
0001
1000
0010
,
0100
0000
0010
1000
0001
1000
0001
0100
,
0010
0001
1000
0001
,
0010
0100
0000
0000
0000
0100
0010
0000
0000
0000
0001
0000
1000
0000
0000
0000
,
1001
0000
0010
0100
0010
0000
0001
0000
,
0010
0100
1000
0001
0010
0000
0010
0000
,
0001
0100
0010
1000
0100
0000
0100
0000
,
1000
0001
0100
0010
1000
0000
0001
0000
,
1000
0100
0001
0000
0001
0100
1000
0000
,
1000
0010
0001
0000
0110
0000
0001
0100
,
1000
0000
0110
0000
1000
0010
0001
0000
,
0110
0100
0100
1001
,
0100
0000
0000
0010
0000
0100
0000
0000
0001
0000
0000
0000
0001
0000
0000
0000
,
1000
0000
0000
0100
0000
0010
0000
0000
0001
0000
0000
0000
0001
0000
0000
0000
,
0010
0000
0000
0100
0000
1000
0000
0000
0001
0000
0000
0000
0001
0000
0000
0000
,
1000
0000
0000
0010
0000
0100
0000
0000
0010
0000
0000
0000
1000
0000
0000
0000
,
0001
0000
0000
0010
0000
0100
0000
0000
1000
0000
0000
0000
0001
0000
0000
0000
,
0010
0000
0000
0100
0000
1000
0000
0000
0001
0000
0000
0000
0010
0000
0000
0000
,
0100
0000
0000
0001
0000
1000
0000
0000
0100
0000
0000
0000
0010
0000
0000
0000
,
1000
0000
0000
0001
0000
0100
0000
0000
0010
0000
0000
0000
1000
0000
0001
0000
;

//---------------dance-single - ----------------
#NOTES:
     dance-single:
     :
     Easy:
     4:
     0.301,0.374,0.127,0.085,0.000:
0000
0000
0000
0000
,
0000
0000
0000
0000
,
0000
0000
0000
0000
,
0000
0000
0000
0000
,
0010
0001
1000
1000
,
0010
0100
0001
0001
,
0010
0100
1000
1000
,
0010
0100
1001
0000
,
1000
0001
1000
0100
,
0010
0010
0010
0000
,
1000
0010
0001
0100
,
0001
0001
0001
0000
,
1000
0100
0001
0010
,
1000
1000
1000
0000
,
0010
0100
0001
1000
,
0100
0100
0100
0000
,
1000
0001
0100
0100
,
0001
1000
0010
0010
,
1000
0001
0100
0100
,
0001
1000
0010
0010
,
1000
0000
0101
0000
,
1100
0000
0110
0000
,
1001
0100
0100
0100
,
1001
0001
1000
0001
,
1000
0001
1000
0001
1000
0001
1000
0000
,
0100
0010
0100
0010
,
2002
0000
0000
3003
,
0101
0001
1000
0010
,
0010
1000
0001
0000
,
0100
0001
1000
1000
,
0010
0100
0001
1001
,
0200
0000
0300
1000
,
0010
0010
0000
0100
,
2002
0000
3003
0010
,
0100
0100
0000
0010
,
0001
1000
0001
0010
,
0100
0010
0001
0001
,
0100
0010
1000
1000
,
0010
0100
0001
1000
,
1001
0000
0100
0001
,
1000
1000
0010
0100
,
0002
0000
0000
1003
,
0020
0000
0000
0030
,
0100
0001
0100
0010
,
1000
0100
1000
0001
,
0010
0001
0010
0100
,
1000
0000
0001
0100
,
0010
0000
0000
0100
,
1000
0001
0000
0001
,
0010
0000
0100
1000
,
0001
1000
0001
0100
,
0110
0000
1001
0000
,
1001
0001
0100
0100
,
1000
0100
0001
0001
,
0100
1000
0010
0010
,
0100
1000
0001
0001
,
0010
0100
1000
0001
,
0100
0200
0000
0320
,
2030
0000
3000
0001
,
0100
1000
0010
0000
,
1001
0001
0010
0010
,
0100
1000
0001
0001
,
0100
0010
1000
1000
,
0010
0100
0001
0001
,
0010
0100
1000
1000
,
0010
0001
0100
0100
,
0001
0100
1000
1000
,
0010
0000
0001
0000
0010
0000
0010
0100
;

//---------------dance-double - ----------------
#NOTES:
     dance-double:
     :
     Challenge:
     9:
     0.633,0.719,0.297,0.000,0.420:
00000000
00000000
00000000
00000000
,
00000000
00000000
00000000
00000000
,
00000000
00000000
00000000
00000000
,
00000000
00000000
00000000
00000000
,
00000010
00000000
00000000
00000001
00000000
00000010
00000001
00000000
00000100
00000000
00000000
00000000
00001001
00000000
00000000
00000000
,
00000010
00000000
00000000
00000010
00000000
00010000
00001000
00000000
00010000
00000000
00000000
00000000
00000100
00000000
00000000
00000000
,
00001000
00000000
00000000
00000010
00000000
00000100
00001000
00000000
00010000
00000000
00000000
00000000
00100000
00000000
00000000
00000000
,
01000000
00000000
00000000
00010000
00000000
00100000
01000000
00000000
00100000
00000000
00000000
00000000
01000000
00000000
00000000
00000000
,
10000000
00100000
00000000
00010000
00100000
00000000
01000000
10000000
00000000
01000000
00010000
00000000
10000000
00000000
00000000
00000000
,
01000000
00000000
00010000
00001000
00000100
00000001
00001000
00000100
,
00000010
00000001
00000000
00001000
00000001
00000000
00000010
00001000
00000000
00000010
00000001
00000000
00001000
00000000
00000001
00000000
,
00000010
00000100
00010000
00001000
01000000
00000000
01100000
00000000
,
10000000
00010000
00000000
00100000
01000000
00000000
10000000
00010000
00000000
01000000
00100000
00000000
10000000
00000000
00100000
00000000
,
00010000
00100000
10000000
01000000
00010000
00000000
00001000
00000000
,
00000100
00000010
00000000
00001000
00000010
00000000
00000100
00000001
00000000
00000010
00000100
00000000
00001000
00000000
00000001
00000000
,
00000010
00000110
00001001
00000110
,
00001000
00000000
00000000
00010000
00000000
00100000
01000000
00000000
00010000
00000000
00000000
00000000
01100000
00000000
00000000
00000000
,
11000000
00000000
00000000
01000000
00000000
00100000
00001000
00000000
00010000
00000000
00000000
00000000
00001100
00000000
00000000
00000000
,
00000001
00000000
00000000
00001000
00000000
00000010
00001000
00000000
00000001
00000000
00000100
00000000
00000010
00000000
00000000
00000000
,
00011000
00000000
00000000
01000000
00000000
01000000
00001000
00000000
00010000
00000000
00000100
00000000
00000010
00000000
00000000
00000000
,
00001100
00000000
00000000
00000001
00000000
00000010
00000100
00000000
00000010
00000000
00000000
00000001
00000000
00000100
00000010
00000000
,
00010000
00000000
00000000
00001000
00000000
00010000
00001000
00000000
01000000
00000000
00000000
00100000
00000000
01000000
00100000
00000000
,
10000000
00000000
00000000
00010000
00100000
00000000
00000000
01000000
10000000
00000000
00000000
00100000
01000000
00000000
00000000
00001000
,
00010000
00000010
00000100
00000001
00000010
00001000
00010000
00100000
,
10000000
01000000
10000000
01000000
10000000
01000000
10000000
01000000
10000000
01000000
10000000
01000000
10000000
00000000
00000000
00000000
,
01000000
00000000
00000000
00000000
00100000
00000000
00000000
00000000
00001000
00010000
00000000
00000000
00011000
00000000
00000000
00000000
,
00000110
00000000
00000001
00000010
00000100
00000000
00001000
00000000
,
00000011
00000001
00000100
00001000
00010000
01000000
10000000
00100000
,
01000000
00010000
00100000
01000000
10000000
01000000
00010000
00001000
,
00000100
00000001
00001000
00000001
00000010
00001000
00010000
00100000
,
10000000
00100000
00010000
00100000
10000000
01000000
00100000
00001000
,
00000100
00000001
00000010
00001000
01000000
00100000
10000000
01000000
,
00100000
00000000
00001000
00010000
00001000
00000000
00000100
00000001
00000100
00000000
00000001
00000000
00001000
00000000
00000100
00000000
,
00000010
00000000
00001000
00000000
00010000
00000000
00100000
00000000
01000000
00000000
00010000
00000000
00000000
00110000
00000000
00000000
,
10010000
00000000
00000000
00000000
01000000
00000000
00100000
00000000
10000000
00000000
00010000
00000000
00100000
01000000
00000000
00000000
,
01100000
01000000
10000000
00100000
01000000
00100000
00010000
00001000
,
00000100
00000001
00001000
00000100
00000110
00000000
00000110
00000000
,
00001001
00000000
00000000
00000100
00000000
00000010
00000001
00000000
00000100
00000000
00000010
00000000
00000100
00000000
00001000
00000000
,
00010000
00100000
01000000
00010000
00100000
01000000
10000000
00100000
,
00010000
00001000
00000100
00000001
00001000
00000100
00000010
00000001
,
00000100
00000000
00000010
00000100
00000010
00000000
00010000
00001000
00010000
00000000
00100000
01000000
00100000
00000000
10000000
00000000
,
00010000
00100000
01000000
10000000
00100000
10000000
00000000
01000000
,
00010000
00000000
00001000
00000100
00000001
00001000
00000100
00000010
,
00000110
00000000
00000010
00000001
00000100
00000010
00010000
00001000
,
01000000
00000000
00100000
10000000
00100000
00000000
01000000
00010000
00100000
00000000
00010000
00100000
00001000
00000000
00010000
00000100
,
00010000
00000000
00000100
00001000
00000100
00000000
00000010
00000001
00000010
00000000
00000100
00001000
00000100
00000000
00010000
00000010
,
00010000
00000000
00001000
01000000
00001000
00000000
00100000
00010000
00100000
00000000
00010000
00000000
01000000
00000000
00100000
00000000
,
10000000
01000000
00010000
00001000
00000100
00000001
00000010
00001000
,
00010000
00100000
10000000
00100000
00010000
00001000
00000010
00000001
,
00000100
00001000
00010000
01000000
10000000
00100000
00100000
10000000
,
01000000
00000000
00010000
00000000
00001000
00000000
00000100
00000000
00000010
00000000
00000010
00000000
00000100
00000000
00000000
00000001
,
00001000
00000001
00000000
00000000
00000000
00000001
00001000
00000001
00000000
00000000
00000000
00000000
00000101
00000000
00000000
00000000
,
00000011
00000000
00000000
00000001
00000000
00000100
00000010
00000000
00001000
00000000
00000000
00000000
00001100
00000000
00000000
00000000
,
00000010
00000000
00000000
00010000
00000000
00001000
01000000
00000000
00001000
00000000
00000000
00000000
00100000
00000000
00000000
00000000
,
10000000
00000000
00000000
00100000
00000000
00010000
00100000
00000000
00010000
00000000
00000000
00000000
10010000
00000000
00000000
00000000
,
00100000
00000000
00000000
00001000
00000000
01000000
00001000
00000000
00010000
00000000
00000000
00000000
00000110
00000000
00000000
00000000
,
00001001
00000010
00000001
00000100
00000010
00001000
00000100
00010000
,
00001000
00000000
01000000
00010000
01000000
00000000
00100000
10000000
00100000
00000000
01000000
00010000
01000000
00000000
00010000
00000000
,
00100000
01000000
10000000
01000000
00010000
00001000
00000100
00000010
,
00001000
00000000
00000001
00001000
00000001
00000000
00000010
00000100
00000010
00000000
00000001
00000000
00001000
00000000
00000100
00000000
,
00000110
00000000
00000000
00000010
00000000
00000001
00000100
00000000
00000010
00000000
00000000
00000000
01010000
00000000
00000000
00000000
,
00010000
00000000
00000000
00100000
00000000
00010000
10000000
00000000
00100000
00000000
00000000
00000000
10100000
00000000
00000000
00000000
,
01001000
00000000
00000000
00010000
00000000
00000010
00001000
00000000
00000100
00000000
00000000
00000000
00000110
00000000
00000000
00000000
,
00010000
00000000
00000000
00001000
00000000
01000000
00100000
00000000
01000000
00000000
00000000
00000000
00110000
00000000
00000000
00000000
,
10000000
01000000
00010000
00001000
00001000
00000100
00000001
00001000
,
00000100
00000010
00000001
00000001
00000100
00000010
00010000
00001000
,
01000000
00000000
00000000
00010000
00000000
00100000
00010000
00000000
10000000
00000000
00000000
00000000
10100000
00000000
00000000
00000000
,
01010000
00000000
00000000
00001000
00000000
00010000
00000010
00000000
00001000
00000000
00000100
00000000
00000010
00000000
00001001
00000000
;
