#TITLE:LOVE HURTS;
#SUBTITLE:(Disco mix);
#ARTIST:Lover;
#TITLETRANSLIT:;
#SUBTITLETRANSLIT:;
#ARTISTTRANSLIT:;
#CREDIT:;
#BANNER:;
#BACKGROUND:;
#LYRICSPATH:;
#CDTITLE:cdtitle.png;
#MUSIC:LOVE HURTS.ogg;
#OFFSET:-0.309;
#SAMPLESTART:16.280;
#SAMPLELENGTH:11.900;
#SELECTABLE:YES;
#BPMS:0.000=123.000;
#STOPS:;
#BGCHANGES:;

//---------------dance-single - ----------------
#NOTES:
     dance-single:
     :
     Hard:
     6:
     0.393,0.397,0.216,0.315,0.022:
0000
0000
0000
0000
,
0000
0000
0000
0000
,
0000
0000
0000
0000
,
0000
0000
0000
0000
,
0000
2000
0002
0000
,
3003
0020
0200
0000
,
0330
0002
0200
0000
,
0000
0303
0010
0000
2000
0000
0000
0000
,
0000
3000
0001
0000
0101
0000
0100
0001
,
1000
0000
0020
0000
0130
0000
0100
0001
,
0010
0100
0010
0001
2000
0000
0100
0000
,
3100
0000
0001
0010
0200
0000
0310
0000
,
0110
0000
1001
0000
0110
0000
0100
0001
,
0200
0000
0000
0000
0010
0000
0000
0000
0002
0300
0000
0000
0103
0000
0001
0000
,
0010
0000
0200
0000
0001
0000
0010
0300
,
0001
0010
0100
1000
0010
0000
0010
1000
,
0001
0000
0000
0001
0000
0000
0100
0000
0001
0000
0000
0000
1000
0000
0010
0000
,
1010
0000
0001
0100
0001
0000
0001
0100
,
0001
1000
0001
1000
0100
0000
0010
0000
,
1000
0100
1000
0010
1000
0100
1000
0000
,
0010
0200
0002
0000
,
0000
0000
0303
0000
2020
0000
0000
3030
,
0101
0001
2002
0000
,
0000
3003
0100
0100
,
0100
0000
0000
0000
1001
0000
0001
0010
,
0100
0000
1000
0010
0100
0010
0100
0001
,
1000
0000
0001
0001
0010
0000
0100
0000
,
1000
0000
0000
0000
0010
0000
0100
0000
0001
0100
0000
0000
0001
0000
0000
0000
,
1000
0000
0000
0010
0000
0000
0010
0000
0100
0000
0000
0000
0102
0000
0000
0000
,
0100
0003
0000
0000
1001
0000
0001
0000
1000
0000
0001
0000
1000
0000
0010
0000
,
1000
0000
0100
0100
1000
0000
0010
0000
,
0010
1000
0001
0010
0100
0000
0110
0000
,
0010
0000
0000
0001
0000
0000
1000
0000
0100
0000
0000
0000
0010
0000
0100
0000
,
1000
0010
0100
0001
0010
0001
0100
0000
,
0200
0000
0001
0000
0310
1000
0100
0010
,
0002
0000
0000
0000
0010
0003
0000
0000
1000
0000
0100
0000
0001
0000
0100
0000
,
1000
0001
0010
1000
0110
0000
0100
0000
,
1000
0000
0000
0000
0001
0000
0000
0000
2002
0000
0000
0000
0000
3003
0000
0000
,
0101
1001
2200
0000
,
0000
0000
0000
0000
0000
3300
0000
0000
0001
0000
0000
0000
0001
0000
0000
0000
,
0001
0000
0000
0000
1001
0000
0001
0010
,
0001
0100
1000
0100
0010
0000
0010
0000
,
0100
0001
0010
0100
2000
0000
0001
0000
,
0001
0000
3100
0010
0001
1000
0100
0010
,
0001
0002
1000
1003
,
0001
0010
0100
0010
0210
0000
1000
0000
,
1300
0000
0010
0100
0102
0000
0100
0000
,
0013
0000
0100
0001
0100
1000
0100
0010
,
1000
0000
0000
0001
0000
0000
0001
0000
0010
0000
0000
0000
0100
0000
0000
0000
,
0100
1000
0010
1000
0001
1000
0001
0000
,
0010
0001
1000
0100
2000
0000
3001
0000
,
0001
0010
0100
1000
0010
0100
0010
1000
,
0001
0012
0100
0100
,
0103
0000
0000
0000
0000
0000
0000
0000
2001
0000
0000
0000
0000
3000
0000
0000
,
0101
0001
2002
0000
,
0000
3003
0000
0000
;

//---------------dance-single - ----------------
#NOTES:
     dance-single:
     :
     Medium:
     4:
     0.234,0.248,0.117,0.189,0.000:
0000
0000
0000
0000
,
0000
0000
0000
0000
,
0000
0000
0000
0000
,
0000
0000
0000
0000
,
0000
0000
0000
2000
,
0000
0002
3000
0200
,
0003
0002
0300
2003
,
0000
0000
0200
0000
0000
3300
0000
0000
,
0000
1000
1001
0000
,
0100
0001
0010
0000
0200
0000
0000
0000
,
0300
0000
1000
0001
0010
0000
0001
0000
,
0000
0000
0100
0001
1000
0000
0010
0000
,
0100
0100
1001
0000
,
0100
0000
0001
0010
0100
0000
0000
0000
,
1000
0000
0001
0100
1000
0000
0000
0000
,
0000
1000
1100
0000
,
1000
0001
0110
0000
,
0010
0000
0000
0010
1000
0000
0000
0000
,
0001
0000
0000
0100
0001
0000
1000
0000
,
0001
0010
0200
0010
,
0310
0100
2002
0000
,
0000
3003
0200
0000
,
0010
0010
0020
0000
,
0000
0000
0330
0000
,
0000
1000
1001
0000
,
0001
0000
0001
0010
0100
0000
0000
0000
,
1000
0000
1000
0010
0100
0000
0000
0000
,
0000
0010
1001
0000
,
0100
0000
0100
0010
0001
0000
0000
0000
,
0001
0000
1000
0001
0010
0000
0100
0000
,
0100
0000
1000
0001
0010
0000
0000
0000
,
0100
0010
1001
0000
,
0100
0010
1000
0001
0001
0000
0000
0000
,
0100
0000
0001
0000
,
1000
0100
1000
0001
0010
0000
0000
0000
,
0001
0000
1000
0000
,
0100
0010
0220
0000
,
0000
0330
2000
0000
,
0001
0001
0002
0000
,
0000
0000
3003
0000
,
0000
0000
0000
0000
1001
0000
0010
0001
,
0100
0010
0100
0000
,
0001
0000
0010
1000
0100
0000
0000
0000
,
0100
0010
0110
0000
,
0001
0000
0000
0000
1000
0001
0100
0000
,
0000
0000
0001
0000
0001
1000
0100
0000
,
0000
1000
0001
0000
,
0000
1000
0001
0000
,
0010
0100
0100
0000
,
1000
0001
0001
0000
,
0001
1000
1000
0000
,
0010
0100
0010
0100
0010
0000
0000
0000
,
0000
1000
0020
0000
,
0000
0000
0030
0000
0220
0000
0000
0330
,
1000
0001
0220
0000
,
0000
0330
0000
0000
;

//---------------dance-single - ----------------
#NOTES:
     dance-single:
     :
     Easy:
     3:
     0.199,0.248,0.117,0.180,0.000:
0000
0000
0000
0000
,
0000
0000
0000
0000
,
0000
0000
0000
0000
,
0000
0000
0000
0000
,
0000
0020
0200
0000
,
0330
2000
0002
0000
,
3003
0020
0002
0000
,
0033
0200
2000
0000
,
3300
1000
1001
0000
,
0000
0100
1001
0000
,
0000
0001
0110
0000
,
0000
1000
0010
0000
,
0100
1000
0002
0000
,
0003
0100
1000
0000
,
0000
0010
0002
0000
,
0003
0100
1001
0000
,
1000
0001
0100
0000
,
0010
1000
0001
0000
,
0010
0100
0001
0000
,
0010
0100
1000
1000
,
0001
0100
0002
0000
,
0003
0000
2000
0000
,
3002
1000
2000
0000
,
0000
3003
0000
1000
,
0000
0000
0110
0100
,
1000
0001
0001
0000
,
0000
1000
0011
0000
,
0000
0001
1100
0000
,
1000
0001
1000
0000
,
0000
0010
0100
0000
,
0000
0001
0100
0000
,
0000
1000
0010
0000
,
0100
1000
0001
0000
,
0100
0000
0001
0000
,
1000
0000
0100
0000
,
1000
1000
0001
0001
,
0000
0010
0100
0000
,
0000
0000
2000
0000
,
0001
0001
0002
0000
,
0000
3003
1000
0000
,
0001
0000
0110
0000
,
0000
1000
0101
0000
,
0000
0001
1100
0000
,
0000
0010
1001
0000
,
0100
0100
1001
0000
,
0000
0010
0001
0000
,
0000
1000
0001
0000
,
0000
0100
1000
0000
,
0010
0001
1001
0001
,
0100
1000
0010
0001
,
0001
0100
1000
1000
,
0010
0001
1000
0001
,
0010
2000
0002
0000
,
0000
3003
0002
0000
,
0100
1000
2000
0000
,
0000
3003
0000
0000
;

//---------------dance-double - Copied from ----------------
#NOTES:
     dance-double:
     Copied from:
     Hard:
     6:
     0.395,0.397,0.270,0.288,0.009: // measure 1
00000000
00000000
00000000
00000000
,  // measure 2
00000000
00000000
00000000
00000000
,  // measure 3
00000000
00000000
00000000
00000000
,  // measure 4
00000000
00000000
00000000
00000000
,  // measure 5
00000000
00000000
00002000
00000000
00020000
00000000
00000000
00033000
,  // measure 6
00000000
00020000
02000000
00000000
,  // measure 7
03030000
00002000
00000020
00000000
,  // measure 8
00000000
00003030
00000000
00000000
00000200
00000000
00000000
00000000
00020000
00000000
00000000
00000000
00000000
00000000
00030300
00000000
,  // measure 9
00000000
00000000
00010000
00000000
00011000
00000000
00001000
01000000
,  // measure 10
00010000
00000000
00100000
00010000
20000000
00000000
01000000
00000000
,  // measure 11
00010000
30000000
00000000
00000000
00100000
00000000
00010000
00000000
10000000
00000000
00000000
00000000
12000000
00000000
00000000
00000000
,  // measure 12
00100000
00000000
00000000
03000000
00010000
00000000
00001000
00000000
00000020
00000000
00000000
00000000
00000100
00000000
00000000
00000000
,  // measure 13
00000001
00000000
00000000
00000000
00001000
00000000
00000000
00000000
00000002
00000030
00000000
00000000
00001000
00000000
00000000
00000000
,  // measure 14
00000103
00000000
00000010
00000001
00000100
00000000
00000201
00000000
,  // measure 15
00001000
00000000
00000010
00000301
00000200
00000000
00000001
00000000
,  // measure 16
00000001
00000300
00000000
00000000
00001000
00000000
00000100
00000000
00000020
00000000
00000000
00000000
00001030
00000000
00000000
00000000
,  // measure 17
00001000
00010000
01000000
10000000
00010000
00000000
00110000
00000000
,  // measure 18
00100000
00010000
10000000
01000000
00010000
00000000
00001000
00000000
,  // measure 19
00010000
01000000
10000000
00100000
10000000
00000000
00001000
00000010
,  // measure 20
00000100
00000100
00001000
00000100
00000001
00000100
00000010
00000001
,  // measure 21
00001000
00000100
00002002
00000000
,  // measure 22
00000000
00000000
00000000
00000000
00003003
00000000
00000000
00000000
00000202
00000000
00000000
00000000
00000000
00000303
00000000
00000000
,  // measure 23
00000011
00000000
00000101
00000000
00001000
00000100
00000010
00000000
,  // measure 24
00001000
00010000
01000000
00000000
20000000
00000000
00010000
00000000
,  // measure 25
00000000
00000000
00000000
00000000
00010000
30000000
00000000
00000000
10010000
00000000
00000000
00000000
01000000
00000000
00010000
00000000
,  // measure 26
10000000
00000000
00100000
00000000
11000000
00000000
00100000
00001000
,  // measure 27
00010000
00000000
01000000
00000000
00011000
00000000
00000100
00000010
,  // measure 28
00001000
00000000
00000001
00000100
00001000
00000000
00001001
00000000
,  // measure 29
00000010
00000000
00000000
00000001
00000000
00000000
00000100
00000000
00001000
00000000
00000000
00000000
00011000
00000000
00000000
00000000
,  // measure 30
00100000
01000000
00010000
00000000
00101000
00000000
00010000
01000000
,  // measure 31
00100000
00000000
00101000
00000000
01001000
00000000
00010000
00000100
,  // measure 32
00000010
00000000
00010100
00000000
00010010
00000000
00000000
00001000
,  // measure 33
00010000
00000000
00000000
01000000
00000000
00000000
10000000
00000000
00010000
00000000
00000000
00000000
00100000
00000000
00000000
00000000
,  // measure 34
01000000
10000000
00100000
00000000
01000000
00010000
00100000
00000000
,  // measure 35
01000000
00100000
00001000
00010000
01000000
00000000
00100000
00001000
,  // measure 36
00010000
00000010
00010000
00001000
00000100
00000001
00001000
00000100
,  // measure 37
00000001
00000100
00002002
00000000
,  // measure 38
00000000
00000000
00000000
00000000
00003003
00000000
00000000
00000000
00000022
00000000
00000000
00000000
00000000
00000033
00000000
00000000
,  // measure 39
00001100
00010010
00022000
00000000
,  // measure 40
00000000
00033000
00010000
00010000
,  // measure 41
00010000
00000000
00000000
00000000
10010000
00000000
00100000
00010000
,  // measure 42
01000000
00000000
00100000
10000000
01000000
00010000
01000000
00100000
,  // measure 43
00001000
00000000
00010000
01000000
00010000
00001000
00000010
00000001
,  // measure 44
00001000
00000000
00000001
00000100
00001000
00000000
00000100
00000000
,  // measure 45
00010000
00000000
00100000
01000000
00010000
00100000
01000000
00100000
,  // measure 46
00001000
00000000
10000000
01000000
00010000
00001000
00100000
01000000
,  // measure 47
00010000
00000000
10000000
01000000
00001000
00000100
00000001
00000100
,  // measure 48
00001000
00000000
00000001
00000100
00001000
01000000
10000000
01000000
,  // measure 49
00010000
00000000
10000000
00000000
10010000
00000000
00100000
00010000
,  // measure 50
10000000
01000000
00100000
00001000
00010000
00000000
00010000
00001000
,  // measure 51
00000010
00000100
00001000
00000001
00000100
00000000
00000010
00000001
,  // measure 52
00000100
00000001
00000010
00000100
00001000
00000010
00001000
00000100
,  // measure 53
00010000
00001000
22000000
00000000
,  // measure 54
00000000
00000000
00000000
00000000
33000000
00000000
00000000
00000000
00202000
00000000
00000000
00000000
00000000
00303000
00000000
00000000
,  // measure 55
01001000
00101000
00022000
00000000
,  // measure 56
00000000
00033000
00000000
00000000
;
