#TITLE:LASER LIGHT;
#SUBTITLE:(Eurobeat version);
#ARTIST:IVAN B.;
#TITLETRANSLIT:;
#SUBTITLETRANSLIT:;
#ARTISTTRANSLIT:;
#CREDIT:;
#BANNER:laserlight-bn.png;
#BACKGROUND:laserlight-bg.png;
#LYRICSPATH:laser light.lrc;
#CDTITLE:cdtitle.png;
#MUSIC:IVAN B. - LASER LIGHT (EUROBEAT VERSION).ogg;
#OFFSET:0.000;
#SAMPLESTART:47.274;
#SAMPLELENGTH:12.000;
#SELECTABLE:YES;
#BPMS:0.000=162.020;
#STOPS:;
#BGCHANGES:;

//---------------dance-single - ----------------
#NOTES:
     dance-single:
     :
     Hard:
     8:
     0.601,0.521,0.555,0.091,0.045:
0000
0000
0000
0000
,
0000
0000
0000
0000
,
0000
0000
0000
0000
,
0000
0000
0000
0000
,
1100
0000
2200
0000
0000
3300
0001
0000
,
1000
0001
0020
0030
,
0001
1000
0010
0000
0100
0010
1000
0000
,
0001
1000
0100
0000
0220
0000
0330
0000
,
1001
0001
0100
0010
0100
0000
0101
0000
,
0010
1000
0001
0100
0001
1000
0010
1000
,
0000
0100
0000
0001
0010
0001
1000
0000
,
0101
1100
0101
1100
,
0001
0001
1000
0010
0100
0010
1000
0000
,
0010
0010
0000
0001
0001
0100
0010
1000
,
0000
0100
0001
1000
0010
1000
0100
1000
,
1100
0101
1100
0101
,
0100
0010
0100
0001
0010
0000
0101
0000
,
0010
0001
1000
0100
0001
0100
1000
0001
,
0000
0001
0010
0100
0010
0001
0100
1000
,
0100
0001
0010
0100
0010
0001
0100
0000
,
1000
0100
0000
0010
0100
0000
2001
0000
,
0000
3001
0000
1000
0010
0100
0010
1000
,
0000
0001
1000
0100
0010
0100
1000
0010
,
0001
0010
1000
0100
0001
0100
1000
0000
,
0001
0010
0100
1000
0001
0010
0100
0000
,
1000
0100
0000
0000
0011
0000
0000
0000
1000
0100
0000
0000
0011
0000
0000
0000
,
0010
0010
0001
0001
0100
0100
1000
0000
,
1000
1000
0100
0100
0001
0001
0010
0000
,
0001
1000
0010
0100
0001
1000
0010
0000
,
1000
0010
0000
0000
0101
0000
0000
0000
1000
0010
0000
0000
0101
0000
0000
0000
,
1000
0001
0100
0001
0010
0100
1000
0000
,
0100
0100
0010
0010
1000
0001
0100
0000
,
1100
0000
0101
0000
1000
0100
0001
0000
,
0011
0000
1010
0000
1000
0010
0001
0000
,
1001
0000
1001
0000
0001
0100
1000
0000
,
0100
0100
0001
1000
0010
0100
0001
0000
,
0011
0000
1001
0000
1000
0100
0001
0000
,
1100
0000
1001
0000
0001
0010
1000
0000
,
0110
0000
1001
0000
0001
1000
0001
0000
,
0010
0001
1000
0010
0100
0010
0001
0000
,
0001
0000
1001
0000
0010
0100
0010
0000
,
0010
0000
0110
0000
0010
0001
0100
0000
,
0110
0000
0110
0000
0010
1000
0100
0000
,
0001
1000
0001
0100
1000
0001
1000
0000
,
0101
0000
1100
0000
0010
0001
0100
0000
,
0101
0000
1010
0000
0100
0001
0010
0000
,
1100
0000
0011
0000
0010
0001
1000
0000
,
1000
0001
1000
0100
0001
1000
0001
0000
,
1001
1000
0010
0100
0010
0000
1010
0000
,
0100
0001
1000
0010
1000
0001
0100
0001
,
0000
0010
0000
1000
0100
1000
0001
0000
,
1100
0101
1100
0101
,
1000
1000
0001
0100
0010
0100
0001
0000
,
0100
0100
0000
1000
1000
0010
0100
0001
,
0000
0010
1000
0001
0100
0001
0010
0001
,
0101
1100
0101
1100
,
0002
0000
0000
0000
0103
0000
0000
0100
1000
0000
1000
0000
0000
0000
0001
0000
,
0000
0000
0100
0000
0000
0000
0010
1000
0010
0000
0100
0001
0100
0000
0000
0000
,
0001
0000
0001
0000
1000
0100
0000
0010
,
0000
0000
0100
0000
0000
0000
1000
0001
1000
0000
0100
1000
0100
0000
0000
0000
,
1000
0000
0001
0000
0100
0010
0000
0100
,
0000
0001
0000
1000
1000
0000
0001
0000
,
1000
0100
0010
0000
0100
0010
0001
0000
,
0110
0000
1001
0000
0110
0000
0100
0100
,
0220
0000
0330
0000
;

//---------------dance-double - ----------------
#NOTES:
     dance-double:
     :
     Challenge:
     8:
     0.568,0.586,0.595,0.020,0.020: // measure 1
00000000
00000000
00000000
00000000
,  // measure 2
00000000
00000000
00000000
00000000
,  // measure 3
00000000
00000000
00000000
00000000
,  // measure 4
00000000
00000000
00000000
00000000
,  // measure 5
11000000
11000000
00010000
10000000
,  // measure 6
01000000
00100000
00000000
00010000
00000000
01000000
00000000
00000000
,  // measure 7
00001000
00010000
00001000
00000000
00000100
00000001
00000100
00000000
,  // measure 8
00000010
00001000
00000100
00000000
00000110
00000000
00000000
00000000
,  // measure 9
00000000
00000010
00000000
00000001
00001000
00000000
00001100
00000000
,  // measure 10
00000001
00000100
00000000
00001000
00010000
00001000
01000000
00001000
,  // measure 11
00000000
00010000
00000000
00001000
00100000
00000000
01000000
00000000
,  // measure 12
10100000
01010000
10100000
01010000
,  // measure 13
00100000
00000000
00000000
00001000
00010000
00000000
00011000
00000000
,  // measure 14
00000000
00001000
00000000
00000100
00000001
00001000
00000100
00000010
,  // measure 15
00000000
00000001
00000000
00001000
00000010
00000000
00000100
00000000
,  // measure 16
00001010
00000101
00001010
00000101
,  // measure 17
00001000
00000001
00000000
00000010
00000001
00000000
00000101
00000000
,  // measure 18
00000010
00000001
00000100
00001000
00010000
01000000
10000000
00100000
,  // measure 19
00000000
00100000
10000000
00010000
10000000
01000000
00010000
01000000
,  // measure 20
10000000
00010000
00100000
01000000
00010000
01000000
10000000
00000000
,  // measure 21
00010000
00001000
00000000
00001000
00000010
00000000
00000110
00000000
,  // measure 22
00000000
00000100
00000000
00001000
00000001
00000100
00001000
00000100
,  // measure 23
00000000
00000010
00000000
00001000
00000010
00000100
00000001
00000100
,  // measure 24
00001000
00000100
00000010
00001000
00000001
00000100
00001000
00000000
,  // measure 25
00000100
00000010
00001000
00000001
00000100
00000010
00001000
00000000
,  // measure 26
00000100
00000001
00000000
00000000
00000011
00000000
00000000
00000000
00000100
00001000
00000000
00000000
00001010
00000000
00000000
00000000
,  // measure 27
00001000
00010000
01000000
10000000
00100000
10000000
00010000
00000000
,  // measure 28
00100000
01000000
00010000
01000000
10000000
00100000
01000000
00000000
,  // measure 29
10000000
00100000
01000000
00010000
10000000
00100000
01000000
00000000
,  // measure 30
10000000
00100000
00000000
00000000
01010000
00000000
00000000
00000000
10000000
00100000
00000000
00000000
01010000
00000000
00000000
00000000
,  // measure 31
10000000
00100000
01000000
00010000
10000000
01000000
00100000
00000000
,  // measure 32
00001000
00010000
01000000
10000000
00010000
00010000
10000000
00000000
,  // measure 33
01100000
00000000
10010000
00000000
10000000
00100000
00010000
00000000
,  // measure 34
01001000
00000000
00011000
00000000
00001000
00000100
00000001
00000000
,  // measure 35
00001100
00000000
00000101
00000000
00000010
00000100
00001000
00000000
,  // measure 36
00000001
00000100
00001000
00010000
00000100
00000010
00001000
00000000
,  // measure 37
00011000
00000000
01010000
00000000
00010000
01000000
10000000
00000000
,  // measure 38
00010000
00000000
00011000
00000000
00010000
01000000
00100000
00000000
,  // measure 39
00001000
00000000
00011000
00000000
00001000
00000100
00000001
00000000
,  // measure 40
00001000
00000010
00001000
00000001
00000100
00000000
00000000
00000000
,  // measure 41
00001001
00000000
00001001
00000000
00000010
00000001
00001000
00000000
,  // measure 42
00000110
00000000
00001100
00000000
00010000
00001000
00010000
00000000
,  // measure 43
01100000
00000000
01010000
00000000
01000000
10000000
00010000
00000000
,  // measure 44
01100000
01000000
10000000
00000000
01100000
00010000
10000000
00000000
,  // measure 45
01100000
00000000
10010000
00000000
00100000
00001000
00010000
00000000
,  // measure 46
01000000
00000000
01100000
00000000
00010000
00001000
00000100
00000000
,  // measure 47
00000010
00000000
00000110
00000000
00000010
00001000
00000001
00000000
,  // measure 48
00000100
00001000
00000001
00000100
00001000
00000001
00000100
00000000
,  // measure 49
00000000
00001001
00000000
00000100
00000010
00000001
00000100
00000000
,  // measure 50
00000101
00000001
00000000
00000100
00001000
00010000
00000010
00001000
,  // measure 51
00000000
00000100
00000000
00000010
00001000
00100000
01000000
00000000
,  // measure 52
00011000
01001000
00010100
00011000
,  // measure 53
00101000
00001000
00000000
00010000
00001000
00000000
01100000
00000000
,  // measure 54
00000000
00100000
00000000
10000000
00100000
00010000
00100000
10000000
,  // measure 55
00000000
01000000
00000000
00010000
00001000
00010000
01000000
00000000
,  // measure 56
01100000
00011000
01010000
01100000
,  // measure 57
10000000
01000000
00010000
00000000
00001000
00010000
00000000
00001000
,  // measure 58
00000000
00000010
00000000
00000001
00001000
00000001
00000100
00001000
,  // measure 59
00010000
00000000
00001000
00000000
00000100
00000001
00000000
00000010
,  // measure 60
00000000
00000001
00000100
00001000
00010000
00001000
00000100
00000001
,  // measure 61
00001000
00000000
00000100
00000000
00000010
00001000
00000000
00001000
,  // measure 62
00000000
00010000
00000000
01000000
10000000
00010000
10000000
01000000
,  // measure 63
01010000
00000000
00010000
00001000
00011000
00000000
00010000
01000000
,  // measure 64
01100000
00000000
10010000
00000000
01100000
00000000
00010000
00010000
,  // measure 65
20020000
00000000
30030000
00000000
;

//---------------dance-single - ----------------
#NOTES:
     dance-single:
     :
     Easy:
     4:
     0.336,0.420,0.454,0.061,0.000:
0000
0000
0000
0000
,
0000
0000
0000
0000
,
0000
0000
0000
0000
,
0000
0000
0000
0000
,
1001
2002
0000
3003
,
0001
0000
1000
0000
,
0100
0000
0001
0000
,
0100
0100
0100
0000
,
0001
1000
0001
0001
,
0000
0001
1000
0001
,
0000
0100
0010
0000
,
0110
0110
0110
0110
,
0000
0010
0001
1000
,
0000
1000
0010
0001
,
0000
0100
0001
0000
,
1001
1001
1001
1001
,
0000
1000
0100
0001
,
0000
0001
0100
1000
,
0100
0001
1000
0010
,
0002
0010
0010
0013
,
0000
0001
0100
1000
,
0000
0010
1000
0001
,
0000
1000
0001
0200
,
0000
0000
0000
0300
,
1000
0100
0010
0001
,
1100
0000
1100
0000
,
0001
0100
0010
1000
,
1000
0010
0100
0000
,
0001
0100
0010
1000
,
0101
0000
0101
0000
,
0001
1000
0001
0010
,
0100
0100
1000
0000
,
1100
1100
0001
0000
,
0101
0101
0010
0000
,
0110
0110
1000
0000
,
0001
0100
1000
0100
,
1001
1001
0001
0000
,
0110
0110
0010
1000
,
1001
1001
0100
1000
,
0001
0100
0020
0030
,
1001
1001
0000
0000
,
0110
0110
0000
0000
,
1001
0110
0010
0000
,
0101
0000
1100
0000
,
1001
1001
0100
0010
,
0000
0100
1000
0001
,
0000
0100
0010
1000
,
0001
0010
0002
0000
,
1003
1000
0100
0001
,
0000
0001
0100
1000
,
0010
0001
1000
0001
,
0110
0110
0110
0110
,
0000
0001
0100
1000
,
0000
0010
1000
0100
,
0000
0010
0001
0100
,
1001
1001
1001
1001
,
0000
1000
0100
0001
,
0000
0001
0000
1000
,
0010
0100
0000
0001
,
0000
1000
0000
0100
,
0001
1000
0000
0010
,
0000
0100
0000
0001
,
1000
0000
0100
0000
,
0010
0001
0100
1000
,
1001
0000
0000
0000
;

//---------------dance-single - Copied from----------------
#NOTES:
     dance-single:
     Copied from:
     Medium:
     6:
     0.447,0.521,0.394,0.111,0.000:
0000
0000
0000
0000
,
0000
0000
0000
0000
,
0000
0000
0000
0000
,
0000
0000
0000
0000
,
1001
2002
0000
3003
,
1000
0000
0001
0000
,
1000
0100
0010
0000
0001
0100
0010
0000
,
0100
0001
1001
0000
,
0000
0001
0000
0001
0010
0000
0100
0000
,
0000
0010
0000
0100
1000
0001
1000
0001
,
0000
0001
0000
0100
0010
0000
0100
0000
,
1001
1001
1001
1001
,
0000
0010
0000
0001
0100
0000
0001
0000
,
0000
1000
0000
0100
1000
0001
1000
0001
,
0000
0100
0000
0010
0100
0000
0010
0000
,
0110
0110
0110
0110
,
0000
1000
0000
0001
0100
0000
0002
0000
,
0000
0000
0013
0000
1000
0001
0100
0000
,
0001
1000
0001
0010
,
0200
0010
0310
0000
,
0000
0100
0000
0100
1000
0000
0001
0000
,
0000
0100
0000
0010
0100
0000
0001
0000
,
0000
0001
0000
0001
1000
0000
2000
0000
,
0000
0000
3000
0000
,
1000
0100
0010
0000
0001
0010
0100
0000
,
1000
0011
1000
0011
,
0100
1000
0001
0000
0100
0010
0100
0000
,
0001
1000
0020
0030
,
0010
0001
0100
0000
0010
1000
0100
0000
,
0001
1010
0001
1010
,
1000
0001
0100
0000
0001
1000
0100
0000
,
0010
0001
0020
0030
,
0110
0000
0110
0000
1000
0100
0001
0000
,
0110
0000
0110
0000
0001
0100
1000
0000
,
0110
0000
0110
0000
0010
0100
1000
0000
,
1000
0001
1000
0000
0001
1000
0001
0000
,
0100
0000
1001
0000
0010
0010
1000
0000
,
0001
0000
0101
0000
0001
0001
0010
0000
,
0100
0000
1100
0000
0100
0100
1000
0000
,
0001
1000
0001
0010
0100
0000
0000
0000
,
0100
0110
0001
1000
,
0100
0000
0110
0000
0010
1000
0001
0000
,
0100
0000
1001
0000
0100
1000
0001
0000
,
0010
1000
0100
0001
1000
0001
1000
0000
,
0001
0000
0010
0000
0100
0010
0001
0000
,
1000
0000
0010
0000
0100
1000
0001
0000
,
0100
0000
0001
0000
1000
0001
1000
0000
,
0100
0000
0010
0000
0220
0000
0000
0330
,
1000
1000
0001
0100
,
0000
0010
0000
0010
1000
0000
0001
0000
,
0000
0010
0000
0100
0010
0000
0001
0000
,
1001
1001
0110
0110
,
0000
0001
0000
1000
0010
0000
0100
0000
,
0000
0010
0000
0010
1000
0000
1000
0001
,
0000
0010
0000
1000
0001
0000
0010
0000
,
0110
0110
1001
1001
,
0010
0000
0100
0000
0001
1000
0000
0001
,
0000
0100
0000
0000
0001
0000
1000
0000
,
0100
0000
0010
0000
0100
0010
0000
0100
,
0000
1000
0000
0001
1000
0000
0001
0000
,
0100
0000
0010
0000
1000
0001
0000
0100
,
0000
0100
0000
0001
1000
0000
0100
0000
,
0110
0000
1001
0000
,
0010
0010
0100
0100
,
2002
0000
3003
0000
;
