#TITLE:FINAL AUDITION;
#SUBTITLE:3 UF;
#ARTIST:BANYA;
#TITLETRANSLIT:;
#SUBTITLETRANSLIT:;
#ARTISTTRANSLIT:;
#CREDIT:;
#BANNER:FINAL.png;
#BACKGROUND:Copia de FINAL-BG.png;
#LYRICSPATH:final.lrc;
#CDTITLE:Copia (35) de Dance Mania (poi).png;
#MUSIC:final audition 3 UF.mp3;
#OFFSET:-0.754;
#SAMPLESTART:64.330;
#SAMPLELENGTH:21.000;
#SELECTABLE:YES;
#BPMS:0.000=261.000;
#STOPS:;
#BGCHANGES:;

//---------------dance-single - SMANIAC----------------
#NOTES:
     dance-single:
     SMANIAC:
     Challenge:
     10:
     0.802,0.881,0.155,0.019,0.000: // measure 1
0000
0000
0000
0000
,  // measure 2
0000
0000
0000
0000
,  // measure 3
0000
0000
0000
0000
,  // measure 4
0000
0000
0000
0000
,  // measure 5
0000
0000
0000
0000
,  // measure 6
1001
0000
0001
0000
1000
0000
0100
0010
,  // measure 7
0000
0010
0001
0000
0100
0000
0001
0000
,  // measure 8
1000
0000
0100
0000
0010
0000
0001
0100
,  // measure 9
0000
0100
0001
0000
0001
0000
0100
0000
,  // measure 10
0010
0000
1000
0000
0100
0000
0010
0100
,  // measure 11
0000
1000
0001
0000
0100
0000
0010
0000
,  // measure 12
1000
0000
0001
0000
0100
0000
0010
1000
,  // measure 13
0000
0010
0100
0000
0001
0000
0010
0000
,  // measure 14
0100
1000
0001
0100
,  // measure 15
0010
0100
0010
0000
1000
0000
0001
0000
,  // measure 16
0010
0100
1000
0001
,  // measure 17
0100
0001
0100
0000
0010
0000
1000
0000
,  // measure 18
0010
0100
0001
0010
,  // measure 19
0100
0010
0100
0000
1000
0000
0001
0000
,  // measure 20
0100
0010
1000
0010
,  // measure 21
0100
0001
0100
0000
0001
0000
0010
0000
,  // measure 22
0100
0000
1000
0000
0100
0000
0010
0100
,  // measure 23
0000
1000
0001
0000
0101
0000
1001
0000
,  // measure 24
0100
0000
0010
0000
1000
0000
0010
0100
,  // measure 25
0000
0001
0010
0000
0100
0000
1000
0000
,  // measure 26
0001
0000
0100
0000
0010
0000
1000
0010
,  // measure 27
1000
0001
1000
0010
1000
0001
1000
0000
,  // measure 28
2002
0000
0000
0000
,  // measure 29
0000
0000
0000
3003
,  // measure 30
0001
1000
0001
1000
0000
0010
0000
0010
,  // measure 31
1000
0010
0100
0001
,  // measure 32
0010
0100
0010
0100
0000
1000
0000
0001
,  // measure 33
0000
0100
0010
0100
0010
0000
1000
0000
,  // measure 34
0001
1000
0001
1000
0000
0001
0000
0010
,  // measure 35
0000
0100
0010
0100
0010
0000
0100
0000
,  // measure 36
1000
0001
1000
0001
0000
0100
0000
0010
,  // measure 37
0000
1000
0010
1000
0010
0000
0100
0000
,  // measure 38
0001
0000
0010
0000
0100
0000
1000
0100
,  // measure 39
0000
0010
0100
0000
1001
0000
0101
0000
,  // measure 40
0100
0000
0010
0000
1000
0000
0010
0100
,  // measure 41
0000
0001
0100
0000
1001
0000
1100
0000
,  // measure 42
0010
0000
0001
0000
0100
0000
0010
0100
,  // measure 43
0000
0100
0001
0000
0110
0000
1100
0000
,  // measure 44
0100
0000
0001
0000
1000
0000
0100
0010
,  // measure 45
0000
0010
0100
0000
1001
0000
0110
0000
,  // measure 46
1000
0000
0001
0000
0100
0000
0001
1000
,  // measure 47
0001
1000
0001
0000
0010
0000
0100
0000
,  // measure 48
1000
0000
0010
0000
0100
0000
0001
0100
,  // measure 49
0001
0100
0001
0000
0010
0000
0100
0000
,  // measure 50
1000
0000
0010
0000
1000
0000
0010
1000
,  // measure 51
0010
1000
0010
0000
0100
0000
0001
0000
,  // measure 52
0010
0000
0100
0000
0010
0000
0001
0010
,  // measure 53
0001
0010
0001
0000
0100
0000
0010
0000
,  // measure 54
1000
0000
0001
0000
0100
0000
0001
0010
,  // measure 55
0001
0010
0100
0000
1000
0000
0001
0000
,  // measure 56
0100
0000
0010
0000
1000
0000
1000
0010
,  // measure 57
1000
0010
0100
0000
0010
0000
0100
0000
,  // measure 58
0001
0000
0100
0000
0001
0000
0010
0100
,  // measure 59
0010
0100
1000
0000
0001
0000
0100
0000
,  // measure 60
0010
0000
1000
0000
0010
0000
0100
0001
,  // measure 61
0100
0001
0010
0000
0001
0000
0100
0000
,  // measure 62
0010
0000
1000
0000
0010
0000
0100
0001
,  // measure 63
0100
0001
0010
0000
0001
0000
0100
0000
,  // measure 64
0010
1000
0010
1000
0010
0000
0100
0001
,  // measure 65
0100
0001
0010
0000
0100
0000
0010
0000
,  // measure 66
0100
0010
0100
0010
0100
0000
1000
0000
,  // measure 67
0001
0010
0100
0010
,  // measure 68
1000
0100
0010
0001
,  // measure 69
1000
0100
0010
0001
,  // measure 70
1000
0100
0010
0001
0010
0100
1000
0100
,  // measure 71
1000
0100
0010
0001
0010
0001
0010
0100
,  // measure 72
1000
0100
0010
0001
0010
0100
1000
0100
,  // measure 73
0010
0001
0010
0100
1000
0001
1000
0000
,  // measure 74
0100
0001
0100
0010
1000
0010
0100
0001
,  // measure 75
0100
0010
1000
0010
0100
0001
0100
0010
,  // measure 76
1000
0010
1000
0010
0100
0001
0100
0010
,  // measure 77
1000
0010
0100
0001
1000
0001
1000
0000
,  // measure 78
1000
0100
0010
0001
0010
0100
1000
0100
,  // measure 79
0010
0001
0010
0100
1000
0100
0010
0001
,  // measure 80
0010
0100
1000
0100
0010
0001
0010
0100
,  // measure 81
1000
0100
0010
0001
0010
0100
1000
0100
,  // measure 82
0010
0001
0010
0100
1000
0100
0010
0001
,  // measure 83
0010
0100
1000
0100
0010
0001
0010
0100
,  // measure 84
1000
0100
0010
0001
0010
0001
0100
0010
,  // measure 85
1000
0001
0100
0000
0010
0000
1000
0000
,  // measure 86
0100
0010
0100
0000
1000
0001
1000
0000
,  // measure 87
0010
0100
0010
0000
1000
0000
0001
0000
,  // measure 88
0100
0010
0100
0000
0010
0000
1000
0000
,  // measure 89
0010
0100
0010
0000
0100
0000
0001
0000
,  // measure 90
0100
0001
0010
0100
1000
0100
0010
0100
,  // measure 91
0010
0001
0100
0010
1000
0010
0100
0001
,  // measure 92
1000
0100
1000
0100
0010
0100
0010
0001
,  // measure 93
0100
0010
1000
0010
0100
0001
1000
0000
,  // measure 94
0100
0000
0010
0000
0100
0000
1000
0001
,  // measure 95
0100
0001
1000
0100
0010
0001
0010
0100
,  // measure 96
1000
0100
0010
0001
0010
0100
1000
0100
,  // measure 97
0010
0001
0010
0100
1000
0100
1000
0001
,  // measure 98
0100
0010
1000
0010
0100
0001
0100
0001
,  // measure 99
1000
0010
1000
0010
1000
0010
0100
0001
,  // measure 100
0100
0001
0010
0001
0010
0100
1000
0100
,  // measure 101
0010
0001
0010
0100
1000
0001
0100
0000
,  // measure 102
1001
0000
0000
0110
0000
0000
1001
0000
,  // measure 103
0000
0100
0000
0000
0010
0000
0000
0000
,  // measure 104
1000
0000
0100
0000
0010
0001
0010
0000
,  // measure 105
0100
1000
0001
0100
,  // measure 106
0010
0100
0010
0000
1000
0000
0001
0000
,  // measure 107
0010
0100
0010
0000
0100
0000
1000
0000
,  // measure 108
1001
0000
0000
0000
;

//---------------dance-double - Copied from SMANIAC----------------
#NOTES:
     dance-double:
     Copied from SMANIAC:
     Challenge:
     10:
     0.740,0.881,0.068,0.019,0.000:
00000000
00000000
00000000
00000000
,
00000000
00000000
00000000
00000000
,
00000000
00000000
00000000
00000000
,
00000000
00000000
00000000
00000000
,
00000000
00000000
00000000
00000000
,
10010000
00000000
00100000
00000000
00010000
00000000
01000000
00001000
,
00000000
00010000
00000100
00000000
00001000
00000000
00000001
00000000
,
00000100
00000000
00000010
00000000
00001000
00000000
00000001
00000010
,
00000000
00000100
00001000
00000000
00000100
00000000
00010000
00000000
,
00001000
00000000
01000000
00000000
00001000
00000000
00100000
00001000
,
00000000
01000000
00001000
00000000
00010000
00000000
00001000
00000000
,
00100000
00000000
01000000
00000000
10000000
00000000
01000000
00100000
,
00000000
01000000
00100000
00000000
00010000
00000000
01000000
00000000
,
00001000
00000000
00010000
00000000
00000010
00000000
00000100
00000010
,
00001000
00000010
00000100
00000000
00000001
00000000
00000010
00000000
,
00000100
00000000
00001000
00000000
00000100
00000000
00010000
00001000
,
00000000
01000000
00001000
01000000
00001000
00000000
00100000
00000000
,
00010000
00000000
01000000
00000000
00100000
00000000
10000000
01000000
,
10000000
01000000
10000000
00000000
01000000
00000000
00100000
00000000
,
00001000
00010000
00000010
00000100
,
00000010
00001000
00000010
00000000
00000100
00000000
00000001
00000000
,
00000010
00000000
00000100
00000000
00010000
00000000
00001000
00010000
,
00001000
01000000
00100000
10000000
,
01000000
00000000
00010000
00000000
00001000
00000000
00100000
00001000
,
00100000
00001000
00010000
00000010
,
00000100
00000000
00000010
00000000
00001000
00000000
00000010
00000100
,
00000010
00001000
00000010
00000100
,
00002002
00000000
00000000
00000000
,
00000000
00000000
00000000
00003003
,
00001000
00000100
00001000
00000010
00000000
00000001
00000000
00000100
,
00000000
00000010
00001000
00000100
00001000
00000000
00000100
00000000
,
00010000
00001000
00010000
00001000
00000000
01000000
00000000
00100000
,
00000000
10000000
00010000
10000000
00010000
00000000
00100000
00000000
,
01000000
10000000
01000000
00100000
00000000
00001000
00000000
00010000
,
00000000
00000100
00001000
00000100
00001000
00000000
00000001
00000000
,
00000100
00000010
00000100
00000010
00000000
00001000
00000000
00000001
,
00000000
00000010
00000100
00000010
00000100
00000000
00010000
00000000
,
00001000
01000000
00001000
01000000
00001000
00000000
00100000
00000000
,
00010000
01000000
00010000
01000000
00010000
00000000
00100000
00000000
,
01000000
10000000
01000000
00100000
00001000
00000000
00010000
00000000
,
00000100
00001000
00000100
00000010
00000100
00000000
00010000
00000000
,
00001000
00010000
00001000
00010000
00001000
00000000
00100000
00000000
,
00010000
01000000
00100000
00000000
,
10000000
01000000
00010000
00001000
,
00000100
00000000
00000001
00000000
00000010
00000000
00001000
00010000
,
00000000
01000000
00000000
00100000
01000000
00000000
10000000
01000000
,
00000000
00100000
00001000
00000000
00010100
00000000
00010100
00000000
,
00000000
00001000
00000000
00000010
00000100
00000000
00000001
00000010
,
00000000
00000100
00001000
00000000
00000100
00000000
00010000
00000000
,
00001000
01000000
00000000
00001000
00100000
00000000
00001000
00010000
,
00000000
00000100
00010000
00000000
00001000
00000000
01000000
00000000
,
00001000
00100000
00000000
00010000
10000000
00000000
01000000
00100000
,
00000000
00000100
00001000
00000000
00000010
00000000
00000100
00000000
,
00000001
00000010
00000000
00001000
00010000
00000000
00100000
01000000
,
00000000
10000000
00010000
00000000
01000000
00000000
00001000
00000000
,
00010000
00001000
00000000
00000100
00000010
00000000
00001000
00000010
,
00000000
00000100
00000001
00000000
00000010
00000000
00000100
00000000
,
00010000
00001000
00010000
00001000
01000000
00000000
00100000
00000000
,
10000000
00010000
10000000
00010000
10000000
00000000
01000000
00000000
,
00010000
00001000
00010000
00001000
00010000
00000000
00000001
00000000
,
00000100
00000001
00000100
00000001
00001000
00000000
00000010
00000000
,
00000100
00000001
00000100
00000001
00000010
00000000
00000100
00000000
,
00010000
00001000
00010000
00001000
01000000
00000000
00100000
00000000
,
10000000
00010000
10000000
00010000
10000000
00000000
01000000
00000000
,
00010000
00000000
00001000
00010000
00001000
00000000
00010000
00000000
,
00000100
00000010
00000100
00000010
00000100
00000000
00001000
00000000
,
00000001
00000100
00000010
00001000
,
00000001
00000010
00001000
00010000
,
01000000
00100000
00010000
01000000
,
10000000
01000000
10000000
00000000
01000000
00100000
01000000
00000000
,
00010000
00001000
00010000
00000000
00000100
00000010
00000100
00000000
,
00001000
00000001
00001000
00000000
00000010
00000100
00000010
00000000
,
00001000
00000001
00001000
00000000
00000001
00000000
00001000
00000000
,
00000001
00000010
00001000
00010000
,
01000000
10000000
00100000
00010000
,
00001000
00000100
00000001
00000010
,
00001000
00010000
01000000
00100000
,
10000000
01000000
00100000
00010000
10000000
01000000
00100000
00010000
,
10000000
01000000
00100000
00010000
00100000
01000000
10000000
01000000
,
00100000
01000000
00100000
00010000
00100000
00010000
00100000
00010000
,
01000000
00010000
01000000
00001000
00010000
00001000
00010000
00000100
,
00001000
00000100
00000010
00000001
00001000
00000100
00000010
00000001
,
00000010
00000100
00001000
00000100
00000010
00000001
00000010
00000100
,
00001000
00000100
00000010
00000001
00000010
00000100
00001000
00000001
,
00001000
00000001
00000100
00000000
00000001
00000000
00000100
00000000
,
00000001
00000010
00001000
00010000
,
01000000
10000000
00100000
01000000
,
00010000
10000000
00010000
00000000
00100000
01000000
00100000
00000000
,
01000000
00010000
01000000
00000000
00010000
00001000
00010000
00000000
,
00000100
00001000
00000100
00000000
00000010
00000100
00000010
00000000
,
00000001
00001000
00000001
00000000
00000100
00000010
00000100
00000000
,
00000001
00001000
00000001
00000000
00000010
00000100
00000010
00000000
,
00000100
00001000
00000100
00000000
00010000
00001000
00010000
00000000
,
01000000
00001000
01000000
00000000
00010000
00100000
00010000
00000000
,
10000000
01000000
10000000
00000000
01000000
00010000
01000000
00000000
,
00100000
00001000
00100000
00000000
00001000
00010000
00001000
00000000
,
00010000
00000100
00010000
00000000
00000010
00001000
00000010
00000000
,
00000100
00000001
00000100
00000000
00000001
00000010
00000001
00000000
,
00000010
00000100
00000010
00000000
00001000
00010000
00001000
00000000
,
01000000
00100000
01000000
00000000
00010000
10000000
00010000
00000000
,
00100000
01000000
00100000
00000000
10010000
00000000
00000000
00000000
,
00100000
00000000
00000000
10000000
00000000
00000000
01000000
00000000
,
00000000
00010000
00010100
00000000
,
00001000
00000010
00000100
00000001
,
00000010
00000000
00001000
00000010
00001000
00000000
00010000
00000000
,
01000000
00000000
00100000
00000000
00010000
01000000
00010000
00000000
,
10000000
00100000
01000000
00010000
,
10010000
00000000
00000000
00000000
,;
