#TITLE:DON'T STOP ME NOW;
#SUBTITLE:;
#ARTIST:Italo-Speed;
#TITLETRANSLIT:;
#SUBTITLETRANSLIT:;
#ARTISTTRANSLIT:;
#CREDIT:;
#BANNER:don't stop me now-bN.png;
#BACKGROUND:don't stop me now-bg.png;
#LYRICSPATH:;
#CDTITLE:cdtitle.png;
#MUSIC:DON'T STOP ME NOW.ogg;
#OFFSET:-0.129;
#SAMPLESTART:11.860;
#SAMPLELENGTH:11.900;
#SELECTABLE:NO;
#BPMS:0.000=160.750;
#STOPS:;
#BGCHANGES:;

//---------------dance-single - ----------------
#NOTES:
     dance-single:
     :
     Hard:
     9:
     0.668,0.676,0.409,0.086,0.328:
0000
0000
0000
0000
,
0000
0000
0000
0000
,
0000
0000
0000
0000
,
0000
0000
0000
0000
,
0010
0100
0000
0010
0000
0100
0000
0010
0100
0000
0010
0000
0001
0000
1000
0000
,
0001
1000
0000
0001
0000
0100
0000
0010
1000
0000
1000
0000
0001
0000
0100
0000
,
0010
0100
0000
0001
0000
0001
0000
1000
0100
0000
0010
0000
0100
0000
1000
0100
,
1000
0000
0000
0001
0000
0000
0010
0000
1000
0000
0000
0100
0000
0000
0001
0000
,
1001
0000
0010
0001
0100
1000
0100
0010
,
1000
0000
1000
0001
0100
0001
1000
0100
,
0001
0010
0001
0010
1000
0100
1000
0100
,
1000
0010
0001
0100
0001
0100
0001
0101
,
0000
0001
0000
0000
0001
0000
0000
0000
0100
0000
0001
0000
1000
0000
0010
0000
,
1010
0000
0010
0010
1000
0001
0010
1000
,
0000
0000
0000
0100
1000
0001
0010
0100
,
0000
0110
0000
0000
0000
0010
0001
1000
,
2200
0000
3300
0022
0000
0033
0202
0000
,
0303
2020
0000
3030
1001
0000
0100
1000
,
0001
1000
0000
0001
0100
0000
0001
0000
0010
0000
0001
0000
1000
0000
0010
0000
,
0010
1000
0001
0100
1000
0010
1000
0010
,
1000
0100
0001
0100
0001
0010
1000
0100
,
1000
0100
1000
1000
0100
0010
0001
0010
,
0001
0010
0001
0000
1000
0000
0100
0000
0010
0000
0100
0000
0000
0000
0110
0000
,
0000
0000
0000
0100
1000
0001
0100
0010
,
0110
0001
0100
1000
0010
0001
0000
1100
,
0000
0000
0000
0100
0010
0100
1000
0001
,
0101
0001
1001
0100
1100
1000
1001
0110
,
1001
0000
0000
0100
0100
0010
0010
0000
,
0110
0000
0000
0110
0000
0001
0000
1001
,
0000
0001
0010
0100
0010
0001
1000
0100
,
1000
0010
0100
0000
0101
0000
0010
0010
,
1000
0100
1000
0010
0001
1000
0100
0010
,
0110
0000
0000
1100
0000
0011
0000
0101
,
0000
0001
0001
1000
0100
1000
0010
0001
,
1000
0100
0010
0000
1000
0010
0100
0001
,
0001
0100
1000
0010
0000
0010
1000
0001
,
0101
0000
0000
1010
0000
0101
0000
0001
,
0001
0010
1000
0100
0001
0010
0100
1000
,
1100
0000
0000
1001
0000
0011
0001
1000
,
0100
0010
0100
1000
0010
0100
0001
0000
,
0101
0000
1010
0000
0010
0100
0010
0100
,
0001
1000
0001
1000
0100
0010
0100
0010
,
0100
1000
0100
1000
0100
1000
0100
0000
1000
0000
1000
0000
1000
0000
0000
0000
,
1000
0001
0000
1000
0000
0001
0000
1000
0001
0000
0000
0000
0100
0000
0010
0000
,
0100
0010
0000
0100
0000
0010
0000
0100
0010
0000
0100
0000
0001
0000
0000
0000
,
1000
0001
0000
1000
0000
0001
0000
1000
0001
0000
0000
0000
0100
0000
0000
0000
,
0010
0000
0000
0010
0000
0000
0100
0000
0100
0000
0000
0001
0000
0000
1000
0000
,
0100
1000
0000
0100
0000
0100
0000
1000
0100
0000
0000
0000
0000
0000
0010
0000
,
0010
0001
0000
0001
0000
0100
0000
0001
0100
0000
0001
0000
0100
0000
0000
0000
,
0010
0000
0000
0010
0000
1000
0000
0001
1000
0000
0000
0000
0000
0000
0001
0100
,
0001
0000
0000
1000
0000
0000
1000
0000
0000
0000
0100
0000
0100
0000
0000
0000
,
0100
0001
0000
0100
0000
0001
1000
0000
0001
0000
0100
0000
0010
0000
0001
0000
,
0100
0001
1000
0010
0010
1000
0010
0100
,
0001
1000
0000
0001
0000
1000
0010
0000
1000
0000
0001
0000
0100
0000
1000
0000
,
0001
1000
0010
0100
0100
0001
1000
1000
,
0010
1000
0000
0010
0000
1000
0001
0000
1000
0000
0010
0000
0100
0000
1000
0000
,
0010
1000
0001
0010
0010
1000
0001
0100
,
1000
0100
0000
1000
0000
0100
0010
0000
0100
0000
1000
0000
0001
0000
0100
0000
,
1000
0100
0010
0001
0010
0010
0100
0000
,
1001
0000
0000
1100
0000
1001
0000
0011
;

//---------------dance-single - ----------------
#NOTES:
     dance-single:
     :
     Medium:
     6:
     0.491,0.515,0.376,0.118,0.000:
0000
0000
0000
0000
,
0000
0000
0000
0000
,
0000
0000
0000
0000
,
0000
0000
0000
0000
,
1000
0000
0001
0010
0200
0000
1000
0000
,
1300
0000
0001
0010
0002
0000
0100
0000
,
0103
0000
0001
2000
0000
0010
0100
3000
,
0100
0000
1000
0001
0010
0000
0100
0000
,
1001
0000
0001
0000
1000
0010
0100
0000
,
0002
0000
0000
0000
1003
0000
0010
0100
,
0010
0000
0100
0000
1000
0001
0010
0000
,
0100
0000
1000
0000
0001
0010
0100
1000
,
0001
0010
0100
1000
0001
0000
1000
1000
,
1000
0001
0100
0010
,
0100
0000
0000
0001
0001
1000
1000
0001
,
0000
0001
0000
0000
0100
0000
0010
0000
,
0110
0000
0000
1001
0000
0000
1100
0000
,
0000
0011
0000
0000
0101
0000
0001
0000
,
1000
0001
0100
1000
,
0010
1000
0010
0000
0100
0000
0002
0000
,
0010
0100
2000
3003
,
0001
2000
0010
0001
,
3100
0000
1000
0001
1000
0100
0000
0010
,
0000
0000
0000
0100
1000
0100
1000
0000
,
0001
0010
0001
0010
0001
0100
0000
0001
,
0000
0100
0000
0001
1000
0001
1000
0000
,
1010
0000
0110
0000
0101
0000
0011
0100
,
2000
0000
0000
0000
0000
0001
0001
3000
,
1001
0000
0000
0101
0000
1001
0000
0010
,
0000
0000
1000
0000
0100
0010
0100
0010
,
0001
1000
0100
1000
,
0010
1000
0001
0100
0000
1010
1000
0000
,
1100
0000
0000
1001
0000
0101
0000
1001
,
0000
0000
0010
1000
0001
0010
0100
0010
,
0001
1000
0100
0000
1000
0000
0010
0000
,
0100
0100
1000
0001
0000
0101
0000
0000
,
1010
0000
0000
0101
0000
1001
0000
0001
,
0010
0100
1000
0001
0000
0010
0000
0000
,
1100
0000
0000
0110
0000
0011
0000
0001
,
0100
0001
1000
0010
0000
1010
0000
0010
,
1000
0000
1001
0000
0001
0100
0001
0100
,
0010
1000
0010
1000
0001
0010
1000
0100
,
0001
1000
0001
1000
0000
0001
0010
0000
,
0110
0000
0100
1000
0001
0000
0100
0000
,
0110
0000
0010
1000
0010
0100
0001
0000
,
0101
0000
0001
1000
0100
0000
0010
0000
,
1000
0100
0010
0000
0001
0010
0100
0000
,
0110
0000
0100
1000
0001
0000
0100
0000
,
0010
1000
0001
0000
0100
0000
1000
0000
,
0100
1000
0001
0000
0100
0000
0000
0001
,
0101
0100
1000
0000
0010
0100
0001
0000
,
0001
1000
0001
0000
0010
0000
0100
1000
,
0001
0000
0100
0000
0010
1000
0001
0000
,
0100
0110
0001
1000
,
0100
0000
1000
0000
0010
1000
0100
0000
,
1001
0000
0001
0000
0010
0000
1000
0100
,
0001
0010
1000
0010
,
0001
0010
1000
0000
0100
0000
1000
0000
,
0002
0000
0203
0000
0020
0300
0030
0000
,
1001
0000
0000
0100
0000
1000
0000
0001
;

//---------------dance-single - ----------------
#NOTES:
     dance-single:
     :
     Easy:
     4:
     0.313,0.355,0.194,0.237,0.000:
0000
0000
0000
0000
,
0000
0000
0000
0000
,
0000
0000
0000
0000
,
0000
0000
0000
0000
,
1000
0001
0020
0000
,
0130
1000
0001
0200
,
0000
0310
1000
0000
,
0001
0000
1000
0000
,
0101
0001
0001
0001
,
0002
0000
0000
0000
,
0003
0000
1000
0001
,
0010
1000
0100
0010
,
2000
0100
3100
0000
,
1000
0001
0100
1000
,
2000
0000
0010
0100
,
0010
3100
0000
0000
,
1001
0000
0100
0000
,
0010
0000
1000
0001
,
0010
0000
0001
0000
,
0010
0001
0100
0010
,
1000
0100
0010
0000
,
0001
0100
0010
1000
,
0001
0010
0100
1000
,
0001
0000
1000
0010
,
0001
0100
1000
0001
,
0010
0000
0100
1000
,
0010
0010
0010
0010
,
2002
0000
0000
3003
,
0101
0000
0010
1000
,
0001
0010
1000
0100
,
0001
0010
0000
1000
,
0010
1000
0001
0100
,
0101
1010
0000
0001
,
1000
0010
0100
1000
,
0001
0010
0000
1000
,
0100
0001
0010
1000
,
1002
0000
0010
0103
,
0001
1000
0010
0100
,
2001
0000
0010
3100
,
0001
1000
0010
0000
,
0100
0001
1000
1000
,
0002
0000
0000
0000
,
1000
1000
0000
1003
,
1001
0000
0000
0000
,
0220
0000
0000
0330
,
2002
0000
0000
3003
,
0020
0000
0200
0330
,
2002
0000
0000
3003
,
2000
0000
0020
3030
,
0202
0000
0300
0003
,
0100
0001
0000
1000
,
1100
0001
0100
0000
,
0101
1000
0100
0000
,
0011
1000
0010
0000
,
0101
0010
1000
0001
,
0100
0001
0010
0010
,
1000
0100
0001
0001
,
1000
0010
0100
1000
,
1000
0001
0100
0010
,
1001
0000
0100
0000
,
0010
0000
0000
0000
;

//---------------dance-double - Copied from----------------
#NOTES:
     dance-double:
     Copied from:
     Hard:
     8:
     0.620,0.708,0.591,0.086,0.000: // measure 1
00000000
00000000
00000000
00000000
,  // measure 2
00000000
00000000
00000000
00000000
,  // measure 3
00000000
00000000
00000000
00000000
,  // measure 4
00000000
00000000
00000000
00000000
,  // measure 5
00100000
00001000
00010000
00001000
00010000
00000000
00000100
00001000
,  // measure 6
00000001
00000100
00000010
00000100
00001000
00010000
00001000
00000000
,  // measure 7
01000000
00001000
00010000
01000000
10000000
00000000
00100000
10000000
,  // measure 8
01000000
00000000
00100000
00001000
00000000
00010000
00001000
00000000
,  // measure 9
00011000
00000000
00001000
00000100
00000001
00001000
00000010
00000100
,  // measure 10
00000001
00000100
00000001
00000010
00000100
00001000
00000010
00010000
,  // measure 11
00001000
00100000
00010000
01000000
00100000
10000000
01000000
00100000
,  // measure 12
00000000
00011000
00000000
00000010
00000100
00000001
00000000
00001000
,  // measure 13
00000000
00001000
00001000
00000000
00000101
00000000
00000001
00001000
,  // measure 14
00000001
00000100
00000010
00000100
00001000
00010000
00001000
00100000
,  // measure 15
00000000
00010000
01000000
00001000
00010000
01000000
00100000
00001000
,  // measure 16
00000000
00011000
00000000
00000000
00000000
00001000
00000100
00000001
,  // measure 17
00002002
00000000
00003003
00000202
00000000
00000303
00000022
00000000
,  // measure 18
00000033
00002200
00000000
00003300
00010100
00001000
01000000
00000000
,  // measure 19
01000000
00100000
01000000
00010000
10000000
00010000
10000000
01000000
,  // measure 20
00100000
00001000
00010000
01000000
00000000
11000000
00000000
00110000
,  // measure 21
00000000
01000000
00001000
00010000
00000010
00000100
00000001
00000000
,  // measure 22
00001000
00000010
00000100
00000001
00000000
00001001
00000000
00000001
,  // measure 23
00000010
00000100
00001000
00000010
00010000
00001000
00000000
00101000
,  // measure 24
00000000
00010000
00010000
00001000
01000000
00100000
01000000
00000000
,  // measure 25
00001000
00001000
00000100
00000001
00001000
00000100
00000000
00000110
,  // measure 26
00000000
00000000
00000000
00001000
00100000
01000000
10000000
00010000
,  // measure 27
00110000
00000000
00011000
00001000
00000110
00000001
00001001
00001001
,  // measure 28
00000000
00000101
00000101
00000000
00000000
00001100
00001100
00000000
,  // measure 29
00001001
00000000
00000000
00000101
00000000
00000011
00000000
00000011
,  // measure 30
00000000
00000001
00001000
00000100
00000010
00000100
00001000
00000010
,  // measure 31
00010000
00001000
00100000
00010000
01000000
10000000
01000000
00100000
,  // measure 32
10000000
00010000
01000000
00100000
10000000
00010000
00100000
00000000
,  // measure 33
01100000
00000000
00000000
10010000
00000000
01100000
00000000
10010000
,  // measure 34
10010000
00010000
01000000
00010000
00100000
01000000
10000000
00100000
,  // measure 35
10000000
01000000
00100000
00000000
00101000
00000000
00010000
00000000
,  // measure 36
00000100
00010000
00001000
01000000
00000000
00010000
00001000
00000000
,  // measure 37
00000110
00000000
00000000
00001001
00000000
00000101
00000000
00000001
,  // measure 38
00000010
00000001
00000100
00001000
00010000
00001000
00100000
00000000
,  // measure 39
00110000
00000000
00000000
01100000
00000000
11000000
01000000
00100000
,  // measure 40
00010000
10000000
01000000
00100000
00000000
00101000
00000000
00010000
,  // measure 41
00001000
00000000
01000000
00000000
00001000
00010000
00001000
00000100
,  // measure 42
00000001
00001000
00000100
00000010
00000100
00001000
00000010
00010000
,  // measure 43
00001000
00100000
00010000
01000000
00100000
01000000
01000000
00000000
,  // measure 44
00100000
01000000
00100000
10000000
00010000
00000000
00101000
00000000
,  // measure 45
01000000
00001000
00010000
00000010
00000100
00000000
00001001
00000000
,  // measure 46
00000100
00010000
00001000
00100000
01000000
00000000
00011000
00000000
,  // measure 47
00000010
00000100
00000001
00001000
,  // measure 48
00001100
00000100
00010000
00001000
01000000
00000000
01100000
00000000
,  // measure 49
00010000
10000000
01000000
00100000
00001000
00010000
01000000
00000000
,  // measure 50
11000000
00000000
00100000
00001000
00010000
00000000
00000010
00000100
,  // measure 51
00000001
00000000
00001000
00010000
00000000
10000000
01000000
00000000
,  // measure 52
01100000
00000000
00010000
00001000
00010000
01000000
10000000
01000000
,  // measure 53
10000000
01000000
00100000
00001000
00010000
01000000
00010000
00000000
,  // measure 54
00011000
00000000
00001000
00000010
00000001
00001000
00000001
00000100
,  // measure 55
00001000
00000000
00010000
00001000
00100000
00000000
00011000
00000000
,  // measure 56
00000010
00000100
00000001
00001000
00000100
00000000
00000110
00000000
,  // measure 57
00001000
00010000
00001000
00100000
01000000
00010000
01000000
00000000
,  // measure 58
11000000
00000000
00010000
00100000
00001000
00000000
00010000
00001000
,  // measure 59
01000000
00100000
01000000
00001000
00010000
01000000
10000000
00000000
,  // measure 60
10010000
00000000
00000000
00101000
00000000
00010010
00000000
00000101
;
