#TITLE:DON'T MATTER;
#SUBTITLE:;
#ARTIST:DB;
#TITLETRANSLIT:;
#SUBTITLETRANSLIT:;
#ARTISTTRANSLIT:;
#CREDIT:;
#BANNER:don't matter-bn.png;
#BACKGROUND:don't matter-bg.png;
#LYRICSPATH:;
#CDTITLE:cdtitle.png;
#MUSIC:DON'T MATTER.ogg;
#OFFSET:-0.029;
#SAMPLESTART:14.260;
#SAMPLELENGTH:11.900;
#SELECTABLE:NO;
#BPMS:0.000=140.000;
#STOPS:;
#BGCHANGES:;

//---------------dance-single - ----------------
#NOTES:
     dance-single:
     :
     Hard:
     8:
     0.551,0.532,0.130,0.000,0.195:
0000
0000
0000
0000
,
0000
0000
0000
0000
,
0000
0000
0000
0000
,
0000
0000
0000
0000
,
0001
0000
0000
1000
0000
0000
0010
0000
0100
0010
0100
0000
0001
0000
1000
0000
,
0010
0000
0000
0010
0000
0000
1000
0000
0001
0010
0001
0000
0100
0000
0001
0000
,
1000
0000
0000
1000
0000
0000
0001
0000
0010
0100
0010
0000
0100
0000
1000
0000
,
0001
0000
0000
0001
0000
0000
0100
0000
0010
0100
0010
0000
1000
0000
0001
0000
,
1001
0000
0100
0001
0010
0100
1000
0010
,
1000
0100
0010
0001
1000
0001
0010
0000
,
1000
0001
0100
1000
0001
0100
0001
1000
,
0001
0000
0100
0000
0001
0000
1000
0000
0010
0000
0000
0010
0000
0000
0010
0000
,
0100
0000
0100
0001
0010
0001
0100
0001
,
0010
0001
0100
0010
1000
0100
1000
0010
,
1000
0100
1000
0010
0000
0010
0100
0010
,
0000
0010
0100
0000
0001
0000
1000
0000
,
1001
0001
0100
0001
1000
0010
1000
0001
,
1000
0000
0001
1000
0001
0000
0010
0000
0100
0000
0010
0000
0001
0000
1000
0000
,
0001
0000
1000
0001
1000
0000
0100
0000
0100
0000
1000
0000
0001
0000
0001
0000
,
0010
0000
0001
0000
0001
0000
0000
0000
0100
0000
0001
0000
0100
0000
0001
0100
,
0001
0000
1000
0000
0010
0000
1000
0010
1000
0000
0001
0000
0100
0000
0001
0000
,
0100
0000
0001
0000
1000
0000
0100
0000
1000
0000
0000
0000
1000
0000
1000
0100
,
0010
0100
1000
0000
0001
0000
0000
0100
0001
0000
0000
0100
0001
0000
0000
1000
,
0001
0000
0000
0100
0001
0000
0000
1000
0001
0000
0000
0000
0100
0000
0010
0000
,
0110
0000
0101
0000
0010
0010
1000
0001
,
1000
0000
1100
0000
0001
0000
1000
1000
,
0010
0000
0010
0100
0000
0010
0100
0000
0001
0000
0001
0000
0100
0000
0001
0000
,
1000
0000
0100
0000
0000
1000
0001
0010
,
0001
0000
1001
0000
0000
0100
1000
1000
,
0010
0000
0011
0000
0000
0001
0001
1000
,
0010
0100
0010
0100
1000
0100
0001
0100
,
0001
0000
0100
0100
0000
0010
0010
1000
,
1001
0000
0100
0001
0010
0100
1000
0010
,
1000
0100
0010
0001
1000
0000
1000
0000
,
0001
0010
0100
1000
0010
0100
0001
1000
,
0010
0000
0100
0000
0001
0000
0000
0000
0100
0000
0000
0100
0000
0000
0010
0000
,
1001
0000
0100
0001
0010
0100
1000
0010
,
1000
0100
0010
0001
0010
0001
0100
0001
,
0010
0001
0100
0010
1000
0100
1000
0010
,
1000
0000
0100
0000
1000
0000
0000
0000
0010
0000
0000
0010
0000
0000
0100
0000
,
1001
0000
0100
0001
0010
0001
1000
0000
,
0001
0000
0100
0010
1000
0001
0100
0001
,
0100
0000
0010
0000
1000
0010
1000
0010
,
0001
0010
0001
0100
0001
0100
1000
0100
,
1001
0000
0000
0010
0001
1000
0100
0010
,
0010
1000
0001
0100
0000
0010
0010
0000
,
0100
0001
0100
0010
0000
0010
1000
0001
,
0000
0000
0001
0000
0100
0000
0010
0000
0010
0000
0000
0010
0000
0000
0010
0000
,
1001
0000
0000
0000
0100
0000
0001
0000
1000
0001
1000
0000
0001
0000
0010
0000
,
0100
0000
0000
0100
0000
0000
1000
0000
0001
1000
0001
0000
0100
0000
0010
0000
,
0100
0000
0000
0100
0000
0000
0001
0000
0100
0001
0100
0000
0001
0000
1000
0000
,
0010
0000
0000
0010
0000
0000
0010
0000
1000
0000
0000
1000
0000
0000
0100
0000
,
1000
0000
0000
1000
0000
0000
0001
0000
0010
0001
0010
0000
0001
0000
1000
0000
,
0100
0000
0000
0100
0000
0000
1000
0000
0001
1000
0001
0000
0100
0000
0010
0000
,
0100
0000
0000
0100
0000
0000
0001
0000
1000
0010
1000
0000
0010
0000
0100
0000
,
0001
0000
0000
0001
0000
0000
1000
0000
0010
0000
0100
0000
0001
0000
0010
0000
,
0110
0000
0000
0000
;

//---------------dance-single - ----------------
#NOTES:
     dance-single:
     :
     Medium:
     5:
     0.376,0.392,0.300,0.090,0.000:
0000
0000
0000
0000
,
0000
0000
0000
0000
,
0000
0000
0000
0000
,
0000
0000
0000
0000
,
1000
0000
0001
0000
0002
0000
0000
0003
,
1000
0010
0100
0200
,
0301
1000
1001
0000
,
1100
1001
0101
1001
,
2002
0000
0003
3000
0100
0000
0001
0000
,
0010
0100
1000
0000
0010
0000
0001
0000
,
0001
0100
0010
0000
1000
0000
0001
0000
,
0010
0000
0000
0000
1000
0000
0001
1000
,
1001
0000
0010
0100
,
1000
0100
0001
0000
0010
0000
0001
0000
,
0001
0010
1000
0000
0100
0000
1000
0000
,
1001
1001
1001
0010
,
1001
0000
0100
0001
,
0010
1000
0001
0000
0100
0000
0010
0000
,
0002
0000
1000
0000
0010
0003
0100
0001
,
0010
0000
0100
0000
0100
2000
0010
0000
,
3100
0000
1100
0000
0010
0000
0002
0100
,
1000
0003
0010
0000
1001
0000
2000
0000
,
0100
3001
0001
0000
0010
0001
1000
0000
,
0100
0000
0020
0000
0000
0030
0100
0000
,
1001
0000
1001
0000
0000
0000
0001
0100
,
1000
0000
1000
0000
0000
0000
1000
0100
,
0010
0000
0001
0000
0100
0000
0010
1000
,
0001
0000
0101
0000
0000
0001
0001
1000
,
0010
0000
0110
0000
0000
0010
0010
1000
,
0001
0000
0101
0000
0000
0100
0100
0000
,
1000
0000
0001
0000
0010
0000
1000
0100
,
0010
0000
0001
0000
1000
0000
0010
0100
,
0110
0000
0000
0000
0001
1000
0100
0000
,
1000
0000
0010
0000
0001
0010
1000
0000
,
0100
0000
1000
0001
0010
0000
0100
0000
,
1000
0000
0000
0000
0010
0000
0001
1000
,
1001
0000
0100
0000
0010
0001
1000
0000
,
0010
0000
0100
0000
1000
0001
0100
0000
,
0001
1000
0100
0000
1000
0000
0001
0000
,
0100
0000
0110
0001
,
1001
0000
0000
0000
0010
0001
1000
0000
,
1100
0000
0000
0000
0100
1000
0001
0000
,
0010
0000
0000
0000
0010
0100
1000
0000
,
0001
0000
0100
0000
0010
1000
0001
0000
,
0101
0000
0000
0000
0001
0000
0001
1000
,
0010
0100
1001
0000
,
0100
0100
1000
0000
0001
0001
0100
0000
,
0010
1000
0000
0001
,
1001
0000
0000
0000
0010
0001
1000
0000
,
0100
0000
1000
0000
1000
0001
0010
0000
,
0100
0000
0000
0000
0100
0010
0001
0000
,
1000
0000
0000
0000
0010
0100
0001
0000
,
0001
0000
0000
0000
0001
1000
0100
0000
,
1000
0000
0000
0000
0010
1000
0001
0000
,
1000
0000
0000
0000
0010
1000
0001
0000
,
0101
1100
1001
0100
,
1001
0000
0000
0000
;

//---------------dance-single - ----------------
#NOTES:
     dance-single:
     :
     Easy:
     3:
     0.251,0.280,0.060,0.070,0.000:
0000
0000
0000
0000
,
0000
0000
0000
0000
,
0000
0000
0000
0000
,
0000
0000
0000
0000
,
1000
0001
0002
0003
,
1000
0010
0100
0100
,
0002
0000
2000
3003
,
0100
0100
0100
0010
,
0220
0330
0100
1000
,
0001
0100
0100
0000
,
0001
0000
1000
0000
,
0100
0001
0010
0010
,
1001
0000
0010
1000
,
0001
0000
0100
1000
,
0001
0000
0010
0000
,
0001
0001
0000
0000
,
1001
0000
0001
0100
,
1000
0000
0010
1000
,
0001
0000
0100
1000
,
0001
0001
0000
0010
,
0001
1000
0000
0100
,
1000
0010
0000
0010
,
0001
0100
1000
0010
,
0001
1000
0001
0010
,
0100
0100
0000
1000
,
0010
0100
0000
0001
,
1000
0010
0010
1000
,
0001
0100
0000
0001
,
1000
0100
0000
0010
,
0001
0100
0000
0010
,
1000
0001
0100
0100
,
0001
1000
0001
0010
,
0220
0330
1000
0001
,
0010
0100
1000
0000
,
1000
0100
0010
0001
,
1000
0000
0001
0000
,
1000
0000
0001
0100
,
0010
1000
1000
0010
,
0100
0001
0001
1000
,
0001
0000
1000
1000
,
1000
0000
0001
0001
,
0001
0000
0100
0000
,
0010
0000
0001
0001
,
1000
0001
1000
0000
,
0100
0000
0010
0010
,
1000
0001
0100
0000
,
0001
0000
1000
0000
,
0100
0000
0001
0000
,
1100
0000
0001
0010
,
0010
0001
0100
0100
,
0001
1000
1000
0010
,
1000
0001
0001
0100
,
0000
0001
1000
0010
,
0010
0000
0100
0001
,
0001
0000
1000
0010
,
0010
0000
0100
1000
,
1001
0000
0000
0000
;

//---------------dance-double - Copied from----------------
#NOTES:
     dance-double:
     Copied from:
     Hard:
     8:
     0.511,0.540,0.380,0.040,0.000: // measure 1
00000000
00000000
00000000
00000000
,  // measure 2
00000000
00000000
00000000
00000000
,  // measure 3
00000000
00000000
00000000
00000000
,  // measure 4
00000000
00000000
00000000
00000000
,  // measure 5
11000000
00000000
10010000
00000000
01000000
00001000
00100000
00001000
,  // measure 6
01001000
00000000
00010100
00000000
00001000
00000010
00000100
00000001
,  // measure 7
00001001
00000000
00001100
00000000
00010000
00001000
01000000
00100000
,  // measure 8
01000000
00000000
00011000
00000000
01000000
00010000
10000000
01000000
,  // measure 9
20020000
00000000
30030000
00000000
01000000
00010000
00100000
00000000
,  // measure 10
00010000
00000000
10000000
01000000
00010000
00000000
00001000
00000000
,  // measure 11
00010000
00001000
01000000
00000000
00010000
10000000
01000000
00000000
,  // measure 12
00100000
00000000
00001000
00000000
00010000
00000010
00000100
00000001
,  // measure 13
00000101
00000000
00000010
00000000
00010000
00001000
00000100
00000001
,  // measure 14
00001000
00000100
00000010
00001000
,  // measure 15
00010000
01000000
10000000
00000000
10010000
01000000
00100000
00000000
,  // measure 16
10010000
00100000
01000000
00100000
01000000
00010000
10000000
00010000
,  // measure 17
10010000
00000000
01000000
00000000
00001000
00000010
00000100
00001000
,  // measure 18
00000001
00000100
00001000
00100000
01000000
00010000
00000100
00000010
,  // measure 19
00001000
00100000
01000000
00010000
00001000
00010000
01000000
10000000
,  // measure 20
00010000
00010000
10000000
00000000
00100000
00000000
01000000
01000000
,  // measure 21
00100000
00000000
00010000
00000000
00001000
00001000
00000100
00000000
,  // measure 22
00000010
00000000
00000001
00000000
00001000
00000001
00000100
00000010
,  // measure 23
00001000
00000001
00000010
00001000
00100000
01000000
00010000
00001000
,  // measure 24
01000000
00100000
00001000
00000010
00000100
00000001
00001000
00000100
,  // measure 25
00001100
00000000
00001001
00000000
00000100
00000001
00000010
00000100
,  // measure 26
00001100
00000000
00000011
00000000
00000000
00001000
00001000
00000100
,  // measure 27
00010000
00010000
00001000
01000000
00100000
01000000
00010000
00010000
,  // measure 28
10000000
00000000
10100000
00000000
00000000
10000000
00100000
00010000
,  // measure 29
00001000
00100000
01000000
00000000
00000000
00010000
00001000
00000010
,  // measure 30
00000100
00010000
00000010
00000000
00000000
00000100
00000001
00001000
,  // measure 31
00000010
00000000
00001010
00000000
00000001
00000000
00000100
00000100
,  // measure 32
00001000
00000000
00000001
00001000
00000001
00000000
00001000
00001000
,  // measure 33
00001001
00000000
00000000
00000000
00000100
00000001
00000010
00000000
,  // measure 34
00000100
00000000
00010000
00001000
01000000
00010000
00100000
00000000
,  // measure 35
00001000
00010000
01000000
00000000
00100000
00001000
00010000
00000000
,  // measure 36
00001000
00010000
00100000
01000000
00010000
00000000
00100000
01000000
,  // measure 37
11000000
00000000
00001000
00000000
00010000
00001000
00100000
01000000
,  // measure 38
00010000
00001000
00000010
00000100
00001000
00000000
00001001
00000000
,  // measure 39
00001000
00000100
00000010
00000001
00000010
00001000
00000001
00000010
,  // measure 40
00001000
00000001
00000010
00001000
00010000
00100000
01000000
00001000
,  // measure 41
00011000
00000000
01010000
00000000
10000000
01000000
00100000
00001000
,  // measure 42
01000000
00000000
00010000
00000000
10000000
00100000
00010000
00001000
,  // measure 43
00100000
00000000
01000000
00000000
00010000
00001000
01000000
00010000
,  // measure 44
10000000
00000000
01000000
00000000
00100000
00001000
00010000
01000000
,  // measure 45
11000000
00000000
00000000
00000000
10010000
00010000
01000000
00100000
,  // measure 46
01000000
00001000
00010000
01000000
10000000
00000000
00100000
00000000
,  // measure 47
10000000
01000000
00100000
00000000
00001000
00000100
00000010
00000000
,  // measure 48
00000010
00001000
00010000
00000000
01000000
00000000
00001000
00000000
,  // measure 49
00000100
00000000
00000010
00000001
00001000
00000001
00000100
00000010
,  // measure 50
00000100
00000000
00000001
00000000
00000100
00001000
00010000
00001000
,  // measure 51
01001000
00000000
00011000
00000000
00100000
00010000
10000000
00000000
,  // measure 52
11000000
00000000
00101000
00000000
00010000
00000010
00000100
00000001
,  // measure 53
00001001
00000000
00001100
00000000
00010000
00001000
00000010
00000000
,  // measure 54
00001100
00000000
00001001
00000000
00000010
00000001
00000100
00000000
,  // measure 55
00000110
00000000
00001100
00000000
00011000
00001000
01000000
00000000
,  // measure 56
01010000
00010000
10000000
00100000
01000000
00010000
00100000
01000000
,  // measure 57
02200000
00000000
00000000
00000000
00000000
00000000
00000000
03300000
;
