#TITLE:D-O-M-I-N-A-T-I-O-N;
#SUBTITLE:;
#ARTIST:DJ MANIAC;
#TITLETRANSLIT:;
#SUBTITLETRANSLIT:;
#ARTISTTRANSLIT:;
#CREDIT:;
#BANNER:domi-bn.png;
#BACKGROUND:DOMI-BG.png;
#LYRICSPATH:;
#CDTITLE:Dance%20Mania%20EX3.png;
#MUSIC:domination.mp3;
#OFFSET:-2.760;
#SAMPLESTART:21.917;
#SAMPLELENGTH:20.000;
#SELECTABLE:YES;
#BPMS:0.000=137.000,46.000=68.500,78.000=274.000,206.000=136.000,237.750=68.500,238.000=68.500;
#STOPS:;
#BGCHANGES:;

//---------------dance-single - ----------------
#NOTES:
     dance-single:
     :
     Hard:
     10:
     0.814,1.000,0.052,0.026,1.000:
0000
0000
0000
0000
,
0000
0000
0000
0000
,
0000
0000
0000
0000
1001
0000
0001
1000
,
0010
0000
0010
1001
0000
0100
0001
1000
,
0100
0000
1000
0001
0000
0100
0010
1000
,
0001
0000
0110
1000
0000
0001
0100
0010
,
0100
0000
0001
0000
1000
0100
0010
0000
1002
0000
0000
0000
0103
0000
0000
0000
,
0010
0000
1000
0100
0010
0000
0001
0100
0010
0000
0000
0000
0100
0000
0001
0000
,
0010
0000
0100
0000
1000
0000
0001
0000
0100
0000
0010
0100
0001
0000
0010
0100
,
1000
0000
0010
0000
0100
0000
0001
0000
1000
0000
0100
0000
0010
0000
0001
1000
,
0000
0010
0000
0010
0100
0000
0001
0000
2002
0000
0000
0000
0000
0000
0000
0000
,
0000
0000
0000
0000
0000
0000
0000
0000
3003
0000
0000
0000
0000
0000
0000
0000
1000
0000
0100
1000
0100
0000
1000
0001
1000
0000
0001
0100
0001
0000
1000
0100
,
1000
0000
0001
1000
0001
0000
0100
0001
0100
0000
0001
1000
0001
0100
0010
1000
0001
0000
0010
0001
0010
0000
0100
1000
0100
0000
0010
0001
0010
0000
0100
1000
,
0100
0000
0010
0001
0010
0000
0100
1000
0100
0000
0010
0001
1000
0100
0010
0001
1000
0000
0001
0000
0100
0000
0010
0000
1000
0000
0100
0010
0000
0010
0001
0000
,
0000
0000
1000
0000
0100
0000
0010
0000
0001
0000
1000
0010
0000
0010
0100
0000
0000
0000
0001
0000
0100
0000
0010
0000
1000
0000
0100
0010
0000
0010
0001
0000
,
0000
0000
1000
0000
0001
0000
0010
0000
0100
0000
0100
1000
0000
1000
0001
0000
0100
0000
0010
0000
1000
0000
0001
0000
0100
0000
0010
0000
1000
0000
0100
0000
,
0010
0000
0001
0000
1000
0000
0100
0000
0010
0000
0001
1000
0100
0010
0001
1000
0100
0000
0010
0000
0001
0000
1000
0000
0001
0000
0010
0000
0100
0000
1000
0000
,
0001
0000
0010
0000
0100
0000
1000
0000
0001
0000
0010
0100
1000
0001
0100
0010
0100
0000
0001
0100
0010
0000
1000
0100
0010
0000
0001
0100
0010
0000
0010
1000
,
0100
0000
0010
0001
1000
0000
0010
0100
0001
0000
0010
0100
1000
0001
0010
0000
0100
0001
1000
0100
0010
0000
0001
1000
0000
0010
0000
0100
0001
0000
0010
0000
,
0100
0000
1000
0010
0100
0000
0001
1000
0100
0010
0001
1000
0010
0100
0001
0000
1000
0000
0000
0000
0000
0000
0000
0000
1000
0000
0000
0000
0001
0000
0000
0000
,
1000
0000
1000
0001
1000
0000
1000
0001
,
1000
0000
1000
0001
1000
0000
1000
0001
,
1000
0000
1000
0001
1000
0000
1000
0001
,
0010
0100
1000
0001
0010
0000
0001
1000
,
0001
0000
0001
1000
0001
0000
0001
1000
,
0001
0000
0001
1000
0001
0000
0001
1000
,
0001
0000
0001
0100
0001
0000
0001
1000
,
0001
0010
0100
1000
0001
0000
0001
0010
,
0001
0000
0001
1000
0001
0000
0001
0100
,
0001
0000
0001
1000
0001
0000
0001
0010
,
0001
0000
0001
1000
0001
0000
0001
0100
,
0001
0000
0001
1000
0010
0000
1000
0001
,
1000
0000
1000
0100
1000
0000
1000
0001
,
1000
0000
1000
0010
1000
0000
1000
0100
,
1000
0000
0001
1000
0001
0000
1000
0010
,
1000
0100
1000
0001
1000
0000
0001
0010
,
0001
0000
1000
0100
1000
0000
0001
0100
,
0001
0000
0100
0010
1000
0000
0100
1000
,
0100
0000
1000
0100
1000
0000
0010
0001
,
1000
0010
0100
0001
0100
0000
0010
1000
,
0100
0000
0010
0001
0100
0000
0010
1000
,
0100
0000
0010
0001
0100
0000
0010
1000
,
0100
0000
0010
0001
1000
0000
0001
1000
,
0100
0010
0001
1000
0100
0000
0100
0000
,
1000
0000
1000
0001
0000
0001
0000
0100
,
0010
0010
1000
0100
,
1000
0000
0001
0100
0000
0100
0000
0010
,
1000
0001
0010
0100
1000
0000
0001
0000
,
1000
0000
0100
0010
0000
0010
0000
0001
,
1000
0010
0100
0001
,
0100
0000
0010
1000
0000
1000
0000
0100
,
1000
0000
0000
0000
0001
0000
0000
0000
1000
0000
0100
0000
1000
0000
0001
1000
,
0000
0001
0000
0001
0100
0000
0001
0000
1000
0000
0010
0000
0100
0000
0001
1000
,
0000
0001
0010
0001
1000
0001
0100
0001
1000
0000
0010
0000
1000
0000
0001
1000
,
0000
0100
0000
0100
0010
0000
0001
0000
1000
0001
0100
0010
1000
0001
1000
0100
,
0010
0001
1000
0001
1000
0000
0001
0000
0100
0000
0001
0000
1000
0000
1000
0001
,
0000
0001
0000
1000
0100
0000
0100
0000
1000
0000
0100
0000
0001
0000
1000
0000
,
0100
0010
0001
1000
0100
0010
0001
1000
0000
0010
0000
0100
0000
0001
0100
0000
,
0010
0000
0010
1000
0000
0001
0000
0100
0010
1000
0001
0100
0010
1000
0001
0100
,
0010
0000
1000
0000
0001
0000
0100
0000
0010
0000
1000
0000
0001
0000
1001
0000
0000
0000
1000
0000
0001
0100
0001
0000
0010
0001
0010
0000
0001
0100
0001
0000
,
1000
0100
1000
0000
0001
1000
0001
0000
1000
0010
1000
0001
1000
0001
0100
0000
0001
1000
0001
0000
0001
0100
0001
0000
0001
1000
0001
0000
0001
0010
0001
0000
,
0001
0100
0001
0000
0001
1000
0001
0000
0001
0100
0001
1000
0001
0010
0001
0000
0001
0100
0001
0000
0001
1000
0001
0000
0100
0010
0100
0000
0001
1000
0001
0000
,
0100
0010
0100
0000
1000
0001
1000
0000
0010
1000
0010
0000
1000
0100
1000
0000
1000
0001
1000
0000
1000
0010
1000
0000
0010
1000
0010
0000
1000
0100
1000
0000
,
0100
1000
0001
0000
0001
1000
0001
0000
1000
0001
1000
0001
0100
0010
0000
0100
0000
1000
0010
0000
0100
0010
0000
0100
0000
0001
1000
0000
0100
0000
0010
0000
,
0001
0000
1000
0000
0010
0100
0000
0001
0000
0001
0100
0010
1000
0000
0001
0000
1000
0000
0100
0000
0100
0010
0000
0001
0000
0001
1000
0000
0100
0000
0010
0001
,
1000
0010
0100
0001
0100
0010
1000
0001
1000
0100
0010
0000
0001
0000
0000
0000
0000
0000
0000
0000
0000
0000
0000
0000
0000
0000
0000
0000
0000
0000
0000
0000
;

//---------------dance-double - ----------------
#NOTES:
     dance-double:
     :
     Hard:
     10:
     0.710,1.000,0.052,0.044,0.736: // measure 1
00000000
00000000
00000000
00000000
,  // measure 2
00000000
00000000
00000000
00000000
,  // measure 3
00000000
00000000
00000000
00000000
00010000
00001000
00010000
00000100
,  // measure 4
00001000
00000001
00001000
00001001
00000000
00000100
00000010
00000100
,  // measure 5
00000001
00001000
00000000
00000000
00000000
00001000
00000001
00000010
,  // measure 6
00000100
00010000
00001000
00000000
00000000
01000000
00100000
01000000
,  // measure 7
00010000
10000000
01000000
00000000
00120000
00000000
10000000
00000000
,  // measure 8
00100000
01030000
00002100
00000010
,  // measure 9
00003001
00000100
00010000
00001000
01002000
00000000
00010000
00000000
,  // measure 10
01000000
00003000
00010000
00001000
00100000
00010000
01000000
00100000
,  // measure 11
10000000
00010000
00100000
01000000
20020000
00000000
00000000
00000000
,  // measure 12
00000000
00000000
30030000
00000000
10000000
01000000
00010000
00001000
,  // measure 13
00000100
00000000
00000001
00000000
00000100
00000001
00001000
00000010
00001000
00000000
00000100
00000000
00000001
00000000
00000100
00000000
,  // measure 14
00010000
00000000
00001000
00000000
00010000
00010000
01000000
00100000
10000000
00000000
00010000
00000000
01000000
00000000
00100000
00000000
,  // measure 15
10000000
00000000
01000000
00000000
00100000
00001000
00010000
00000100
00010000
00000000
00001000
00000000
01000000
00000000
00001000
00000000
,  // measure 16
00010000
00000000
00000010
00000000
00001000
00000001
00000010
00001000
00000010
00000001
00001000
00000100
00000010
00000001
00001000
00000010
,  // measure 17
00000100
00000010
00010000
00001000
00100000
00010000
01000000
00100000
10000000
00010000
00100000
01000000
10000000
01000000
00100000
00001000
,  // measure 18
00010000
00000010
00000100
00000001
00001000
00000100
00000010
00000001
00001000
00000100
00010000
00001000
00100000
00010000
01000000
00100000
,  // measure 19
00010000
00001000
00100000
00010000
01000000
00100000
10000000
00010000
00100000
01000000
00010000
00001000
00000100
00000001
00001000
00000100
,  // measure 20
00000010
00001000
00010000
00000100
00001000
00000001
00000100
00000000
00011000
00000000
00000000
00000000
00010000
00000000
00001000
00000000
,  // measure 21
00010000
00000000
00001000
00100000
00001000
00000000
00010000
00001000
,  // measure 22
00010000
00000000
00000100
00010000
00000100
00000000
00010000
00001000
,  // measure 23
00010000
00000000
00001000
01000000
00001000
00000000
00010000
00001000
,  // measure 24
00010000
00000000
00000100
00001000
00000100
00000000
00001000
00000001
,  // measure 25
00001000
00000000
00000001
00000100
00000001
00000000
00001000
00000001
,  // measure 26
00001000
00000000
00000010
00010000
00000010
00000000
00010000
00001000
,  // measure 27
00010000
00000000
00001000
00100000
00001000
00000000
00010000
00001000
,  // measure 28
00100000
00001000
00010000
00001000
01000000
00000000
00001000
00010000
,  // measure 29
00001000
00000000
00100000
00010000
00100000
00000000
00010000
01000000
,  // measure 30
00010000
00000000
10000000
00010000
10000000
00000000
01000000
10000000
,  // measure 31
01000000
00000000
10000000
00010000
10000000
00000000
00010000
01000000
,  // measure 32
00010000
01000000
00010000
10000000
00010000
00000000
00100000
00001000
,  // measure 33
00100000
00000000
00001000
00010000
00001000
00000000
00010000
00000100
,  // measure 34
00010000
00000000
00000100
00001000
00000001
00000000
00001000
00000001
,  // measure 35
00001000
00000000
00000010
00000100
00000010
00000000
00001000
00000001
,  // measure 36
00000010
00000100
00001000
00000001
00000010
00000000
00000100
00000000
,  // measure 37
00001000
00000000
00000010
00010000
00000000
00001000
00000000
00000000
,  // measure 38
00100000
00010000
01000000
00100000
,  // measure 39
10000000
00000000
01000000
00000000
00010000
00000000
00001000
00000100
,  // measure 40
00000001
00001000
00000100
00000010
00000001
00000000
00001000
00000000
,  // measure 41
00000001
00000010
00001000
00010000
,  // measure 42
01000000
10000000
00100000
00010000
,  // measure 43
00001000
00000000
00100000
00000000
01000000
00000000
00010000
00001000
,  // measure 44
00010000
01000000
10000000
00010000
00100000
00000000
01000000
00000000
,  // measure 45
10000000
00000000
01000000
00100000
00000000
00100000
00000000
00001000
,  // measure 46
00010000
00000100
00001000
00000001
,  // measure 47
00000100
00000000
00000010
00010000
00000000
00010000
00000000
00001000
,  // measure 48
00100000
00001000
01000000
00000100
,  // measure 49
00010000
00000000
00001000
00100000
00000000
00001000
00000000
00001000
,  // measure 50
01000000
00000000
00010000
00000000
10000000
00100000
10000000
00010000
,  // measure 51
00100000
01000000
10000000
00010000
01000000
00100000
10000000
01000000
,  // measure 52
00100000
00000000
00001000
00000000
00010000
00000000
00000000
00000000
00001000
00000000
00000100
00000000
00001000
00000000
00000001
00000100
,  // measure 53
00000000
00000010
00000000
00000010
00001000
00000000
00000100
00000000
00010000
00000000
00001000
00000000
00100000
00000000
00010000
01000000
,  // measure 54
00000000
00010000
00100000
00010000
10000000
01000000
00100000
00010000
10000000
00000000
01000000
00000000
00100000
00000000
00001000
00010000
,  // measure 55
00000000
00000100
00000000
00000100
00010000
00000000
00001000
00000000
01000000
00001000
00010000
00001000
01000000
00001000
00010000
00000000
,  // measure 56
00010000
00000100
00010000
00001000
00010000
00000100
00001000
00000000
00000001
00000000
00000100
00000000
00000010
00000000
00000010
00001000
,  // measure 57
00000000
00000100
00000000
00000100
00000010
00000000
00000001
00000000
00001000
00000000
00000100
00000000
00000010
00000000
00001000
00000000
,  // measure 58
00000100
00000010
00000001
00001000
00000100
00000010
00000001
00000000
00001000
00000000
00010000
00000000
00001000
00000000
00100000
00000000
,  // measure 59
00010000
00000000
00010000
01000000
00000000
00100000
00000000
10000000
00010000
01000000
00100000
10000000
00010000
01000000
00100000
10000000
,  // measure 60
00010000
00000000
01000000
00000000
00100000
00000000
10000000
00000000
00000000
00000000
00010000
00000000
00000000
00000000
00010000
00000000
10000000
01000000
10000000
00000000
00010000
01000000
00010000
00000000
00010000
00001000
00010000
00000000
00000100
00001000
00000100
00000000
,  // measure 61
00001000
00000001
00001000
00000000
00000001
00000100
00000001
00000000
00001000
00000100
00001000
00000001
00000100
00000001
00001000
00000000
00000100
00010000
00000100
00000000
00010000
00001000
00010000
00000000
00001000
01000000
00001000
00000000
00010000
00001000
00010000
00000000
,  // measure 62
00001000
01000000
00001000
00000000
01000000
00010000
01000000
00000000
00010000
10000000
01000000
10000000
00010000
01000000
00010000
00000000
10000000
01000000
10000000
00000000
00010000
01000000
00010000
00000000
01000000
00001000
01000000
00000000
00001000
00010000
00001000
00000000
,  // measure 63
00010000
00000100
00010000
00000000
00000100
00001000
00000001
00001000
00000001
00000100
00000001
00001000
00000001
00001000
00000001
00000000
00000010
00000100
00000010
00000000
00000001
00001000
00000001
00000000
00001000
00000010
00001000
00000000
00001000
00010000
00001000
00000000
,  // measure 64
00100000
00010000
00100000
00000000
00010000
01000000
00010000
00000000
10000000
00010000
01000000
00010000
10000000
00000000
01000000
00000000
00100000
00000000
00001000
00000000
00010000
00000100
00000000
00001000
00000000
00000010
00000100
00000000
00000001
00000000
00001000
00000000
,  // measure 65
00000100
00000000
00000010
00000000
00000001
00000100
00000000
00000001
00000010
00000100
00001000
00000010
00010000
00000000
00001000
00000000
00100000
00000000
00010000
00000000
01000000
00100000
00000000
00100000
00000000
10000000
00010000
00000000
01000000
00000000
00100000
10000000
,  // measure 66
01000000
00100000
00010000
10000000
01000000
00100000
00001000
00010000
00000100
00001000
00000001
00000000
00000100
00000000
00000000
00000000
00000000
00000000
00000000
00000000
00000000
00000000
00000000
00000000
00000000
00000000
00000000
00000000
00000000
00000000
00000000
00000000
;
