#TITLE:CHASING CARS;
#SUBTITLE:(Tunnel Trance remix);
#ARTIST:Booty callers;
#TITLETRANSLIT:;
#SUBTITLETRANSLIT:;
#ARTISTTRANSLIT:;
#CREDIT:;
#BANNER:chasing cars remix-bn.png;
#BACKGROUND:chasing cars remix-bg.png;
#LYRICSPATH:;
#CDTITLE:cdtitle.png;
#MUSIC:chasing cars remix.ogg;
#OFFSET:-0.009;
#SAMPLESTART:51.960;
#SAMPLELENGTH:11.900;
#SELECTABLE:NO;
#BPMS:0.000=145.000,68.000=72.500,82.000=145.000,242.000=72.500;
#STOPS:;
#BGCHANGES:;

//---------------dance-single - ----------------
#NOTES:
     dance-single:
     :
     Hard:
     8:
     0.542,0.590,0.266,0.000,0.312:
0000
0000
0000
0000
,
0000
0000
0000
0000
,
0000
0000
0000
0000
,
0000
0000
0000
0000
,
1000
0100
1000
0100
1000
0100
1000
0001
,
1000
0001
1000
0001
0100
0001
0100
0001
,
0100
0010
0100
0010
0100
0010
1000
0010
,
1000
0001
1000
0001
0010
0001
0010
0100
,
0010
0000
0000
0000
0100
0000
1000
0000
0001
0000
0000
0100
0000
0000
0001
0000
,
1000
0000
0000
0010
0000
0000
1000
0000
0001
0000
0000
0100
0000
0000
0001
0000
,
1000
0000
0000
0100
0000
0000
0010
0000
0001
0000
0000
1000
0000
0000
0010
0000
,
1000
0000
0000
0100
0000
0000
1000
0000
0001
0000
0000
0100
0000
0000
0010
0000
,
0100
0000
0001
0100
0001
0100
0001
0000
,
1000
0100
1000
0100
1000
0100
1000
0000
,
0010
0010
0010
0010
,
0010
0010
0010
0100
,
1001
0000
0000
0000
,
1000
0000
0000
0001
0000
0000
0100
0000
0000
0000
0000
0000
0000
0000
0000
0000
,
0001
0000
0000
0100
0000
0000
1000
0000
0000
0000
0000
0000
0000
0000
0000
0000
,
0010
0000
0000
1000
0000
0000
0001
0000
1000
0001
1000
0001
1000
0001
1000
0001
,
1000
0001
1000
0001
1000
0001
1000
0000
0101
0000
0000
0000
0001
0000
0000
0000
,
0101
0000
1000
0000
1001
0001
0100
0001
,
1000
0100
1000
0000
0001
0100
0010
0100
,
0010
1000
0010
1000
0001
0010
0100
0010
,
0001
1000
0100
0000
1100
0001
0100
0001
,
1000
0001
0100
0001
1000
0001
0100
0001
,
1000
0001
0100
0001
1000
0001
0100
0001
,
1000
0001
0100
0001
1000
0000
1000
0000
,
1000
0000
0001
0000
0010
0000
0000
0000
0110
0000
0000
0100
1000
0000
0100
0000
,
1000
0000
0000
0001
0100
0000
0001
0000
0100
0000
0000
0000
0001
0000
0100
0000
,
0010
0010
1000
0001
0010
0100
0010
0001
,
1000
0100
0010
0100
1000
0000
0001
0000
,
0001
0010
0100
1000
0100
0001
0100
1000
,
0001
1000
0100
0001
0100
1000
0001
0010
,
0100
0000
0010
0000
0100
0000
1000
0000
0001
0000
0000
0001
0100
0000
0001
0000
,
1000
0000
0000
0010
0000
0000
1010
0000
0001
0000
0000
0000
0001
0000
0100
0000
,
0001
1000
0010
0100
0110
0000
1000
0001
,
0001
0000
0000
1000
0001
0000
0001
0000
0001
0000
0000
1000
0001
0000
0100
0000
,
0100
0000
0000
0010
0100
0000
0100
0000
0100
0000
0000
0001
0010
0000
0010
0000
,
0010
0000
0000
0100
1000
0000
1000
0000
1000
0000
0000
0001
0100
0000
0100
0000
,
0100
0010
0010
1000
0001
0000
0001
0010
,
0000
0100
1000
0000
0001
1000
0001
1000
,
0010
0100
0010
0000
1000
0010
0100
0001
,
0010
0000
0100
0010
0100
0000
1000
0000
0001
0000
1000
0001
1000
0001
1000
0001
,
1000
0001
1000
0001
1000
0000
0000
0000
0101
0000
0000
0001
0000
0100
0001
0000
,
0010
0000
0100
0000
1100
0000
0000
0000
0010
0000
0000
0010
0000
1000
0001
0000
,
0100
0000
0000
0000
1001
0000
0000
0000
0010
0000
0000
0010
0000
1000
0001
0000
,
0010
0000
0000
0000
0110
0000
0000
0000
0100
0000
0000
0100
0000
1000
0001
0000
,
0010
0000
0100
0000
0110
0000
0000
0000
1001
0000
0000
0010
0000
0100
0001
0000
,
0100
0000
0000
0000
0101
0000
0000
0000
0010
0000
0000
0010
0000
1000
0100
0000
,
0010
0000
1100
0000
0011
0000
0000
0000
0100
0000
0000
1000
0000
0001
0010
0000
,
0100
0000
0000
0000
1001
0000
0000
0000
0010
0000
0000
0001
0000
0001
0100
0000
,
0001
0000
0100
0000
1001
0000
0000
0000
1010
0000
0000
0010
0000
1000
0001
0000
,
0100
0000
0000
0000
0101
0000
0000
0000
0010
0000
0000
0010
0000
1000
0001
0000
,
0010
0000
0011
0000
1001
0000
0000
0000
0100
0000
0000
0100
0000
1000
0001
0000
,
0010
0000
0000
0000
0110
0000
0000
0000
0100
0000
0000
1000
0000
0010
0100
0000
,
0001
0000
1100
0000
0101
0000
0000
0000
0010
0000
0000
1000
0000
0010
0100
0000
,
1000
0000
0100
0000
1001
0000
0000
0000
0100
0000
0000
0001
0010
0000
0100
0000
,
1000
0100
1001
0000
0110
0010
1000
0100
,
1000
0000
0110
0000
0010
0001
1000
0100
,
0010
0000
0001
0000
1000
0000
0001
0000
1001
0000
1000
0001
1000
0001
1000
0000
,
0010
0000
0000
0100
0000
0000
0001
0000
0000
0000
0000
0000
0000
0000
0000
0000
,
1000
0000
0000
0001
0000
0000
0010
0000
0100
1000
0100
1000
0100
1000
0100
0000
,
1000
0000
0000
0001
0000
0000
0010
0000
0100
0001
0100
0001
0100
0001
0100
0001
,
0100
0001
0100
0001
0100
0001
0100
0000
1001
0000
0000
0000
0000
0000
0000
0000
;

//---------------dance-single - ----------------
#NOTES:
     dance-single:
     :
     Medium:
     5:
     0.354,0.456,0.067,0.091,0.000:
0000
0000
0000
0000
,
0000
0000
0000
0000
,
0000
0000
0000
0000
,
0000
0000
0000
0000
,
1000
1000
0001
0001
,
1000
1000
0001
0001
,
1000
0001
1000
0001
1000
0001
1000
0001
,
1000
0001
1000
0010
0100
0100
0010
0000
,
0110
0000
0001
1000
,
0002
0000
0000
0003
1000
0000
0001
0000
,
0200
0000
0000
0300
0010
0000
0001
0000
,
2000
0000
0000
3000
0001
0000
0100
0000
,
0020
0000
0000
0030
,
1000
1000
1000
1000
,
1000
1000
1000
1000
,
1000
1000
1000
1000
,
1001
0000
0000
0000
,
1000
0100
0001
0000
,
0001
0010
0100
1000
0000
0000
0000
0000
,
0001
0000
1000
0000
0010
0000
0100
0100
,
0100
0100
0100
0100
1001
0000
0001
0000
,
0101
0000
0001
0000
1000
0010
1000
0000
,
0001
0000
0100
0000
0001
0010
0001
0000
,
0001
0000
0001
0000
0001
1000
0100
0000
,
1000
0000
1000
0000
1000
0001
1000
0001
,
1000
0001
1000
0000
0100
0000
0010
0000
,
0001
0000
1000
0000
0100
1000
0100
1000
,
0100
1000
0100
0000
1000
0000
1000
0000
,
0001
0010
0100
0000
1000
0000
0001
1000
,
0100
0000
0010
0001
1000
0000
0100
0000
,
0100
0000
0010
0001
1000
0000
0100
0000
,
0100
0000
1000
0010
0100
0000
0001
0000
,
0001
0100
0010
0000
1000
0000
0001
0000
,
0100
0000
0010
0000
1000
0001
1000
0000
,
0100
0010
0210
1000
,
1300
0002
0100
0103
,
0010
1000
0001
0000
0102
0000
1000
0000
,
0103
0000
0010
2000
0001
0000
0100
3000
,
0001
0010
0002
0000
0100
0000
1003
0000
,
0010
1000
0100
0000
1000
0000
1000
0000
,
0001
0010
0001
0000
0200
0000
0000
0000
,
0020
0000
0000
0330
0010
0000
0100
0000
,
0001
0000
1000
0000
0010
1000
0001
0000
,
0010
0000
0100
0000
0001
0100
0010
0000
,
0001
0000
1001
0100
,
1000
0001
0010
0000
0100
0000
0100
0000
,
1000
0001
1000
0000
0010
0000
0010
0000
,
0001
0100
0010
0000
1000
0000
1000
0010
,
0100
0001
0001
0000
1000
0000
0001
0001
,
0001
1000
0010
1000
,
1000
1000
1000
0000
0001
0000
0010
0000
,
0100
0001
1000
0010
,
0001
0001
0001
0000
0100
0000
0010
0000
,
1000
0001
0100
1000
,
1000
1000
1000
0000
0010
0000
0001
0000
,
0100
1000
0001
0010
,
0100
0100
0100
0000
1000
0000
0001
0000
,
0010
1000
0100
0001
,
0010
0010
0010
0000
0001
0000
0100
0000
,
0010
1000
0001
1000
,
0001
0000
1000
0000
0001
0001
0001
0001
,
1000
0001
0100
0000
,
0010
1000
0001
0100
0010
0000
0000
0000
,
0100
0000
1000
0000
0001
1000
0001
1000
,
0001
1000
0001
0010
0110
0000
0000
0000
;

//---------------dance-single - ----------------
#NOTES:
     dance-single:
     :
     Easy:
     3:
     0.210,0.268,0.067,0.042,0.000:
0000
0000
0000
0000
,
0000
0000
0000
0000
,
0000
0000
0000
0000
,
0000
0000
0000
0000
,
1000
0000
0001
0000
,
0010
0000
0001
0000
,
0100
0100
0100
0100
,
0100
0000
0001
1000
,
2002
0000
0000
0000
,
0000
0000
0000
0000
,
3003
0000
1000
0000
,
0001
0000
0100
0000
,
0001
1000
0010
0000
,
0001
0000
0100
0000
,
0010
0010
0010
0010
,
0010
0010
0010
0010
,
1001
0000
0000
0000
,
1000
0001
1000
0000
,
0100
0000
0001
0000
,
1000
0000
0000
0000
,
0000
0000
1001
0001
,
0100
0001
1000
0010
,
1000
0002
0000
0000
,
0003
0000
0100
0001
,
1000
2000
0000
0000
,
0000
3000
1000
0001
,
0010
0002
0000
0000
,
0003
0000
0000
0000
,
0100
0100
1001
0000
,
0001
0100
1000
0010
,
0001
0100
0001
0010
,
1000
0100
0001
0000
,
0001
0100
1000
1000
,
0001
0001
0010
1000
,
0001
0001
0100
0000
,
0001
0000
1000
0000
,
0010
0001
0101
0000
,
0001
0000
1000
0000
,
0010
1000
0100
1000
,
0001
0000
1000
0000
,
0010
1000
0100
0001
,
0001
0000
0010
1000
,
0100
0001
0000
1000
,
0000
0100
0000
0001
,
0001
0000
1001
0001
,
0100
1000
0000
0010
,
1000
0001
0000
0001
,
0010
0100
0000
1000
,
0010
0100
0000
0100
,
0001
1000
0000
0010
,
1000
0001
0000
0010
,
0001
1000
0000
0100
,
1000
0001
0000
0010
,
1000
0001
0000
0100
,
0001
1000
0000
0010
,
0100
0001
0000
1000
,
0010
0001
0000
0001
,
0100
1000
0000
1000
,
0010
0100
0000
0010
,
0100
0001
0000
0010
,
1000
0001
1001
0000
,
1000
0001
0100
0000
,
0010
0001
1000
0000
,
0100
1000
0001
0100
,
0100
0000
1001
0000
;

//---------------dance-double - Copied from----------------
#NOTES:
     dance-double:
     Copied from:
     Hard:
     9:
     0.546,0.751,0.274,0.000,0.374: // measure 1
00000000
00000000
00000000
00000000
,  // measure 2
00000000
00000000
00000000
00000000
,  // measure 3
00000000
00000000
00000000
00000000
,  // measure 4
00000000
00000000
00000000
00000000
,  // measure 5
00001000
00000100
00001000
00000100
00001000
00000001
00001000
00000001
,  // measure 6
00000100
00000001
00000100
00000010
00000100
00000010
00010000
00001000
,  // measure 7
00010000
00001000
01000000
00001000
01000000
00010000
01000000
00010000
,  // measure 8
10000000
00010000
10000000
00010000
00100000
00100000
00010000
10000000
,  // measure 9
10010000
00000000
00000000
00000000
00010000
00000000
10000000
00000000
00010000
00000000
00000000
01000000
00000000
00000000
00100000
00000000
,  // measure 10
10000000
00000000
00000000
01000000
00000000
00000000
00100000
00000000
00001000
00000000
00000000
00010000
00000000
00000000
00001000
00000000
,  // measure 11
01000000
00000000
00000000
00010000
00000000
00000000
10000000
00000000
01000000
00000000
00000000
00100000
00000000
00000000
00001000
00000000
,  // measure 12
00010000
00000000
00000000
00000010
00000000
00000000
00000100
00000000
00000001
00000000
00000000
00001000
00000000
00000000
00000100
00000000
,  // measure 13
00000001
00000000
00000000
00001000
00000000
00000000
00000001
00000000
00000010
00000000
00000000
00001000
00000000
00000000
00000100
00000000
,  // measure 14
00010000
00000000
00000000
00001000
00000000
00000000
01000000
00000000
00010000
00000000
00000000
10000000
00000000
00000000
00100000
00000000
,  // measure 15
10000000
00010000
00010000
00010000
,  // measure 16
00010000
00010000
00010000
00010000
,  // measure 17
10010000
00000000
00000000
00000000
,  // measure 18
10000000
00000000
00000000
01000000
00000000
00000000
00010000
00000000
00000000
00000000
00000000
00000000
00000000
00000000
00000000
00000000
,  // measure 19
00001000
00000000
00000000
00000100
00000000
00000000
00000001
00000000
00000000
00000000
00000000
00000000
00000000
00000000
00000000
00000000
,  // measure 20
00100000
00000000
00000000
00001000
00000000
00000000
00000100
00000000
00000000
00000000
00010000
00001000
00010000
00001000
00010000
00001000
,  // measure 21
00010000
00001000
00010000
00001000
00010000
00001000
00010000
00000000
00011000
00000000
00000000
00000000
01000000
00000000
00000000
00000000
,  // measure 22
01010000
00000000
10000000
00000000
10010000
00010000
00100000
01000000
,  // measure 23
10000000
00100000
10000000
01000000
00010000
00001000
00010000
00000100
,  // measure 24
00001000
00000100
00000001
00000000
00000010
00000001
00001000
00000100
,  // measure 25
00000010
00000001
00000001
00001000
00001010
00000000
00000101
00000000
,  // measure 26
00000010
00000001
00000100
00001000
00010000
00001000
01000000
00100000
,  // measure 27
01000000
00010000
10000000
00000000
00100000
00100000
10000000
00010000
,  // measure 28
00100000
01000000
00010000
00001000
00010000
01000000
10000000
00000000
,  // measure 29
00010000
00000000
00010000
00000000
00100000
00000000
01000000
00000000
11000000
00000000
00000000
10000000
00010000
00000000
00100000
00000000
,  // measure 30
00010000
00000000
00000000
01000000
00001000
00000000
00010000
00000000
00001000
00000000
00000000
00000100
00000010
00000000
00000100
00000000
,  // measure 31
00000001
00001000
00000010
00000010
00001000
00000001
00000100
00000001
,  // measure 32
00001000
00000000
00000000
00000100
00001000
00000000
00001000
00000000
00001000
00000000
00000000
00000100
00010000
00000000
00010000
00000000
,  // measure 33
00001000
01000000
00100000
01000000
00010000
10000000
00100000
10000000
,  // measure 34
00010000
00100000
01000000
10000000
00010000
00100000
01000000
10000000
,  // measure 35
01000000
00000000
00100000
00000000
00001000
00000000
00000000
00000000
01000000
00000000
00000000
00010000
00000000
10000000
01000000
00000000
,  // measure 36
00100000
00000000
00000000
00001000
00000000
00010000
00001000
00000000
00010000
00000000
00000000
00000100
00000000
00001000
00000100
00000000
,  // measure 37
00001000
00000000
00000001
00000000
00000010
00000000
00000010
00000000
00000011
00000000
00000000
00000001
00000000
00000000
00001000
00000000
,  // measure 38
00000010
00000000
00000000
00000100
00000000
00000000
00000010
00000000
00001000
00000000
00000000
00000100
00000000
00000000
00010000
00000000
,  // measure 39
00001000
00000000
00000000
01000000
00100000
00000000
01000000
00000000
00010000
00000000
00000000
00010000
10000000
00000000
01000000
00000000
,  // measure 40
10000000
00000000
00000000
01000000
00100000
00000000
00001000
00000000
01000000
00000000
00000000
00010000
00001000
00000000
00010000
00000000
,  // measure 41
00000100
00000100
00001000
00001000
00000001
00000000
00000001
00000010
,  // measure 42
00000000
00000100
00001000
00000000
00001000
00001000
00000001
00000001
,  // measure 43
00001000
00001000
00000010
00000100
00000001
00001000
00000010
00001000
,  // measure 44
00000001
00000000
00000010
00000000
00000100
00000000
00000000
00000000
00001000
00000100
00001000
00000100
00001000
00000100
00000010
00000001
,  // measure 45
00000010
00000001
00000010
00000100
00000000
00000000
00000000
00000000
00001100
00000000
00000000
00001000
00000000
00010000
00001000
00000000
,  // measure 46
01000000
00000000
00000000
00000000
01100000
00000000
00000000
00000000
00010000
00000000
00000000
00001000
01000000
00000000
00010000
00000000
,  // measure 47
01000000
00000000
00010000
00000000
00001100
00000000
00000000
00000000
00001000
00000000
00000000
00010000
00000000
00000010
00001000
00000000
,  // measure 48
00000100
00000000
00000000
00000000
00000101
00000000
00000000
00000000
00000010
00000000
00000000
00001000
00000100
00000000
00000010
00000000
,  // measure 49
00001000
00000000
00010000
00000000
01010000
00000000
00000000
00000000
00100000
00000000
00000000
00010000
00100000
00000000
00010000
00000000
,  // measure 50
00100000
00000000
00000000
00000000
01100000
00000000
00000000
00000000
00010000
00000000
00000000
01000000
00000000
00001000
00100000
00000000
,  // measure 51
00010000
00000000
01000000
00000000
00011000
00000000
00000000
00000000
00000010
00000000
00000000
00000100
00000000
00000001
00001000
00000000
,  // measure 52
00000010
00000000
00000000
00000000
00001010
00000000
00000000
00000000
00000100
00000000
00000000
00000001
00000000
00000010
00000100
00000000
,  // measure 53
00001000
00000000
00001100
00000000
00000011
00000000
00000000
00000000
00001010
00000000
00000000
00000010
00000000
00010000
00001000
00000000
,  // measure 54
01000000
00000000
00000000
00000000
01010000
00000000
00000000
00000000
00100000
00000000
00000000
00100000
00000000
00001000
01000000
00000000
,  // measure 55
00010000
00000000
00100000
00000000
01100000
00000000
00000000
00000000
10010000
00000000
00000000
00100000
00000000
01000000
00100000
00000000
,  // measure 56
00010000
00000000
00010000
00000000
01010000
00000000
00000000
00000000
00100000
00000000
00000000
00100000
00000000
10000000
00010000
00000000
,  // measure 57
00100000
00000000
11000000
00000000
00110000
00000000
00000000
00000000
00100000
00000000
00000000
00001000
00000000
00010000
00000100
00000000
,  // measure 58
00001000
00000000
00000000
00000000
00000101
00000000
00000000
00000000
00000010
00000000
00000000
00000010
00000000
00010000
00001000
00000000
,  // measure 59
01000000
00000000
00011000
00000000
00010100
00000000
00000000
00000000
00001100
00000000
00000000
00000001
00000000
00000001
00000100
00000000
,  // measure 60
00000001
00000000
00001100
00000000
00000010
00000001
00001000
00000100
,  // measure 61
00000010
00000000
00000001
00000000
00001000
00000000
00000000
00000000
00001001
00000000
00000001
00001000
00000001
00001000
00000001
00000000
,  // measure 62
00000100
00000000
00000000
00001000
00000000
00000000
00010000
00000000
00000000
00000000
00000000
00000000
00000000
00000000
00000000
00000000
,  // measure 63
00100000
00000000
00000000
10000000
00000000
00000000
01000000
00000000
00010000
01000000
10000000
01000000
00010000
10000000
01000000
00010000
,  // measure 64
10000000
00010000
01000000
10000000
00010000
10000000
01000000
00010000
10000000
00010000
10000000
00010000
10000000
00010000
10000000
00010000
,  // measure 65
10000000
00010000
10000000
00010000
10000000
00010000
10000000
00000000
01100000
00000000
00000000
00000000
00000000
00000000
00000000
00000000
;
