#TITLE:CALIFORNIA GURLS;
#SUBTITLE:(United Forces Speedy Mix);
#ARTIST:KATE PROJECT;
#TITLETRANSLIT:;
#SUBTITLETRANSLIT:;
#ARTISTTRANSLIT:;
#CREDIT:;
#BANNER:cali-bn.png;
#BACKGROUND:cali-bg.png;
#LYRICSPATH:;
#CDTITLE:cdtitle.png;
#MUSIC:california gurls.mp3;
#OFFSET:0.271;
#SAMPLESTART:56.460;
#SAMPLELENGTH:15.4500;
#SELECTABLE:YES;
#BPMS:0.000=170.000;
#STOPS:;
#BGCHANGES:33.000=california.mpg=1.000=0=0=1,
99999=-nosongbg-=1.000=0=0=0 // don't automatically add -songbackground-
;

//---------------dance-single - ----------------
#NOTES:
     dance-single:
     :
     Hard:
     8:
     0.617,0.621,0.398,0.218,0.009:
0000
0000
0000
0000
,
0000
0000
0000
0000
,
0000
0000
0000
0000
,
0000
0000
0000
0000
,
0000
1000
0001
1000
,
0010
0100
0000
0001
0100
0001
1000
0001
,
1000
0000
0000
0100
1000
0100
1000
0001
,
0000
0200
0010
0000
0010
0000
0310
0000
,
0000
1002
0100
0103
,
0010
1000
0001
0010
0100
0010
0002
0000
,
1003
1100
0001
0011
,
1000
0010
0000
0100
1000
0000
0100
0000
,
0001
0001
0001
0000
0101
0000
0101
0000
,
1000
0010
0000
1000
0001
0010
0100
0000
,
1000
1010
0100
1100
,
0010
1000
0100
1000
0010
0100
0001
0000
,
1000
1002
1000
1003
,
0001
0010
0200
0000
0010
0000
0010
0300
,
0010
0001
1000
0100
0001
0100
0010
0000
,
0001
0000
0010
1000
0010
1000
0010
0000
,
0100
1200
0001
0310
,
0012
0000
0100
0000
1000
0003
2010
0000
,
3010
0001
1000
0010
1000
0001
0100
0000
,
0002
0100
0100
0100
,
0103
0000
1001
0010
1000
0000
1001
0100
,
0001
0000
0001
1000
0100
0000
0010
0001
,
1000
0010
0100
0001
0001
0100
0002
0000
,
2003
0000
0000
0000
3000
0000
0000
0000
1000
0010
0000
1000
0001
0000
0000
0000
,
0000
0000
1200
0000
0010
0300
1000
0010
,
0100
0002
2000
0000
0000
0000
3003
0000
,
0001
0010
0100
1000
0001
1000
0200
0000
,
1000
0000
1000
0300
0120
0000
0001
0000
,
0031
0000
0110
0000
1000
0001
1000
0010
,
0100
0010
0000
0120
0000
0000
1000
0000
,
0031
0000
0010
0100
1000
0000
0100
0000
,
0001
1000
0200
0000
0001
0300
0210
0000
,
1000
0000
0300
0000
0001
0010
1000
0010
,
0001
1000
0200
0000
0001
0000
0310
0000
,
0001
0100
1000
0000
0110
0000
1010
0000
,
0000
0001
0000
1000
0010
0100
0010
0001
,
0100
1000
1001
1100
,
0001
0010
0000
1000
0100
0001
0100
0010
,
0001
0100
1100
0000
0110
0000
1010
0000
,
0100
0010
0100
0001
0010
0000
0101
0000
,
0010
0010
0010
0000
1100
0000
1001
0000
,
0010
0001
0000
0001
1000
0100
1000
0001
,
1000
0000
0010
1000
0010
0100
0010
0001
,
0010
0100
0010
1000
0010
0100
0010
0001
,
0010
0110
0101
1001
,
0010
1000
0000
0001
0010
0100
0001
0000
,
0100
0000
1100
0000
0100
0100
0100
0000
,
0001
1000
0000
0010
1000
0001
0101
0000
,
0101
1000
1000
0010
,
0010
1000
0000
0001
0010
0100
0010
0001
,
1000
0000
1000
0100
0001
0100
0010
0100
,
1000
0100
0001
0100
0010
0100
1000
0100
,
0010
0000
0201
0000
0001
0000
1000
0300
,
1001
0000
0010
0000
0100
0000
1000
0001
,
1000
0010
0100
0001
0100
0010
1000
0001
,
1000
0100
0010
0000
0001
0000
1100
0000
,
0011
0000
0100
1000
0010
0100
0001
0000
,
0100
1000
1010
0001
,
0001
0000
1001
0010
1000
0010
1000
0010
,
1000
0001
1000
0001
0010
0100
0010
0001
,
1002
0000
0000
0003
1000
0000
0000
0000
1000
0000
0000
0000
1000
0000
0000
0000
,
0001
0010
0100
1000
0001
1000
0100
0001
,
0100
0010
0001
1000
0010
0100
1000
0100
,
0001
1000
0100
0010
0001
0010
0100
1000
,
0010
1000
0001
0010
1000
0100
0001
0010
,
1000
0100
0010
0100
0001
1000
0010
0100
,
0001
0010
0100
1000
0001
0010
1000
0100
,
0001
0010
0001
1000
0010
1000
0100
0010
,
0001
1000
0120
0000
0000
0000
0000
0030
;

//---------------dance-single - ----------------
#NOTES:
     dance-single:
     :
     Medium:
     6:
     0.464,0.449,0.227,0.180,0.000:
0000
0000
0000
0000
,
0000
0000
0000
0000
,
0000
0000
0000
0000
,
0000
0000
0000
0000
,
0000
0010
1000
0001
,
0000
0100
0001
1000
,
0000
0000
0010
0000
1000
0001
1000
0000
,
0000
0001
0000
1000
0001
1000
0000
0000
,
0000
0000
1002
0000
1000
0000
1000
0003
,
1000
0000
0010
1000
0010
0000
0100
0000
,
0001
0000
1000
0001
0010
0000
0100
0000
,
0100
0100
0100
0100
,
0100
0100
0100
0000
1000
0000
0001
0000
,
1000
0001
1000
0000
0010
0000
0100
0000
,
0001
1002
1000
1000
,
1003
0000
0001
1000
0001
1000
0001
0000
,
1000
0120
0100
0100
,
0130
0001
0001
0001
,
1000
0000
0010
1000
0010
1000
0010
0000
,
1000
0000
0001
0100
0001
0100
0001
0000
,
0000
0000
2000
0000
0000
3000
0000
0000
,
0001
0010
0100
0010
,
0001
1000
0010
0100
,
0001
0101
0101
0101
,
0101
1001
1000
0010
,
0100
0001
1000
0010
,
1000
0001
1000
0000
0100
0010
0001
0000
,
1000
0010
0100
0102
,
0100
0003
2002
0000
0000
0000
3003
0010
,
1000
0000
0000
0000
,
0010
1000
0001
0000
0010
0000
0100
0000
,
0010
0000
0100
0010
,
0000
1200
1000
0010
,
0001
0300
0201
0000
0001
0000
0010
0000
,
1300
1200
1000
0310
,
0001
0201
0001
0010
,
1300
0000
0000
0000
1000
0000
0100
0001
,
1000
0010
0001
0000
,
1000
0100
0010
0000
0001
0000
1001
0000
,
0000
0010
0000
0100
0010
0100
0010
0100
,
0010
0101
0001
0001
,
1000
0010
0000
1000
0001
1000
0001
0000
,
0010
0100
0010
0001
,
1000
0001
0000
1000
0010
0000
0100
0000
,
0001
0001
0001
0000
0100
0000
0001
0000
,
1000
0010
0000
1000
0010
1000
0001
0000
,
1000
0000
0000
1000
0001
1000
0001
1000
,
0000
0010
0000
0010
0100
0010
0100
0010
,
0100
0001
1000
0001
,
0010
0100
0000
0010
0001
0010
0001
0000
,
0010
0100
1100
1100
,
0001
1000
0000
0001
1000
0000
0002
0000
,
0000
0003
1000
0000
0010
0000
0100
0000
,
0001
0100
0000
0001
0100
0001
0100
0000
,
0001
0000
0000
1000
0010
1000
0010
1000
,
0000
0001
0000
0001
0100
0001
0100
0001
,
0100
1002
1000
0100
,
1000
0000
1000
0000
1000
0003
2001
0000
,
0001
0100
0001
0001
,
0100
3001
1000
1002
,
0010
0100
0010
0010
,
0100
1000
1003
2001
,
0010
0100
0001
0010
,
0010
0100
0001
3001
,
1002
1000
1003
0010
,
0100
0001
0000
0100
0001
0000
0100
0000
,
0001
1000
0010
1000
,
0100
1000
0000
0100
1000
0000
0001
0000
,
0010
0010
0010
0000
0001
0000
0100
0000
,
0001
0100
0000
0001
0100
0000
0001
0000
,
1000
0010
1000
0100
,
1000
0100
0000
1000
0100
0000
1000
0000
,
0001
2002
0000
0000
,
3003
0000
0000
0000
;

//---------------dance-single - ----------------
#NOTES:
     dance-single:
     :
     Easy:
     4:
     0.335,0.380,0.085,0.133,0.000:
0000
0000
0000
0000
,
0000
0000
0000
0000
,
0000
0000
0000
0000
,
0000
0000
0000
0000
,
0000
1000
0010
0001
,
0000
0001
0100
1000
,
0000
1000
0100
0001
,
0000
0001
1000
0001
,
0000
2000
0001
0001
,
3001
0000
0002
0100
,
0100
0103
0000
0020
,
1000
1000
1030
0000
,
0002
0100
0100
0103
,
0000
2000
0001
0001
,
3001
0000
0020
0001
,
0001
0031
0000
0100
,
0000
1002
1000
1003
,
0001
1000
0000
0000
,
0010
0100
0001
1000
,
1000
0000
0000
0000
,
0000
0001
0010
0001
,
1000
0010
0000
0000
,
0100
0001
1000
0100
,
1000
0010
0010
0010
,
0010
0010
0010
0000
,
0100
0001
0000
0000
,
0100
1000
0100
0001
,
1000
0000
0010
0001
,
0000
2000
0000
3000
,
0100
0001
0000
0000
,
0010
0001
1000
0100
,
1000
0000
1000
0010
,
0000
0000
1000
0001
,
0100
1000
0001
0000
,
0000
1000
0100
0010
,
0100
0001
0100
1000
,
0001
0000
1000
0000
,
0001
0000
1000
0000
,
0001
0100
0010
0100
,
1000
0100
0001
1000
,
0001
1001
1000
1000
,
0001
0001
0100
0001
,
0001
1000
1000
0010
,
0010
0100
0001
1001
,
0000
1000
1000
0001
,
0001
1000
0001
0010
,
0000
0000
0010
0100
,
0010
0100
0010
0100
,
0010
0001
0001
1000
,
1000
0010
0010
0100
,
0100
0001
1000
0001
,
1000
0001
1000
0010
,
0000
0100
0100
0010
,
0010
0100
0100
0001
,
1000
0000
0001
0100
,
1000
0010
0001
1000
,
0100
1002
1000
1000
,
1000
1003
0000
0001
,
1000
0120
0100
0100
,
0100
0130
0000
1002
,
0010
0100
0100
0103
,
0000
0000
0000
2001
,
0010
0100
0100
0100
,
0100
3001
1000
0000
,
1001
0010
0100
0001
,
1000
0100
1000
0001
,
0010
0001
1000
0010
,
1000
0001
0100
0001
,
0001
0001
1000
0010
,
1000
0001
1000
1000
,
0001
0010
0100
1000
,
0001
1000
0010
0100
,
0001
2002
0000
0000
,
3003
0000
0000
0000
;

//---------------dance-double - Copied from----------------
#NOTES:
     dance-double:
     Copied from:
     Hard:
     8:
     0.609,0.582,0.436,0.218,0.000:
00000000
00000000
00000000
00000000
,
00000000
00000000
00000000
00000000
,
00000000
00000000
00000000
00000000
,
00000000
00000000
00000000
00000000
,
00000000
00010000
00000100
00001000
,
00000010
00001000
00000000
00000100
00001000
00000010
00001000
00000100
,
00010000
00000000
00000000
00001000
00100000
00001000
00100000
00001000
,
00000000
00010000
00000000
00001000
00010000
00000000
00000000
00000000
,
00000000
10020000
00100000
01030000
,
10000000
01000000
00000000
00100000
00001000
00010000
00001000
00010000
,
00000100
00001000
00000101
00001010
,
00000001
00000010
00000000
00000100
00001000
00000010
00000100
00000001
,
00001000
00000010
00001100
00000000
00010000
00000000
00101000
00000000
,
01000000
00010000
00000000
10000000
00010000
10000000
00010000
00000000
,
00100000
00011000
00000100
00011000
,
01000000
00010000
00000000
10000000
00010000
10000000
00010000
00000000
,
00100000
02100000
10000000
00100000
,
03100000
00000000
02100000
00000000
00100000
00000000
00100000
03000000
,
00100000
00001000
00010000
00000010
00000100
00000001
00001000
00000000
,
00000001
00000000
00001000
00000100
00001000
00000100
00001000
00000000
,
00000001
00000102
00000010
00001003
,
00000100
00000010
00000002
00000000
00001000
00000000
00000013
00000000
,
00001200
00010000
00001000
00010300
,
00100000
01000000
10000000
01000000
00010000
10000000
01000000
00010000
,
01000000
00000000
12000000
10000000
10000000
03000000
00100000
00000000
,
00001000
00010000
00000010
00000000
00000100
00000000
00001001
00000000
,
00000010
00000100
00001000
00000001
00000100
00000010
00000100
00000000
,
00000002
00001003
00001200
00001000
,
00001300
00000000
00002002
00000000
00000000
00003003
00000000
00000010
,
00000001
00000100
00000020
00000000
00001000
00000000
00001030
00000000
,
00000001
00000010
00000100
00000010
00000001
00001000
00000100
00000000
,
00010000
00001000
00110000
00110000
,
00110000
10010000
10000000
12000000
,
10000000
00100000
03010000
02010000
,
00100000
13000000
10200000
01000000
,
00310000
00210000
00010000
01000000
,
10000000
00000000
00000000
00300000
10000000
01000000
00100000
01000000
,
00010000
00001000
00000100
00000001
00001000
00000000
00000001
00000000
,
00001000
00000001
00000010
00000000
00000100
00000000
00001001
00000000
,
00000000
00000010
00000000
00000001
00001000
00000001
00001000
00000001
,
00001000
00001100
00000101
00001001
,
00000010
00001000
00000000
00000001
00000010
00000100
00001000
00000000
,
00000010
00000101
00001010
00000001
,
00000010
00000100
00000000
00010000
00001000
00010000
01000000
10000000
,
00010000
00010000
10010000
00000000
10010000
00000000
10100000
00000000
,
00010000
10000000
00000000
00010000
10000000
00010000
10000000
00010000
,
10000000
00000000
01000000
00000000
00100000
01000000
00100000
00010000
,
10000000
01000000
00100000
00010000
00100000
01000000
10000000
00100000
,
10000000
10100000
01010000
10100000
,
00010000
00100000
00000000
01000000
10000000
00100000
01000000
00000000
,
00010000
11000000
00101000
00110000
,
01000000
00100000
00000000
01000000
00100000
00010000
10000000
00100000
,
10000000
01100000
00011000
00001100
,
00001000
00010000
00000000
00010000
00001000
00000010
00000001
00001000
,
00000100
00000000
00000010
00000001
00001000
00000010
00000100
00000001
,
00000010
00000100
00001000
00000010
00001000
00000001
00000100
00000000
,
00000102
00001003
00020010
00032000
,
00100000
00000000
00013000
00001000
00010000
01000000
10000000
00000000
,
00020000
00000000
10000000
00000000
00130000
00000000
00001000
00010000
,
00000010
00000100
00000002
00000000
00001000
00000003
00000010
00000001
,
00000100
00001000
00020000
00000000
00000100
00000000
00001000
00000000
,
00130000
00000000
01000000
00010000
00100000
01000000
10000000
00000000
,
00010000
00002000
00000010
00010000
,
01003000
00000000
00010000
00001000
00000010
00000100
00001000
00000001
,
00001001
00000000
00000110
00000000
00000001
00000010
00000100
00001000
,
00000010
00000100
00000001
00000010
00000100
00010000
00001000
00100000
,
01000000
10000000
00100000
01000000
00001000
00010000
01000000
10000000
,
00100000
00010000
00001000
00100000
01000000
00100000
00001000
00010000
,
00000010
00000100
00000001
00000010
00000100
00010000
00001000
00000010
,
00000100
00001000
00000001
00000100
00001000
00010000
00001000
00100000
,
01000000
00100000
00001000
00010000
00000010
00000100
00001000
00100000
,
01000000
00010000
00001000
00000100
00000001
00001000
00000100
00000010
,
00001000
01100000
00000000
00000000
;
