#TITLE:BEE;
#SUBTITLE:(Technical trance speed mix);
#ARTIST:Kosenko;
#TITLETRANSLIT:;
#SUBTITLETRANSLIT:;
#ARTISTTRANSLIT:;
#CREDIT:;
#BANNER:bee-bn.png;
#BACKGROUND:bee-bg.png;
#LYRICSPATH:;
#CDTITLE:cdtitle.png;
#MUSIC:BEE.ogg;
#OFFSET:-0.009;
#SAMPLESTART:47.100;
#SAMPLELENGTH:11.900;
#SELECTABLE:NO;
#BPMS:0.000=160.000;
#STOPS:;
#BGCHANGES:;

//---------------dance-single - ----------------
#NOTES:
     dance-single:
     :
     Hard:
     9:
     0.772,1.000,0.233,0.126,0.485:
0000
0000
0000
0000
,
0000
0000
0000
0000
,
0000
0000
0000
0000
,
1000
0000
0001
1001
,
0110
0000
1100
0000
1001
0100
0010
0100
,
0100
1000
0001
0010
0001
1000
0100
0000
,
1000
0000
0001
0000
0100
0010
1000
0001
,
0100
0001
0010
1000
0001
0100
1000
0010
,
0001
1000
0010
0001
0100
0010
1000
0000
,
1100
0100
0010
0001
1000
0100
0010
0001
,
1000
0001
0010
0100
1000
0001
0010
0100
,
1000
0010
0100
0001
1000
0010
0100
0001
,
0001
0000
1000
0100
1000
0000
0001
0000
0001
0000
0000
0000
0100
0000
0000
0000
,
0010
0000
1000
0010
1000
0000
0001
0000
0001
0000
0000
0000
0100
0000
0000
0000
,
0001
0000
0010
0001
0010
0000
0100
0000
1000
0000
0100
1000
0100
0000
0010
0000
,
0001
0000
0010
0001
0010
0000
0100
0000
1000
0000
0100
1000
0100
0000
1000
0000
,
1002
0000
0010
0010
0013
0000
0000
0000
,
1000
0000
0100
1000
0100
0000
0001
0000
0200
0000
0000
0000
0000
0000
0300
0000
,
2010
0000
3001
0010
0001
0000
1000
0000
0010
0000
0100
0000
0002
0000
1003
0000
,
0100
0000
1000
0100
1000
0000
0001
0000
0010
0000
0100
0000
0010
0000
0001
0000
,
2002
0000
0000
0000
,
0000
0000
0000
0000
0000
0000
0000
3003
,
1000
1000
0001
0100
0001
1000
0010
0100
,
0001
0010
1000
0100
0001
1000
0100
0010
,
0001
0000
0010
0001
0010
0000
0100
0000
1000
0000
0100
1000
0100
0000
0010
0000
,
0001
1000
0010
0100
0001
0100
0001
1000
,
0020
0000
0030
0010
0100
1000
0100
0001
,
0200
0000
0000
0000
1300
0100
0001
0010
,
0200
0000
0000
0000
1300
0001
1000
0010
,
0200
0000
0000
0301
0001
1000
0001
1000
,
0200
0000
0000
0310
0010
0001
1000
0100
,
1000
0001
0010
0000
,
1100
0000
0000
0000
1001
0000
0100
0000
0010
0000
0001
1000
0100
0000
1000
0100
,
1000
0000
0001
0010
0001
0000
0100
0001
0100
0000
0010
1000
0010
0000
0100
0001
,
1000
0001
1000
0001
1000
0001
0100
0001
0100
0001
1000
0100
1000
0100
1000
0100
,
1000
0100
0010
0100
0010
0100
0010
0100
0010
0001
0010
0001
0010
0000
0001
0000
,
0001
0000
0100
0001
0100
0000
0001
0100
0001
0000
0100
0010
0100
0000
0010
1000
,
0010
0000
1000
0100
1000
0000
0001
1000
0001
0000
0010
0001
0010
0000
0001
0000
,
0100
0001
0100
0001
0100
0010
0100
0010
0100
0010
1000
0010
1000
0010
1000
0100
,
1000
0100
1000
0100
1000
0001
1000
0001
0010
0001
0010
0001
0010
0000
0001
0000
,
0100
0000
0001
1000
0001
0000
0010
0000
0100
0000
1000
0100
1000
0000
0001
0000
,
0010
0000
0001
0010
0001
0000
1000
0000
0100
0000
1000
0100
1000
0000
0001
0000
,
1000
0100
1000
0100
0010
0100
0010
0100
0010
0001
1000
0001
1000
0001
0100
0001
,
0100
0001
0100
0010
0100
0010
1000
0010
1000
0010
1000
0001
0100
0001
1000
0000
,
0100
0010
0100
0010
0001
0000
1000
0010
,
0100
0000
0010
0100
0010
0000
1000
0000
1000
0000
0001
0000
0100
0000
0001
0000
,
0001
1000
0001
1000
0001
1000
0010
1000
0100
1000
0010
0100
0010
1000
0001
0000
,
1000
0000
0100
1000
0100
0010
0100
0010
0100
0010
0001
0010
0001
0100
0001
1000
,
0001
1000
0010
0100
0010
1000
0100
1000
0100
1000
0100
0000
0001
0000
0000
0000
,
0100
0000
0010
0100
0010
0100
0010
0100
0010
0000
0010
0000
0010
0000
0010
0000
,
0100
0000
0001
0100
0001
0000
0001
0000
1000
0000
0000
0000
0001
0000
1000
0000
,
0100
0000
0000
0000
0010
0000
0100
1000
0100
1000
0100
1000
0100
0010
0100
0010
,
0001
0000
1000
0001
0101
0000
0010
1000
,
2200
0000
0000
0000
0000
0000
3300
0010
,
0110
0000
0100
0001
0010
0100
1000
0010
,
0010
1000
0001
0100
1000
0100
0001
0001
,
0000
0100
1000
0010
0001
1000
0100
0010
,
0000
0100
1100
0000
1010
0000
1100
0001
,
0000
1000
0100
0010
1000
0010
0001
0100
,
0000
0010
1000
0100
1000
0010
0001
0100
,
0000
0010
0001
0010
0100
0001
0010
0100
,
0000
1000
1100
0000
1001
0000
1001
0000
,
0000
0001
0100
0001
1000
0010
0010
0100
,
0000
0100
1000
0010
0001
1000
0100
0010
,
0000
0010
1000
0100
0001
0010
0100
1000
,
1100
0000
1001
0000
0101
0000
1001
0001
,
1001
0000
0000
0000
;

//---------------dance-double - Copied from----------------
#NOTES:
     dance-double:
     Copied from:
     Challenge:
     9:
     0.733,1.000,0.243,0.019,0.446:
00000000
00000000
00000000
00000000
,
00000000
00000000
00000000
00000000
,
00000000
00000000
00000000
00000000
,
00000000
00000000
00000000
00000000
,
10000000
00000000
01000000
00000000
00100000
00100000
00100000
00010000
,
01000000
00001000
00010000
00001000
00000100
00000001
00001000
00000001
,
00000010
00000000
00000100
00001000
00000100
00000000
00000010
00000000
00000001
00000000
00000100
00000000
00000001
00000000
00000100
00000000
,
00000001
00000000
00000100
00000001
00000100
00000000
00000010
00000000
00001000
00000000
00000100
00000000
00010000
00000000
00001000
00000000
,
01001000
00000000
00100000
00010000
10000000
01000000
00100000
00001000
,
00010000
01000000
10000000
00100000
00010000
00001000
00100000
00010000
,
00100000
00001000
00010000
00000010
00000100
00001000
00000100
00000001
,
00001000
00000100
00000010
00001000
00010000
00000100
00001000
00000000
,
00000001
00000000
00001000
00000001
00001000
00000000
00000001
00000000
00000101
00000000
00000000
00000000
00000000
00000000
00000000
00000000
,
00001010
00000000
00001000
00100000
00001000
00000000
00100000
00000000
00010000
00000000
00000000
00000000
00000000
00000000
00000000
00000000
,
11000000
00000000
01000000
00010000
01000000
00000000
00010000
00000000
00001000
00000000
00000010
00000000
00000100
00000000
00001000
00000000
,
00001001
00000001
00000010
00000100
00001000
00000010
00000100
00000001
,
00001001
00000000
00000100
00000100
00000100
00000000
00000000
00000000
,
00011000
00000000
00010000
00001000
00010000
00000000
01000000
00000000
10000000
00000000
00000000
00000000
11000000
00000000
00000000
00000000
,
00010000
00100000
01000000
00010000
01000000
10000000
00010000
00100000
,
01000000
00010000
00001000
00000010
00000100
00001000
00000100
00000001
,
00002002
00000000
00000000
00000000
,
00000000
00000000
00000000
00000000
00000000
00003003
00000000
00000000
,
00001100
00000000
00000001
00000000
00000100
00000001
00001000
00000100
,
00000010
00000100
00010000
00001000
01000000
00100000
01000000
00001000
,
00010000
01000000
10000000
00100000
10000000
01000000
00010000
00001000
,
00000010
00000001
00000100
00001000
00010000
00100000
10000000
01000000
,
01100000
00000000
00000000
00010000
00001000
00000010
00000100
00001000
,
00000001
00000000
00000100
00000010
,
00001000
00010000
00100000
00000000
01000000
00000000
00001000
00100000
,
00010000
00000000
00000000
10000000
01000000
00010000
00001000
00100000
,
01000000
00000000
10000000
01000000
,
00010000
00001000
00000010
00000000
,
00001001
00000000
00000001
00000100
00000001
00000000
00000010
00000000
00000100
00000000
00010000
00000100
00010000
00000000
00001000
00000000
,
01000000
00000000
00100000
01000000
00100000
00000000
01000000
00000000
00001000
00000000
00010000
00001000
00010000
00000000
00010000
00000000
,
00100000
00010000
00100000
00010000
10000000
00010000
10000000
00010000
10000000
01000000
10000000
01000000
00100000
01000000
00100000
01000000
,
00100000
00010000
01000000
00010000
01000000
00010000
01000000
00010000
10000000
00010000
10000000
00010000
10000000
00000000
00000000
00000000
,
00100000
00000000
10000000
01000000
10000000
00000000
01000000
00000000
00100000
00000000
00001000
00010000
00001000
00000000
00010000
00000000
,
00000010
00000000
00000100
00000001
00000100
00000000
00000001
00000000
00001000
00000000
00000100
00001000
00000100
00000000
00000010
00000000
,
00000001
00001000
00000001
00001000
00000001
00000100
00000001
00000100
00000001
00000010
00000001
00000010
00000001
00001000
00000001
00001000
,
00000001
00001000
00000100
00001000
00000100
00001000
00000010
00001000
00000010
00001000
00000010
00000000
00000100
00000000
00000001
00000000
,
00001000
00000000
00000100
00001000
00000100
00000000
00010000
00000000
00001000
00000000
01000000
00100000
01000000
00000000
00001000
00000000
,
00010000
00000000
01000000
00100000
01000000
00000000
10000000
00000000
00010000
00000000
10000000
01000000
10000000
00000000
01000000
00000000
,
00100000
00001000
00100000
00001000
00010000
00001000
00010000
00001000
01000000
00001000
00010000
00001000
00010000
00000100
00001000
00000100
,
00001000
00000100
00000010
00000001
00001000
00000010
00000100
00000001
,
00001000
00000010
00001000
00000010
00001000
00000100
00000000
00000000
00010000
00000000
00001000
00000000
01000000
00000000
00010000
00000000
,
00100000
00000000
00010000
00100000
00010000
01000000
00001000
00010000
00001000
00010000
00000100
00001000
00000100
00001000
00000010
00001000
,
00000001
00001000
00000001
00000100
00000001
00001000
00000001
00000010
00000001
00000010
00000001
00001000
00000001
00001000
00000100
00001000
,
00000100
00001000
00000100
00001000
00000100
00001000
00000100
00001000
00000100
00001000
00000100
00001000
00000100
00000000
00001000
00000000
,
00001001
00000000
00000001
00000010
00000100
00001000
00000010
00000010
,
00010000
00000000
00001000
00010000
00001000
00010000
00001000
00010000
00000000
00000000
00001000
00000000
00001000
00000000
00001000
00000000
,
01000000
00000000
00010000
01000000
00010000
00000000
10000000
00000000
00100000
00000000
10000000
00100000
10000000
00000000
00010000
00000000
,
00100000
01000000
00100000
01000000
10000000
01000000
10000000
01000000
00100000
01000000
00100000
00010000
00100000
00010000
01000000
00010000
,
10000000
00010000
10000000
00000000
00000000
00000000
00000000
00000000
01010000
00000000
00000000
00000000
00000000
00000000
00000000
00000000
,
00011000
00000000
00000000
00000000
,
00001100
00000100
00000010
00000001
00000100
00001000
00010000
00001000
,
00010000
00000000
01000000
10000000
01000000
00000000
00100000
00000000
00001000
00000000
00010000
00000000
01000000
00000000
01000000
00000000
,
00000000
00010000
00001000
00000010
00000100
00001000
00000001
00000000
,
00000101
00001001
00001100
00010100
,
00000000
00010000
00001000
01000000
00010000
00100000
01000000
10000000
,
00000000
00100000
10000000
00010000
10000000
01000000
00010000
00001000
,
00000000
00100000
01000000
00010000
01000000
10000000
00100000
00000000
,
10010000
00101000
00010010
00000101
,
00001000
00000001
00000100
00000010
00000100
00001000
00010000
00001000
,
00000000
01000000
00001000
00100000
00010000
00100000
01000000
00100000
,
00000000
10000000
01000000
00010000
01000000
00100000
00010000
00010000
,
00000000
00100000
01000000
00010000
01000000
10000000
00010000
00100000
,
01100000
00000000
00000000
00000000
;

//---------------dance-single - Copied from ----------------
#NOTES:
     dance-single:
     Copied from:
     Challenge:
     10:
     1.000,1.000,0.243,0.049,1.000: // measure 1
0000
0000
0000
0000
,  // measure 2
0000
0000
0000
0000
,  // measure 3
0000
0000
0000
0000
,  // measure 4
0000
0000
0000
0000
,  // measure 5
0000
0000
0000
0000
0100
0100
0100
0001
,  // measure 6
1000
0000
0010
1000
0010
0000
0100
0000
0001
0000
1000
0000
0100
0000
0010
0000
,  // measure 7
0001
0000
1000
0100
1000
0000
0100
0000
0010
0000
0001
0000
1000
0000
0010
0000
,  // measure 8
0100
0000
0010
0100
0010
0000
1000
0000
0001
0000
0100
0000
0010
0000
1000
0001
,  // measure 9
1000
0000
0100
0000
0010
0000
0001
0000
1000
0000
0100
0010
0001
0000
1000
0000
,  // measure 10
0100
0010
0001
1000
0010
0100
0001
0100
0001
0100
0010
0000
1000
0000
0100
0000
,  // measure 11
1000
0010
1000
0001
1000
0100
0010
0100
1000
0001
0100
0010
0100
0001
1000
0100
,  // measure 12
1000
0100
1000
0001
1000
0001
0100
0010
0100
0010
1000
0001
1000
0100
1000
0000
,  // measure 13
0100
0010
0001
1000
1001
0000
0000
0000
,  // measure 14
0100
0000
0001
0100
0001
0000
0100
0000
0110
0000
0000
0000
0010
0000
0000
0000
,  // measure 15
0010
0000
1000
0010
1000
0000
0001
0100
0001
0000
1000
0010
1000
0000
0001
0100
,  // measure 16
0010
1000
0001
0010
0100
1000
0001
1000
0100
0010
0001
1000
0010
0100
0001
0100
,  // measure 17
0010
1000
0001
1000
0100
0000
0100
0000
1100
0000
0000
0000
1001
0000
0000
0000
,  // measure 18
0010
0000
0100
0010
0100
0000
0001
0000
1001
0000
0000
0000
0010
0000
0000
0000
,  // measure 19
1000
0100
0010
0001
1000
0100
0010
0001
0100
0010
1000
0001
0010
0100
1000
0010
,  // measure 20
0100
0001
1000
0100
0010
0100
1000
0001
0100
0010
0100
0001
1000
0001
1000
0100
,  // measure 21
2200
0000
0000
0000
,  // measure 22
0000
0000
0000
0000
0000
0000
0000
3300
,  // measure 23
0100
1000
0100
1000
0100
1000
0001
1000
0001
0100
0001
0100
0010
0100
0010
1000
,  // measure 24
0010
1000
0010
0100
0010
1000
0010
0100
0001
1000
0100
0010
0100
1000
0001
1000
,  // measure 25
0001
0010
0100
0010
0001
1000
0100
0010
0001
1000
0010
0100
0001
0100
0001
0100
,  // measure 26
0001
0100
0001
0100
0001
0100
0010
1000
0010
0000
1000
0000
0001
0000
0010
0000
,  // measure 27
2000
0000
3100
0010
0001
1000
0100
0010
,  // measure 28
0100
0000
0000
0000
1000
0001
0100
0010
0100
0001
1000
0010
1000
0010
0100
0001
,  // measure 29
1000
0100
0010
0001
1000
0010
0100
0010
0100
0001
1000
0100
0010
0100
1000
0001
,  // measure 30
0100
0010
0100
0001
1000
0100
1000
0010
0100
0001
1000
0100
0010
0001
1000
0010
,  // measure 31
0100
0001
1000
0001
1000
0010
0100
0001
0010
0100
1000
0100
0010
0001
1000
0100
,  // measure 32
0010
0001
1000
0001
0100
0001
0100
0010
1000
0010
1000
0001
0100
0000
0000
0000
,  // measure 33
1001
0001
0010
0100
1000
0001
0100
0001
1000
0000
0010
0001
0010
0000
0100
0010
,  // measure 34
0100
0000
1000
0001
1000
0000
0010
0100
0010
0000
1000
0001
1000
0000
0100
0000
,  // measure 35
0010
0100
1000
0010
0100
0001
0010
0100
0010
0001
0010
0100
1000
0100
0001
0010
,  // measure 36
0001
0100
0001
0010
0100
1000
0010
1000
0100
0010
0010
0100
0010
0001
1000
0010
,  // measure 37
0100
0001
1000
0100
0010
0100
1000
0001
0100
0010
1000
0001
0010
0100
1000
0001
,  // measure 38
0100
0010
1000
0001
0010
0100
1000
0010
0100
0001
0010
0100
1000
0010
1000
0001
,  // measure 39
0100
0010
1000
0001
0010
0100
1000
0001
0010
0100
1000
0001
0010
0100
1000
0001
,  // measure 40
0010
0100
1000
0001
0010
0100
1000
0001
0010
0100
1000
0001
0010
0100
1000
0001
,  // measure 41
0010
0100
1000
0001
0010
0100
1000
0001
0010
0100
1000
0001
0010
0100
1000
0010
,  // measure 42
0100
0001
0100
0010
1000
0001
0100
0010
1000
0001
0100
0010
1000
0001
0100
0010
,  // measure 43
1000
0001
0010
0100
1000
0010
0100
0001
0010
1000
0010
0001
1000
0100
0001
0100
,  // measure 44
1000
0010
0100
0001
0010
1000
0010
0001
1000
0100
0001
0100
1000
0010
0100
0001
,  // measure 45
1000
0010
1000
0010
0100
0010
0100
0001
0010
0100
0010
0100
1000
0001
1000
0001
,  // measure 46
1000
0100
0010
0100
0010
0001
1000
0001
1000
0100
0010
0100
1000
0010
0100
0001
,  // measure 47
0010
0100
1000
0010
0100
0001
1000
0010
0100
0001
1000
0010
0100
0001
1000
0010
,  // measure 48
0100
0001
1000
0010
0100
0001
1000
0010
0100
0001
1000
0010
0100
0001
1000
0000
,  // measure 49
0100
0000
1000
0100
1001
0001
1000
0010
0100
0000
0010
0000
0010
0000
0010
0000
,  // measure 50
0100
0001
1000
0001
1100
0001
0010
0100
1000
0000
0100
0000
0100
0000
0100
0000
,  // measure 51
1001
0000
0000
0000
0010
0000
0100
0000
1000
0001
1000
0001
0100
0010
1000
0001
,  // measure 52
0100
0010
0100
0010
1000
0001
0010
0100
1000
0010
0100
0001
0010
0100
1000
0000
,  // measure 53
1001
0000
0010
0100
1001
0000
0100
1000
,  // measure 54
2200
0000
0000
0000
0000
0000
3300
0010
,  // measure 55
0110
0000
0100
0001
0010
0100
1000
0010
,  // measure 56
0010
1000
0001
0100
1000
0100
0001
0001
,  // measure 57
0000
0100
1000
0010
0001
1000
0100
0010
,  // measure 58
0000
0100
1100
0000
1010
0000
1100
0001
,  // measure 59
0000
1000
0100
0010
1000
0010
0001
0100
,  // measure 60
0000
0010
1000
0100
1000
0010
0001
0100
,  // measure 61
0000
0010
0001
0010
0100
0001
0010
0100
,  // measure 62
0000
1000
1100
0000
1001
0000
1001
0000
,  // measure 63
0000
0001
0100
0001
1000
0010
0010
0100
,  // measure 64
0000
0100
1000
0010
0001
1000
0100
0010
,  // measure 65
0000
0010
1000
0100
0001
0010
0100
1000
,  // measure 66
1100
0000
1001
0000
0101
0000
1001
0001
,  // measure 67
1001
0000
0000
0000
;
