#TITLE:APOLOGIZE;
#SUBTITLE:(Flip & Fill mix);
#ARTIST:The real booty babes;
#TITLETRANSLIT:;
#SUBTITLETRANSLIT:;
#ARTISTTRANSLIT:;
#CREDIT:;
#BANNER:;
#BACKGROUND:;
#LYRICSPATH:;
#CDTITLE:cdtitle.png;
#MUSIC:Apologize.ogg;
#OFFSET:-0.009;
#SAMPLESTART:57.620;
#SAMPLELENGTH:11.900;
#SELECTABLE:NO;
#BPMS:0.000=141.000;
#STOPS:;
#BGCHANGES:;

//---------------dance-single - ----------------
#NOTES:
     dance-single:
     :
     Hard:
     7:
     0.516,0.555,0.275,0.332,0.099: // measure 1
0000
0000
0000
0000
,  // measure 2
0000
0000
0000
0000
,  // measure 3
0000
0000
0000
0000
,  // measure 4
0000
0000
0000
0000
,  // measure 5
0010
1100
0010
1100
,  // measure 6
0010
0101
0010
0101
,  // measure 7
1000
0001
1000
0000
0010
0100
0010
0000
,  // measure 8
0100
0001
0010
0100
1000
0100
0010
0001
,  // measure 9
2002
0000
0000
0000
,  // measure 10
0000
0000
0000
3003
,  // measure 11
2100
0001
0100
3100
,  // measure 12
0021
0000
0001
0000
0031
0000
0001
0100
,  // measure 13
0102
0000
1000
0000
0103
0000
0001
1000
,  // measure 14
2001
0000
0100
0000
0010
0000
3001
1000
,  // measure 15
2010
0000
0010
0000
0100
0000
0001
3001
,  // measure 16
0012
0010
1000
0103
,  // measure 17
0101
0000
0001
0001
1000
0000
0010
0000
,  // measure 18
2010
0000
3010
0010
1000
0000
1100
0000
,  // measure 19
0100
1000
0001
1000
0001
0000
0200
0000
,  // measure 20
0001
0010
0010
0000
0010
0010
0001
0000
,  // measure 21
0301
0000
0001
0100
1002
0000
1000
2003
,  // measure 22
0000
0001
0001
3000
0002
0000
1000
1000
,  // measure 23
1003
0000
0010
0100
0010
0000
0100
0001
,  // measure 24
1000
0100
1000
0010
0200
0000
0001
0001
,  // measure 25
0001
0000
0010
0010
0010
0000
1000
1000
,  // measure 26
1000
0000
0010
0000
0001
0000
0001
0001
,  // measure 27
0301
0000
1000
0001
0020
0000
0100
0000
,  // measure 28
0130
0010
0100
0010
0002
0000
2003
0000
,  // measure 29
3200
0000
0320
0000
0031
0000
1000
0010
,  // measure 30
0200
0000
0000
0000
0020
0000
0030
0300
,  // measure 31
0010
0100
0010
0100
0020
0000
2030
0000
,  // measure 32
0001
0001
3001
2000
0100
0000
3200
0020
,  // measure 33
0000
0000
0000
0000
0330
0000
0010
0002
,  // measure 34
2000
0003
0100
0000
3100
0000
0001
0010
,  // measure 35
0110
0000
1100
0000
1001
0001
0100
0001
,  // measure 36
0010
0001
0100
1000
0100
0000
1010
0000
,  // measure 37
0010
1000
0100
0010
0100
1000
0001
0010
,  // measure 38
0100
0000
0010
0000
0001
1000
0001
1000
,  // measure 39
2100
0000
3001
0000
0100
0001
1002
0000
,  // measure 40
0013
0001
0102
0000
0103
0000
0010
1000
,  // measure 41
0100
1000
0010
0001
0010
1000
0100
1000
,  // measure 42
0010
0001
0010
1000
0100
0000
0001
0010
,  // measure 43
1010
0000
0010
0001
0100
1000
0100
0000
,  // measure 44
1010
0000
0101
0000
0010
0001
1000
0100
,  // measure 45
0210
0000
1000
0000
0010
0010
0010
0000
,  // measure 46
0001
0000
1000
0000
0010
0010
0310
0000
,  // measure 47
0010
0001
0100
1000
0100
0001
1000
0100
,  // measure 48
0010
0001
1000
0100
0001
0010
0100
1000
,  // measure 49
0012
0000
0010
0000
1000
0100
0100
0100
,  // measure 50
1000
0000
0010
0000
0010
0010
0013
0000
,  // measure 51
1000
0000
0000
0001
0000
0000
0100
0000
0010
0000
1000
0000
0001
0000
0100
0000
,  // measure 52
0001
1000
0000
0010
0000
0000
1010
0000
0001
0000
0010
0000
0100
0000
0010
0000
,  // measure 53
0001
0100
0000
0001
0000
0001
0100
0000
0001
0000
1000
0000
0010
0000
0010
0000
,  // measure 54
1000
0100
0000
1000
0000
0010
1000
0000
0010
0000
0001
0000
0100
0000
1000
0000
,  // measure 55
0100
1000
0000
0100
0000
0001
0010
0000
0010
0000
1000
0000
0001
0000
0100
0000
,  // measure 56
0001
0100
0000
0010
0000
1000
0001
0000
0010
0000
0010
0000
0001
0000
0100
0000
,  // measure 57
0001
0010
0000
0010
0000
1000
0010
0000
0001
0000
0100
0000
0010
0000
0100
0000
,  // measure 58
1000
0001
0000
0010
0000
0100
1000
0000
0001
0000
0010
0000
0100
0000
1000
0000
,  // measure 59
2002
0000
0000
0000
0000
3003
0000
0000
;

//---------------dance-single - ----------------
#NOTES:
     dance-single:
     :
     Medium:
     5:
     0.348,0.385,0.123,0.237,0.000:
0000
0000
0000
0000
,
0000
0000
0000
0000
,
0000
0000
0000
0000
,
0000
0000
0000
0000
,
2000
0000
0001
0000
0001
0000
0001
3000
,
0001
0100
0100
0100
,
0002
1000
1000
1003
,
0110
0210
0010
0310
,
0220
0000
0000
0000
,
0000
0000
0000
0330
,
1000
0000
0001
0001
,
0100
0100
1000
0000
,
1000
0000
1000
0000
,
1000
1000
0100
0100
,
0001
0000
0100
0000
,
0010
0000
0001
0001
,
1000
0001
0010
0000
,
0100
1000
0001
0000
,
0100
0001
2000
0000
0010
0000
0001
3000
,
0001
0100
0002
0000
1000
0000
0103
0000
,
0010
0000
1000
0001
0010
0000
0100
0010
,
0000
0100
0100
0000
1000
0000
0001
0001
,
1000
0000
0001
0000
0100
0000
0010
0010
,
1000
0000
0001
0000
0010
0000
0001
1000
,
0200
0000
0010
0000
0010
0000
0010
0010
,
0310
0000
0001
0000
0200
0000
0010
0010
,
0010
0300
1000
0001
0100
0000
1001
0000
,
0100
0001
1000
0000
0010
0000
0001
2000
,
0200
0000
0000
0000
0000
3300
0002
0020
,
0000
0000
0000
0000
0000
0000
0000
0033
,
0100
0000
0100
0000
0010
1000
0002
0000
,
0100
0000
1003
0000
0001
1000
0001
0000
,
0010
2000
0100
3001
,
0001
1000
0100
0000
0010
0000
0000
0000
,
0110
0000
0100
1000
0001
0000
0100
0000
,
1000
0000
0010
0001
1000
0000
0100
0000
,
0010
0010
0001
1000
,
0010
1000
0100
0000
1000
0000
0010
0001
,
0100
0000
0010
0000
0010
1000
0001
0000
,
0100
0000
0010
0000
0010
0100
0001
0000
,
0010
0100
1000
0000
0010
0100
0001
0000
,
0010
0100
1000
0000
0100
0010
0100
0000
,
1001
0000
0100
0000
0001
0010
0001
0000
,
1000
0200
0000
1000
,
0020
0000
0000
0000
,
0000
0000
0330
0010
,
0100
0010
0001
0000
0001
0000
0100
1000
,
0001
2000
0000
0010
,
0002
0000
0000
0000
3003
0000
0100
0010
,
0100
0001
1000
0000
,
0201
0001
0010
0301
,
1000
0010
1000
0000
1200
0000
0010
0000
,
1300
0000
0010
0001
0010
0000
0210
0000
,
1000
0000
0001
0300
0010
0001
0100
0000
,
0210
0000
0001
0000
1000
0300
0010
0100
,
0001
1002
0100
1003
,
0001
1000
0010
0000
2100
0000
0001
0000
,
0010
3000
0010
0100
0001
0000
1000
0000
,
0110
0000
0000
0000
;

//---------------dance-single - ----------------
#NOTES:
     dance-single:
     :
     Easy:
     3:
     0.221,0.306,0.085,0.161,0.000:
0000
0000
0000
0000
,
0000
0000
0000
0000
,
0000
0000
0000
0000
,
0000
0000
0000
0000
,
2000
0000
3002
0000
,
0203
0000
0320
0000
,
2030
0000
3002
0000
,
0013
0010
0010
0010
,
2002
0000
0000
0000
,
0000
0000
0000
3003
,
0010
0000
0100
0000
,
0001
0000
1000
0000
,
0010
0000
0100
0000
,
0001
0000
1000
0000
,
0100
0000
0001
0000
,
0010
0000
1000
0000
,
0100
0000
0001
0000
,
1000
0000
0010
0000
,
0100
0100
0100
0000
,
0001
0001
0001
0000
,
1000
0000
0010
0000
,
0101
0000
0010
0000
,
1100
0000
1000
0000
,
0001
0000
1000
0000
,
0001
0000
0100
0000
,
0010
0000
0100
0000
,
0100
0000
0001
0000
,
0001
0000
1000
0000
,
1000
0000
0000
0001
,
0200
0000
0000
0300
,
0100
0000
0001
0000
,
1000
0000
0010
0000
,
0100
0000
0000
0001
,
0000
1000
0000
0000
,
1001
0001
0001
0100
,
2000
0001
3001
0000
,
1001
0002
0100
1003
,
0100
0001
0000
1000
,
1020
0100
2000
3031
,
0001
0100
0000
0000
,
1000
0001
0010
0010
,
0001
0000
0000
1000
,
1100
0001
1000
0010
,
0100
0000
1000
0001
,
0010
1000
0100
0001
,
0000
1000
0001
0000
,
0100
1000
0001
0010
,
0000
0010
0001
1000
,
0200
0000
0000
1300
,
0001
0010
0010
0001
,
1000
1200
1300
0001
,
0100
0010
0000
0100
,
0001
1000
0000
0010
,
0001
1000
0010
0001
,
0000
0100
1000
0001
,
1000
0000
0000
0000
,
0010
1000
0001
0000
,
0100
0001
1000
0010
,
2002
0000
0000
3003
;

//---------------dance-double - Copied from----------------
#NOTES:
     dance-double:
     Copied from:
     Hard:
     8:
     0.536,0.553,0.189,0.038,0.227:
00000000
00000000
00000000
00000000
,
00000000
00000000
00000000
00000000
,
00000000
00000000
00000000
00000000
,
00000000
00000000
00000000
00000000
,
00010000
00001000
00010000
00000000
00001000
00000000
00010000
00000000
00001000
00000000
00010000
00000000
01000000
00000000
00010000
00000000
,
00001000
00010000
00001000
00000100
00001000
00000100
00001000
00010000
,
00001000
00010000
00001000
00000000
00010000
00000000
00001000
00000000
00000100
00000000
00000001
00000000
00001000
00000000
00000000
00000000
,
00000001
00000001
00001000
00001000
00000001
00000001
00001000
00000000
,
00022000
00000000
00000000
00000000
,
00000000
00000000
00000000
00033000
,
00010000
00000000
00001000
00010000
01000000
00000000
10000000
00010000
,
00100000
00000000
01000000
00100000
00001000
00000000
00010000
00000010
,
00000100
00000000
00000001
00001000
00000100
00000000
00000010
00000001
,
00000001
00000000
00001000
00000100
00010000
00000000
00001000
01000000
,
00010000
00000000
01000000
00001000
00010000
00000000
00000100
00010000
,
00001000
00000000
00100000
00001000
01000000
00000000
00001000
00010000
,
00000010
00000000
00001000
00010000
00000100
00000000
00001000
00010000
,
00000100
00000000
00000010
00010000
00000100
00000000
00001000
00000000
,
00000100
00000001
00000100
00000010
00000100
00000000
00000001
00000000
,
00000001
00000100
00001000
00010000
00001000
00000000
00010000
00001000
,
00010000
00000000
01000000
00000000
00110000
00000000
01000000
11000000
,
00000000
00000000
00000000
00000000
00100000
00000000
01000000
00010000
,
10010000
00010000
01000000
00100000
10000000
00010000
10000000
00000000
,
01000000
00100000
00001000
00010000
01000000
00100000
00001000
01000000
,
00001000
00100000
00001000
00000000
00011000
00000000
00000100
00001000
,
00001001
00000000
00000001
00000100
00000010
00000000
00000010
00001000
,
00001001
00000001
00000100
00000001
00001000
00000000
00001001
00000000
,
00000100
00000001
00001000
00000010
00001000
00000010
00000001
00001000
,
00000100
00000000
00010000
00001000
00010000
01000000
10000000
01000000
,
00100000
00010000
00001000
00000100
00000010
00000001
00000001
00000000
,
00001000
00000001
00000100
00001000
00010000
00000000
00010000
00000000
,
00001000
00010000
01000000
10000000
00010000
00000000
00100000
01000000
,
10000000
00000000
00000000
00000000
00000000
00000000
00100000
00010000
,
10000000
00000000
00100000
00001000
01000000
00000000
00010000
00000000
,
01010000
00000000
00010000
00000000
01000000
00000000
00100000
00000000
00100000
10000000
00000000
00000000
00010000
00000000
01000000
00000000
,
00010000
10000000
00000000
00010000
00000000
00000000
00100000
00000000
00100000
00000000
01000000
00000000
00100000
00000000
00010000
00000000
,
01000000
00001000
00000000
00000000
00010000
00000000
00000010
00000000
00000100
00000000
00000001
00000000
00001000
00000000
00000100
00000000
,
00000010
00000001
00000000
00000001
00000000
00000001
00001000
00000000
00000010
00000000
00000100
00000000
00001000
00000000
00000000
00000000
,
00011000
00001000
00100000
00010000
01000000
00100000
00100000
10000000
,
00010000
10000000
00000000
01000000
00000000
01000000
10000000
00000000
00010000
00000000
00100000
00000000
00100000
00000000
00000000
00000000
,
00011000
00001000
00000100
00000000
00011000
00010000
01000000
00000000
,
00011000
00001000
00010000
00000000
00011000
00010000
00001000
00000000
,
00011000
00001000
00000010
00000001
00001000
00000001
00000100
00000010
,
00001000
00000100
00000000
00000100
00000000
00010000
00001000
00000000
01000000
00000000
00100000
00000000
01000000
00000000
00001000
00000000
,
00010000
01000000
00000000
10000000
00000000
00010000
00100000
00000000
01000000
00000000
10000000
00000000
00100000
00000000
10000000
00000000
,
00010000
00100000
00000000
01000000
00000000
00100000
00001000
00000000
00010000
00000000
00001000
00000000
01000000
00000000
00000000
00000000
,
00011000
00001000
00000100
00000001
00001000
00000100
00000010
00000001
,
00001000
00000010
00000000
00000010
00000000
00000100
00000001
00000000
00001000
00000000
00000100
00000000
00000010
00000000
00001000
00000000
,
00010000
00001000
00000000
01000000
00000000
00100000
01000000
00000000
00001000
00000000
00010000
00000000
01000000
00000000
10000000
00000000
,
00010000
00100000
00000000
01000000
00000000
00100000
01000000
00000000
10000000
00000000
01000000
00000000
00010000
00000000
00000000
00000000
,
11000000
00000000
00010000
00001000
00000010
00000100
00001000
00000001
,
00000100
00000001
00000000
00001000
00000000
00000010
00001000
00000000
00000001
00000000
00000100
00000000
00000001
00000000
00000000
00000000
,
00001001
00000001
00000100
00001010
00000010
00001000
00000100
00000000
,
00010000
00001000
00000000
00010000
00000000
00001000
00010000
00000000
00001000
00000000
00001000
00000000
00001000
00000000
00000000
00000000
,
01000000
00100000
00000000
01000000
00000000
00010000
00100000
00000000
01000000
00000000
10000000
00000000
00100000
00000000
10000000
00000000
,
00010000
10000000
00000000
01000000
00000000
00100000
00001000
00000000
00010000
00000000
01000000
00000000
10000000
00000000
00010000
00000000
,
00100000
00010000
00000000
01000000
00000000
00001000
00010000
00000000
00001000
00000000
00000100
00000000
00000010
00000000
00010000
00000000
,
00001000
00100000
00000000
00001000
00000000
00010000
00000010
00000000
00000100
00000000
00001000
00000000
01000000
00000000
10000000
00000000
,
20020000
00000000
00000000
30030000
00000000
00000000
00000000
00000000
;
