#TITLE:ANOTHER NIGHT;
#SUBTITLE:;
#ARTIST:Morgana;
#TITLETRANSLIT:;
#SUBTITLETRANSLIT:;
#ARTISTTRANSLIT:;
#CREDIT:;
#BANNER:ALLOVERYOU-BN.png;
#BACKGROUND:ALLOVERYOU-BG.png;
#LYRICSPATH:;
#CDTITLE:cdtitle.png;
#MUSIC:MORGANA - ANOTHER NIGHT (DJ TORA VOCAL MIX)111.ogg;
#OFFSET:-0.240;
#SAMPLESTART:76.334;
#SAMPLELENGTH:12.000;
#SELECTABLE:YES;
#BPMS:0.000=141.400;
#STOPS:;
#BGCHANGES:;

//---------------dance-single - ----------------
#NOTES:
     dance-single:
     :
     Challenge:
     8:
     0.567,0.592,0.254,0.022,0.043:
0000
0000
0000
0000
,
0000
0000
0000
0000
,
0000
0000
0000
0000
,
0000
0000
0000
0000
,
0000
1000
0001
0001
,
0100
0100
0000
0010
0010
1000
0001
1000
,
0001
0000
0100
0100
0010
0010
1000
0000
,
0001
0001
0000
1000
1000
0000
0001
0000
,
0010
0100
0010
0100
1000
0001
0100
0000
,
0010
0010
0000
1000
0000
0001
0000
0100
,
0010
0100
0001
0010
0001
1000
0100
0000
,
0010
0100
0000
1000
0000
0010
0000
0010
,
0100
0001
1000
0001
0010
0001
1000
0000
,
0100
1000
0000
0001
0000
0100
0000
0010
,
0100
0001
0100
0000
0010
1000
0001
0000
,
0010
0000
0100
1000
0100
1000
0001
0000
,
0100
0010
0110
0000
0100
0001
0010
0000
,
0100
0000
1000
1000
0001
0100
0100
0000
,
0110
0000
0100
0001
1000
0001
0100
0010
,
1000
0000
0001
0000
0001
0000
0000
0010
0000
0000
0010
0000
0000
0000
0100
0000
,
0100
0000
1001
0000
0100
0001
0100
0010
,
1000
0001
0000
0010
0000
1000
0010
0000
,
0110
0000
1000
0001
0100
0010
0100
0001
,
1000
0001
0100
0000
0001
0000
1000
0000
,
1001
0000
0100
0010
0100
0001
0010
0100
,
1000
0010
0100
0010
1000
0001
0010
0001
,
1001
0000
0100
0010
1000
0100
0010
0100
,
1100
0000
0010
0001
0100
0010
0100
0001
,
1001
0000
0100
0010
1000
0100
0010
0100
,
0110
0000
1100
0100
1000
0001
0101
0001
,
1000
0010
0110
0010
1000
0001
0110
0100
,
1100
0001
1001
0010
0110
0000
0010
0000
,
0100
0000
0000
0000
1000
0000
0100
1000
0100
0000
0001
0100
0001
0000
1000
0100
,
1000
0000
0001
0010
0001
0000
1000
0010
1000
0000
0001
0000
0100
0000
0010
0000
,
0100
0000
0001
0000
0010
0001
1000
0001
1000
0001
1000
0001
1000
0001
1000
0001
,
1000
0000
0100
0001
1000
0000
0100
0000
,
0010
0102
0100
0100
,
1003
0000
1001
0001
0100
0001
0010
0100
,
1000
0010
0100
0001
1000
0100
0001
0100
,
1000
0010
0010
0100
0001
0010
0001
1000
,
0010
0100
0010
1000
0100
0100
1000
0010
,
0100
0001
0010
0001
0001
1000
0010
0100
,
0010
1000
0001
0001
0010
0100
1000
0010
,
0100
0001
0010
0100
0100
1000
0001
0010
,
0001
1000
0010
0100
0010
1000
0001
0001
,
0010
0001
1001
0001
0100
0010
0100
0010
,
1000
0010
0100
0001
0010
0100
1000
0000
,
1000
1000
0001
0010
0100
0100
1000
0010
,
0100
0100
0010
1000
0010
1000
0001
0000
,
0100
0100
0001
0001
0010
0001
0100
0010
,
1000
0100
0100
1000
0010
0100
0001
1000
,
0001
0001
1000
0010
0100
0010
1000
0001
,
0001
0000
0010
0100
0010
0000
0100
0000
,
1000
0001
0101
0000
0100
0001
1001
0000
,
0100
0001
1001
0000
0110
0000
1001
0000
,
0100
0010
1000
0100
0100
0010
0100
1000
,
0010
0100
0001
0001
1000
0010
0100
0000
,
0100
0100
0110
0000
0100
0100
0110
0000
,
0100
0100
0110
0000
0100
0010
1000
0000
,
1000
0010
0100
0001
1000
0100
1000
0010
,
0100
0001
0010
0100
1000
0010
0100
0000
,
0001
0100
0101
0000
0100
0010
1000
0001
,
0001
0010
0100
1000
0010
0100
0010
0000
,
1010
0000
0100
0001
1000
0100
0010
0100
,
1000
0010
0100
0001
0010
0100
1000
0000
,
0101
0000
0100
0010
1000
0001
0010
0100
,
1000
0010
0100
0001
1000
0100
0010
0000
,
1001
0000
0100
0010
1000
0100
0010
0100
,
1000
0010
0100
0001
0010
0001
0100
0010
,
0100
0000
1001
0000
0100
0001
0100
0010
,
1000
0001
1000
0100
0001
0100
1000
0010
,
0100
0001
0010
0001
0100
1000
0100
0001
,
1000
0100
0001
0100
1000
0010
0100
0000
,
0110
0000
0100
0001
0010
0001
1000
0010
,
0100
0010
1000
0100
0010
1000
0010
0000
,
1001
0000
0010
0100
0001
0100
1000
0001
,
0100
0010
0001
0010
1000
0001
0010
0100
,
1000
0010
0220
0000
0000
0000
0000
0330
;

//---------------dance-single - ----------------
#NOTES:
     dance-single:
     :
     Medium:
     5:
     0.434,0.451,0.072,0.022,0.000:
0000
0000
0000
0000
,
0000
0000
0000
0000
,
0000
0000
0000
0000
,
0000
0000
0000
0000
,
0000
0010
0001
1000
,
0010
0000
0100
0010
0100
0001
1000
0000
,
0100
0100
1000
1000
,
0001
0000
0100
0001
0100
0001
0100
0000
,
0010
0000
0010
0000
1000
0010
1000
0000
,
0001
0001
1000
1000
,
0001
1000
0001
1000
0001
0000
0010
0000
,
0010
0100
0100
1000
,
0001
0010
0001
0010
0001
0000
0100
0000
,
0100
0000
0001
1000
0001
0000
0010
0000
,
0010
0001
1000
0010
,
0100
0010
1000
1001
,
0000
0000
0100
0000
0010
0000
1000
0001
,
0100
0010
0010
1000
,
1001
0000
0100
0001
0100
0000
0001
0000
,
0010
0000
1000
0000
0100
0000
0010
0100
,
0010
0000
0001
1000
0001
0000
0100
0000
,
0010
1000
0001
0100
,
1001
0000
0100
0001
0100
0001
1000
0000
,
0100
0010
0010
0010
,
0100
0000
1001
0000
0100
0010
1000
0010
,
0100
0000
0001
0010
0100
0010
0001
0100
,
0001
0000
0010
0001
0010
0100
0010
0001
,
0100
0000
1000
0010
0100
0010
1000
0010
,
0100
0000
1000
0100
0010
0100
1000
0100
,
0010
0000
0100
1000
0100
0000
0010
0100
,
0010
0000
0001
0010
0001
0000
0100
0001
,
0100
0000
0001
1000
0001
1000
0001
1000
,
0001
0000
1000
0010
1000
0010
0100
0010
,
0100
0001
0100
0001
0100
0001
1000
0001
,
1000
0100
1000
0100
1000
0100
0010
0100
,
0010
0100
1000
0000
0001
0000
0100
0000
,
0001
0010
0100
0000
2000
0000
0001
0000
,
3010
0000
1001
0001
0100
0000
0001
1000
,
0100
0010
0100
1000
0010
0000
0100
0001
,
1000
0001
0100
0000
0010
0000
1000
0000
,
0001
0010
0001
1000
0010
0100
0010
0000
,
1000
0000
0100
0000
0010
0100
1000
0010
,
0100
0001
1000
0100
0010
0000
0100
0000
,
1000
0000
0001
0100
0010
0100
0001
0000
,
0010
1000
0010
0001
,
0100
0001
1000
0000
0001
0000
0100
0000
,
0010
1000
0010
0100
0010
0000
1000
0000
,
0001
0010
0100
0010
0100
1000
0100
0000
,
1000
0000
0001
0000
0100
0010
0100
0000
,
0001
1000
0001
0100
0010
0000
1000
0000
,
0100
0000
0010
0100
1000
0000
0010
0000
,
0100
0001
1000
0000
0010
0001
1000
0000
,
0100
0010
0010
0100
,
1000
0000
1001
0000
0100
0001
0100
0000
,
0010
1000
0010
0000
0100
0000
1000
0000
,
0100
1000
0100
0000
0010
0100
0010
0000
,
0001
0100
0010
0100
,
0001
0010
0001
0000
0100
0010
0100
0000
,
0001
1000
0001
0000
0010
0000
1000
0000
,
0100
1000
0100
0000
0010
0100
1000
0000
,
0010
0000
0100
0000
1000
0001
1000
0000
,
1000
0000
1000
0010
0100
0010
0100
0001
,
1000
0001
1000
0001
0100
0001
0100
0000
,
0010
1000
0001
0010
,
1000
0010
1001
1001
,
0100
0010
0100
0001
1000
0001
0100
0000
,
0010
1000
0001
0001
,
0010
0001
0010
0000
0001
1000
0001
0000
,
1000
0100
1000
0000
0100
0010
0100
0000
,
1000
0000
1001
0000
0100
0001
0100
0010
,
1000
0010
1000
0000
0001
0000
0100
0000
,
0001
0000
0010
0001
1000
0001
0100
0010
,
0100
0010
1000
0000
0001
0000
0010
0000
,
1000
0000
1000
0100
1000
0010
0100
0010
,
0100
0001
0010
0000
0001
0000
0100
0000
,
0010
0000
1000
0100
1000
0010
0100
0010
,
0100
0001
0010
0000
0100
0000
1000
0000
,
2002
0000
0000
0000
0000
0000
0000
3003
;

//---------------dance-single - ----------------
#NOTES:
     dance-single:
     :
     Easy:
     3:
     0.317,0.339,0.123,0.072,0.000:
0000
0000
0000
0000
,
0000
0000
0000
0000
,
0000
0000
0000
0000
,
0000
0000
0000
0000
,
0000
0010
0010
0010
,
0000
0100
0100
0100
,
0000
1000
1000
1000
,
0000
0001
0001
0001
,
0000
0100
0001
0010
,
0010
1000
0100
0100
,
1000
0001
0100
0100
,
0010
0001
0100
0100
,
1000
0010
0001
0100
,
0100
1000
0100
0100
,
0010
1000
0010
0001
,
0100
1000
0100
0100
,
1000
1001
0001
0100
,
0100
0001
0010
0010
,
0000
1001
0001
0100
,
0100
0010
1000
0001
,
0001
0010
1000
0010
,
0001
0010
0010
0001
,
1001
0010
0010
1000
,
0001
0100
1000
0010
,
1001
0100
0100
1000
,
0001
0000
0010
0010
,
1001
0010
0010
0100
,
1001
0100
0100
1000
,
1001
0010
0010
0100
,
1001
0001
0001
0100
,
0100
1000
0001
1000
,
0001
1000
0001
1000
,
0001
1000
0010
0100
,
0010
0100
0100
0010
,
1000
0001
0100
0100
,
0100
0100
0100
0100
,
0010
0100
0001
0000
,
1000
1001
0001
0100
,
1000
0100
0001
0100
,
1000
0010
0001
0010
,
1000
0010
0001
0100
,
1000
0100
0001
1000
,
0001
1000
0010
0001
,
0100
1000
0010
1000
,
0100
0001
0010
1000
,
0100
1001
0001
0100
,
0100
1000
0001
0001
,
0100
1000
0010
0001
,
0100
0100
0010
0001
,
0000
0100
1000
0010
,
0010
0100
1000
0010
,
0001
0001
0010
1000
,
0100
0001
1000
0000
,
0001
1001
0001
0100
,
1000
0010
0010
0100
,
1000
0010
0001
0010
,
1000
1000
0001
0100
,
0010
0001
0010
0010
,
1000
0010
0010
0001
,
0100
1000
0100
0100
,
0010
1000
0001
1000
,
0000
1001
0001
0100
,
1000
0010
0001
0010
,
1000
0100
0100
1000
,
1000
0010
0100
0100
,
0001
0001
0010
0010
,
1000
1000
0010
0001
,
0100
0100
1000
0010
,
0010
0100
1000
0001
,
1000
2002
3003
0001
,
0100
0100
1000
0010
,
0220
0330
0100
0001
,
0010
1000
0010
0100
,
2002
3003
0001
0100
,
0010
1000
0001
0010
,
2002
3003
0001
0100
,
0100
0010
1000
0001
,
0010
0220
0000
0000
,
0330
0000
0000
0000
;

//---------------dance-double - ----------------
#NOTES:
     dance-double:
     :
     Challenge:
     7:
     0.551,0.649,0.217,0.014,0.025:
00000000
00000000
00000000
00000000
,
00000000
00000000
00000000
00000000
,
00000000
00000000
00000000
00000000
,
00000000
00000000
00000000
00000000
,
00000000
00001000
00000100
00000110
,
00000100
00000000
00001000
00000001
00000100
00000010
00000100
00000001
,
00001000
00000100
00000100
00000000
00010000
00001000
01000000
00000000
,
00010000
00100000
00010000
00000000
10000000
00100000
01000000
00000000
,
00010000
00000000
10000000
10000000
01000000
01000000
00100000
00000000
,
00001000
01000000
00000000
00001000
00000000
00100000
00000000
00010000
,
01000000
00100000
10000000
00010000
01000000
00010000
00100000
00000000
,
00001000
00010000
00000000
00000100
00000000
00010000
00000000
00001000
,
01000000
00001000
00010000
00001000
00000010
00000100
00001000
00000000
,
00000100
00001000
00000000
00000100
00000000
00000010
00000000
00000001
,
00000100
00000001
00000000
00001000
00000100
00000010
00000000
00000100
,
00000000
00001000
00000000
00000001
00000000
00000100
00000000
00000001
,
00000100
00000001
00000101
00000000
00000100
00000001
00000010
00000100
,
00010000
00000000
00001000
00001000
01000000
01000000
00100000
00000000
,
10010000
00000000
01000000
00010000
10000000
01000000
00010000
01000000
,
10000000
01000000
00100000
00000000
00100000
00001000
00010000
00000000
,
00011000
00000000
00010000
00000100
00001000
00000001
00000100
00000010
,
00001000
00000001
00000010
00000000
00000100
00001000
00000100
00000000
,
00001100
00000000
00000010
00000001
00000100
00001000
00010000
00000100
,
00001000
00000100
00000000
00000010
00000000
00000001
00000001
00000000
,
00001001
00000000
00000100
00000001
00000010
00000100
00010000
00001000
,
01001000
00000000
01000000
00010000
00100000
01000000
10000000
00100000
,
01100000
00000000
01000000
00001000
00010000
00000100
00001000
00000100
,
00000110
00000000
00001000
00000001
00000100
00000010
00001000
00000100
,
00010100
00000000
00010000
00001000
01000000
00100000
01000000
00010000
,
00100000
01000000
00010000
01000000
10000000
00100000
00010000
00001000
,
00100000
00000000
00000000
00000000
00010000
00000000
00001000
00010000
00001000
00000000
00010000
00000100
00010000
00000000
00000100
00001000
,
00000100
00000000
00001000
00000001
00001000
00000000
00000001
00000100
00000001
00000000
00001000
00000100
00001000
00000000
00000100
00000010
,
00000100
00001000
00000001
00000100
,
00001000
00000000
00100000
01000000
10000000
01000000
00010000
01000000
,
10000000
00100000
00010000
00001000
00000100
00000001
00000100
00001000
,
00100000
01000000
00001000
00000100
00000010
00001000
00010000
00100000
,
10000000
01000000
00100000
00000000
00010000
00000000
10000000
00000000
,
00100000
00000000
10010000
00010000
01000000
00100000
10000000
01000000
,
00010000
00001000
01000000
00100000
00010000
00100000
10000000
01000000
,
00010000
00001000
00000100
00000001
00000010
00001000
00000010
00000100
,
00001000
00000001
00000100
00001000
00010000
01000000
10000000
00100000
,
01000000
00100000
00010000
00100000
01000000
00010000
00100000
01000000
,
00010000
00001000
00000100
00000001
00001000
00000100
00000010
00001000
,
00000010
00000100
00001000
00000001
00000100
00001000
00010000
01000000
,
10000000
00100000
01000000
00010000
00100000
01000000
10000000
00000000
,
00010000
01000000
01010000
00000000
01000000
00010000
00100000
01000000
,
00010000
01000000
10000000
00100000
00010000
00001000
00100000
00000000
,
00100000
01000000
00010000
00001000
01000000
00001000
00010000
00000100
,
00000010
00001000
00000010
00000100
00001000
00000001
00000100
00000000
,
00000100
00000001
00000010
00001000
00000010
00000100
00010000
00001000
,
01000000
00010000
00100000
00010000
00100000
10000000
00100000
00000000
,
00100000
01000000
10000000
00000000
10000000
01000000
00010000
00000000
,
00001000
00000000
00000100
00000000
00000001
00001000
00000001
00000000
,
00000100
00000001
00001001
00000000
00000100
00000001
00000011
00000000
,
00000010
00000100
00001100
00000000
00010100
00000000
00011000
00000000
,
01000000
00010000
01010000
00000000
10000000
00010000
10010000
00000000
,
01000000
00100000
10000000
01000000
00010000
01000000
10000000
00000000
,
10000000
00100000
01100000
00000000
01000000
00001000
00011000
00000000
,
00010000
00000100
00001100
00000000
00000110
00000000
00001001
00000000
,
00000100
00000001
00000010
00000100
00010000
00001000
01000000
00100000
,
01000000
00010000
00100000
01000000
01000000
10000000
00010000
00000000
,
01010000
00000000
01000000
00100000
10000000
01000000
00010000
00001000
,
01000000
00001000
00100000
00001000
00010000
00000100
00000010
00000000
,
00000010
00001000
00010000
00000100
00001000
00000001
00000100
00000010
,
00010000
00001000
00010000
00000100
00001000
00000001
00000100
00000000
,
00000100
00000001
00000010
00001000
00010000
00100000
01000000
00010000
,
00100000
01000000
00010000
01000000
10000000
00100000
01000000
00000000
,
01000000
00100000
10000000
00100000
00010000
00100000
10000000
01000000
,
00010000
00001000
00010000
00001000
00000010
00000100
00001000
00000001
,
00000100
00000001
00001001
00000000
00000101
00000000
00000100
00000001
,
00000010
00001000
00010000
00000100
00001000
00000100
00000010
00000001
,
00000100
00001000
00010000
01000000
10000000
01000000
00100000
00001000
,
00010000
00001000
01000000
00100000
01000000
00010000
00100000
00000000
,
10010000
00000000
01000000
00100000
10000000
01000000
00010000
00001000
,
01000000
00100000
00010000
00100000
10000000
01000000
00010000
00000000
,
00011000
00000000
00010000
00000100
00001000
00000001
00000100
00001000
,
00010000
00001000
00000100
00000001
00001000
00000100
00000010
00000000
,
00000220
00000000
00000000
00000000
00000000
00000000
00000000
00000330
;

//---------------dance-single - Copied from----------------
#NOTES:
     dance-single:
     Copied from:
     Hard:
     7:
     0.523,0.508,0.116,0.022,0.000:
0000
0000
0000
0000
,
0000
0000
0000
0000
,
0000
0000
0000
0000
,
0000
0000
0000
0000
,
0000
1000
0001
0001
,
0100
0000
0010
1000
0010
1000
0001
0001
,
0000
0100
0010
0000
1000
0000
0001
0000
,
0010
0010
0000
0001
0000
1000
1000
0000
,
0001
0000
0100
0010
0100
0010
1000
0000
,
0001
0001
0000
0100
0000
0010
0000
1000
,
1000
0001
0001
0010
0001
1000
0010
0000
,
0100
0100
0000
0010
0000
0010
0000
1000
,
0001
0100
0001
1000
0100
1000
0001
0000
,
0010
0001
0000
1000
0000
1000
0000
0001
,
0100
0001
0000
1000
0100
1000
0000
0010
,
0100
0010
0100
0000
0001
0000
0010
0000
,
0100
1000
1001
0000
0100
0010
0100
0010
,
1000
0000
0001
0001
1000
1000
0010
0000
,
0110
0000
0100
0000
0001
0010
0100
1000
,
0100
0000
1000
1000
0001
0100
0100
0000
,
1001
0000
0100
0010
1000
0001
0010
0001
,
1000
1000
0000
0001
0000
0100
0100
0000
,
1001
0000
0100
0010
1000
0001
0010
0001
,
0010
0000
0100
0000
1000
0001
0100
0000
,
1001
0000
0100
0010
1000
0010
0100
0001
,
0010
0001
1000
0010
0100
0010
1000
0100
,
0110
0000
0010
0001
0100
0010
1000
0100
,
0110
0000
0010
0001
0100
0010
1000
0001
,
1001
0000
0100
0010
1000
0001
0010
0001
,
1000
0010
0100
0010
1000
0100
0010
0100
,
1000
0000
1000
0100
0001
0100
1000
0100
,
0001
0100
1000
0100
0001
0100
1000
0100
,
1000
0001
1000
0001
0010
1000
0010
0001
,
0010
1000
0010
0001
0010
1000
0010
0100
,
0010
0100
1000
0001
1000
0001
1000
0010
,
0100
0010
0110
0000
0100
0000
0001
0000
,
0010
0100
2000
0000
0010
0000
0100
0000
,
3001
0000
1001
0001
0100
0001
0010
0001
,
1000
0010
0100
0010
1000
0100
0001
0100
,
1000
0010
0100
0001
0010
0001
0100
0010
,
1000
0100
0001
0100
1000
0010
0100
0001
,
0010
0001
0100
0010
1000
0001
0100
0001
,
0010
0100
1000
0100
0010
0001
1000
0010
,
0100
0001
1000
0010
0100
0010
1000
0001
,
0010
0001
1000
0010
0100
0001
0010
0100
,
1000
0000
1001
0000
0100
0001
0100
0010
,
0100
0001
0010
0001
1000
0000
0010
0000
,
0100
0001
1000
0100
1000
0010
0100
0010
,
1000
0001
0010
0001
1000
0010
0100
0000
,
0010
1000
0100
1000
0100
1000
0001
0100
,
0001
0100
0010
0100
0010
1000
0001
0000
,
0100
0001
0100
0000
0001
1000
0001
0000
,
1000
0100
1000
0000
0100
0000
0010
0000
,
0100
0000
1001
0000
0100
0001
0100
0010
,
0100
0010
0100
0000
0001
0000
0010
0000
,
0100
1000
0100
1000
0001
0100
0001
0000
,
1000
0010
0100
1000
,
0001
0100
0001
0100
0010
0100
0001
1000
,
0100
0010
0100
1000
0010
1000
0010
0000
,
0100
1000
0010
0001
,
0100
0001
0100
0010
1000
0001
0010
0000
,
0001
0000
1001
0000
0100
0001
0100
0010
,
0100
0010
1000
0001
1000
0001
0010
0000
,
0010
0100
0010
0100
1000
0001
1000
0001
,
0100
0010
0100
0010
1000
0001
0010
0000
,
0100
0000
1000
0100
1000
0001
0100
0010
,
0100
0010
1000
0001
0010
0001
1000
0000
,
0010
0100
0010
1000
0001
0010
0001
0000
,
0100
0010
1000
0010
0100
0001
0010
0100
,
1000
0000
1001
0000
0001
0000
0100
0001
,
0100
0010
1000
0010
0100
0010
1000
0000
,
0001
0000
0010
0100
1000
0010
0100
0001
,
1000
0100
0010
0100
1000
0001
0010
0100
,
1000
0000
1000
0001
0010
0100
1000
0010
,
0100
0001
0010
0001
1000
0001
0010
0000
,
1001
0000
0100
0010
1000
0010
0100
0001
,
1000
0010
0100
0001
1000
0010
0100
0001
,
1000
0000
2002
0000
0000
0000
0000
3003
;

//---------------dance-single - Copied from----------------
#NOTES:
     dance-single:
     Copied from:
     Beginner:
     3:
     0.210,0.254,0.036,0.014,0.000:
0000
0000
0000
0000
,
0000
0000
0000
0000
,
0000
0000
0000
0000
,
0000
0000
0000
0000
,
0000
0001
0001
0001
,
0000
0000
0000
0000
,
0000
1000
1000
1000
,
0000
0000
0000
0000
,
0000
0010
0010
0010
,
0000
0100
0100
0100
,
0000
1000
1000
1000
,
0000
0001
0001
0000
,
0000
0010
0010
0010
,
0000
0001
0000
0100
,
0000
1000
0000
0010
,
0000
0001
0000
1000
,
0000
0001
0001
0001
,
0000
1000
0000
1000
,
0000
1000
1000
1000
,
0000
0001
0000
1000
,
0000
0010
0010
0010
,
0000
0100
0000
0100
,
0000
0100
0100
0100
,
0000
0001
0000
1000
,
0000
0001
0001
0001
,
0000
1000
1000
1000
,
0000
0010
0010
0010
,
0000
0100
0100
0100
,
0000
1001
1001
0001
,
0100
1000
0000
0001
,
0001
1000
0001
1000
,
0001
1000
1000
1000
,
1000
1000
1000
1000
,
1000
0001
0001
0001
,
0001
0001
0001
0001
,
0001
0001
0000
1000
,
0001
0000
1000
0000
,
0000
1001
0001
0001
,
0000
1000
1000
1000
,
0000
0001
0001
0001
,
0000
0100
0100
0100
,
0000
0010
0010
1000
,
0000
0001
0001
0001
,
0000
1000
1000
1000
,
0000
0010
0000
1000
,
0000
0001
0000
0010
,
0000
0100
0000
1000
,
0000
0010
0000
0100
,
0000
1000
0000
0001
,
0000
0010
0000
0100
,
0000
0001
0000
0010
,
0000
0001
0000
0100
,
0000
0010
0000
0001
,
0000
1000
0000
0001
,
0000
1000
0000
0001
,
0000
0010
0000
0100
,
0000
1000
0001
1000
,
0000
0001
0000
1000
,
0000
0001
0000
0100
,
0000
0010
0010
0010
,
0000
0100
0100
0100
,
0000
1000
1000
1000
,
0000
0001
0001
0001
,
0000
0010
0010
0010
,
0000
0010
0010
0010
,
0000
1000
1000
0001
,
0000
0100
0100
1000
,
0000
0010
0010
0001
,
0000
0010
0010
1000
,
0000
1001
0001
0001
,
0000
0100
1000
1000
,
0000
0001
0001
0010
,
0000
1000
1000
0010
,
0100
0000
1000
1000
,
0001
0000
0010
0010
,
0010
0000
0100
0000
,
0100
0000
1000
1000
,
0010
2002
0000
0000
,
3003
0000
0000
0000
;
