#TITLE:AMAZING GRACE;
#SUBTITLE:;
#ARTIST:Sunshine Girl;
#TITLETRANSLIT:;
#SUBTITLETRANSLIT:;
#ARTISTTRANSLIT:;
#CREDIT:;
#BANNER:;
#BACKGROUND:;
#LYRICSPATH:;
#CDTITLE:cdtitle.png;
#MUSIC:amazing grace.ogg;
#OFFSET:-0.009;
#SAMPLESTART:40.740;
#SAMPLELENGTH:11.900;
#SELECTABLE:NO;
#BPMS:0.000=138.000;
#STOPS:;
#BGCHANGES:;

//---------------dance-single - ----------------
#NOTES:
     dance-single:
     :
     Hard:
     8:
     0.577,0.527,0.109,0.079,0.535:
0000
0000
0000
0000
,
0000
0000
0000
0000
,
0000
0000
0000
0000
,
0000
0000
0000
0000
,
1001
0000
0000
0001
0000
0100
0001
0000
1000
0000
0000
0000
0001
0000
1000
0000
,
0100
1000
0000
1000
0000
1000
0001
0000
0100
0000
0000
0000
0001
0000
1000
0000
,
0001
1000
0000
1000
0000
1000
0001
0000
0100
0000
0000
0000
0010
0000
0010
0000
,
0001
1000
0000
1000
0100
0000
0000
1000
0200
0000
0000
0000
0300
0000
0000
0000
,
1000
0010
0000
0100
0000
0001
0100
0000
0001
0000
0000
0000
1000
0000
0010
0000
,
1000
0001
0000
0010
0000
0001
0010
0000
0001
0000
0000
0000
0001
0000
0001
0000
,
0100
0001
0000
0100
0000
0001
0100
0000
0001
0000
0000
0000
1000
0000
0010
0000
,
1000
0100
0000
1000
0000
0100
1000
0000
0100
0000
0100
0000
1000
0000
0000
0000
,
0001
0100
0000
0001
0000
0100
0010
0000
0100
0000
0000
0000
0010
0000
0100
0000
,
0001
0010
0000
0001
0000
1000
0001
0000
1000
0000
0000
0000
0100
0000
0100
0000
,
1000
0001
0000
1000
0000
0001
0100
0000
0001
0000
0000
0000
0010
0000
0001
0000
,
0100
0001
0000
0001
0000
1000
0010
0000
1000
0000
0010
0000
0010
0000
0000
0000
,
1000
0001
0000
0010
0000
0100
0010
0000
0100
0000
0100
0000
1000
0000
0010
0000
,
1000
0001
0000
0001
0000
0010
0001
0000
0100
0000
0001
0000
1000
0000
0010
0000
,
1000
0100
0000
1000
0000
0001
1000
0000
0001
0000
0010
0000
0100
0000
1000
0000
,
0010
1000
0000
0010
0000
0100
0001
0000
0100
0000
0001
0000
0100
0000
0010
0000
,
0100
0010
0000
0100
0000
1000
0100
0000
0010
0000
0100
0000
0001
0000
1000
0000
,
0100
1000
0000
0100
0000
0010
0100
0000
0010
0000
0100
0000
0001
0000
0100
0000
,
0001
0100
0000
0001
0000
0100
0010
0000
0100
0000
0000
0000
0100
0000
1000
0000
,
0001
1000
0000
0001
0000
0100
1000
0000
0100
0000
0001
0000
1000
0000
0000
0000
,
1001
0000
0100
0001
0010
0100
1000
0010
,
1000
0000
0102
0000
0013
0000
1000
0001
,
0010
0001
1000
0100
0001
0100
1000
0010
,
0010
0000
0100
0000
0201
0000
0301
0001
,
0100
0000
0010
1000
1000
0000
1000
0010
,
0002
0000
0000
0003
0001
0100
1000
0001
,
0010
0100
1000
0010
1000
0100
0010
0001
,
0010
0001
1000
0001
0010
0000
1000
0001
,
0102
0000
0013
1000
1200
0000
1300
0001
,
0011
0000
0101
0000
0010
0000
0010
1000
,
0002
0000
0000
0000
0000
0000
0103
0001
,
1000
0000
2010
0000
0010
0000
3010
0100
,
0001
1000
0100
0010
0001
1000
0001
1000
,
0001
0010
0100
0000
0100
0000
1000
0010
,
0100
0000
0001
0000
0001
0000
1000
0001
,
0100
0001
0000
0100
0000
1000
0001
0000
1000
0000
0000
0000
0001
0000
0000
0000
,
1001
0000
0000
0001
0000
0100
0001
0000
0100
0000
0000
0000
0010
0000
0010
0000
,
1000
0001
0000
1000
0000
0100
1000
0000
0100
0000
0000
0000
0010
0000
0010
0000
,
0001
0100
0000
0001
0000
1000
0010
0000
0100
0000
0001
0000
0010
0000
0100
0000
,
1000
0100
0000
1000
0000
0001
1000
0000
0100
0000
0010
0000
0001
0000
1000
0000
,
0001
0000
1000
0001
0000
0010
0100
0000
0010
0000
0000
0000
0100
0000
1000
0000
,
0010
1000
0000
0010
0000
0100
0001
0000
1000
0000
1000
0000
0001
0000
0100
0000
,
0001
0100
0000
0010
0000
0100
0001
0000
0001
0000
0000
0000
0100
0000
0001
0000
,
1000
0001
0000
1000
0000
0010
1000
0000
0001
0000
0000
0000
0100
0000
0000
0000
,
1000
0001
0000
0100
0000
0001
1000
0000
0100
0000
0000
0000
0010
0000
0001
0000
,
1000
0010
0000
0100
0000
0001
1000
0000
0100
0000
0000
0000
0010
0000
0001
0000
,
1000
0100
0000
0010
0000
0001
1000
0000
0010
0000
0000
0000
0100
0000
0001
0000
,
1000
0010
0000
0100
0000
0001
1000
0000
0010
0000
0000
0000
0100
0000
0001
0000
,
1000
0010
0000
0100
0000
0001
1000
0000
0001
0000
0000
0000
0001
0000
1000
0000
,
0001
0100
0000
0001
0000
0010
0100
0000
0010
0000
0000
0000
0100
0000
1000
0000
,
0010
1000
0000
0001
0000
0100
0000
0000
0001
0000
0100
0000
0001
0000
1000
0000
,
0010
1000
0000
0010
0000
0100
0001
0000
1000
0000
0000
0000
0001
0000
0010
0000
,
0110
0000
0000
0000
;

//---------------dance-single - ----------------
#NOTES:
     dance-single:
     :
     Medium:
     5:
     0.397,0.388,0.129,0.287,0.000:
0000
0000
0000
0000
,
0000
0000
0000
0000
,
0000
0000
0000
0000
,
0000
0000
0000
0000
,
0220
0000
0000
0000
0000
0330
0010
0000
,
0001
0100
0001
0000
,
2200
3300
0011
0000
,
0202
0000
0000
0303
1010
0000
0010
0000
,
0100
0001
1000
0000
0010
0000
0001
1000
,
0100
0000
0011
0000
1000
0000
0001
0010
,
0100
0000
1000
0000
0001
0000
1000
0100
,
0001
0000
0010
0000
1000
0000
0001
0100
,
1000
0000
0010
0000
0001
0000
1000
0010
,
0001
0000
0100
0000
0001
0000
0001
0100
,
1000
0000
0001
0000
0010
0000
1000
0010
,
0001
0000
0100
0000
1000
0000
0001
1000
,
0001
0000
0010
0000
0001
0000
0001
0100
,
1000
0000
0010
0000
0001
0000
0001
0010
,
1000
0000
0100
0000
0001
0000
0001
0100
,
1000
0000
0010
0000
0001
0000
1000
0010
,
1000
0000
0001
0000
0100
0000
0001
0010
,
1000
0000
0001
0000
0100
0000
0001
0100
,
1000
0000
0010
0000
0001
0000
1000
0001
,
1000
0000
0010
0000
0100
0001
0010
0000
,
1200
0000
1000
0000
0010
0000
0010
0300
,
0220
0000
0000
0000
0330
0000
0010
0001
,
0200
0000
0001
0000
0010
0300
0001
0200
,
0010
0000
0001
0000
0010
0300
0001
0100
,
0010
0000
0010
1000
0100
0000
0100
1000
,
0002
0000
0000
0003
0100
0001
2000
0000
,
0200
0000
0000
3300
,
0010
0010
0000
1000
,
1001
0000
0001
0000
0010
0100
0001
0000
,
0001
0010
0100
0000
0100
0000
0100
2000
,
0002
0000
0000
0000
0003
3000
0001
0000
,
0012
0000
0100
0000
1003
0000
0010
2000
,
0100
0000
3002
0000
0100
0000
2000
0003
,
0100
0000
3001
0000
0100
0000
0010
1000
,
0002
0000
0010
0000
0100
0003
0001
1000
,
0100
0000
0020
0000
0000
0030
0100
0000
,
1002
0000
0100
0000
1003
0000
0010
1000
,
0002
0000
0100
0000
0013
0000
0010
0001
,
0200
0000
0010
0000
0301
0000
0010
1000
,
0200
0000
0010
0000
1000
0300
0010
0001
,
2000
0000
0100
0000
3001
0000
0100
0001
,
2000
0000
0100
0000
0010
3000
0001
0200
,
0010
0000
0001
0300
0010
0000
0100
1000
,
0010
0000
1000
0000
0001
0000
0100
0100
,
0001
0000
1000
0000
1001
0000
0100
0100
,
1000
0000
0001
0000
0010
0000
0001
0001
,
0010
0000
0100
0000
0100
0000
1000
1000
,
0001
0000
0100
0000
0010
0000
0010
0010
,
0100
0000
0001
0000
1000
0000
0001
0001
,
0100
0000
0010
0000
1000
0000
0001
0010
,
0100
0010
0001
1000
0001
0000
1000
0010
,
1000
0001
0100
0010
,
1001
0000
0000
0000
;

//---------------dance-single - ----------------
#NOTES:
     dance-single:
     :
     Easy:
     2:
     0.181,0.222,0.020,0.238,0.000:
0000
0000
0000
0000
,
0000
0000
0000
0000
,
0000
0000
0000
0000
,
0000
0000
0000
0000
,
2000
0000
0000
3000
,
0000
0000
0000
0000
,
0002
0000
0000
0003
,
0200
0000
0300
0000
,
0020
0000
0030
0000
,
2000
0000
3000
0000
,
0002
0000
0003
0000
,
0002
0000
0003
0000
,
2000
0000
3000
0000
,
0020
0000
0030
0200
,
0000
0000
0300
0002
,
0000
0003
0000
0000
,
1000
0001
0100
0000
,
0001
1000
0100
0000
,
0010
0001
1000
0000
,
0010
1000
0001
0000
,
0100
0001
1000
0000
,
0100
1000
0001
0000
,
0010
0100
1000
0000
,
0010
0100
0001
0000
,
1002
0000
0100
0000
,
1003
0000
0000
0001
,
2000
0000
3000
0001
,
0020
0000
0030
0100
,
2000
0000
0001
0000
,
3100
0000
1000
0001
,
0200
0000
0000
0000
,
0300
0000
0010
1000
,
0002
0000
0100
0000
,
1003
0000
0000
2000
,
0002
0000
3003
0020
,
0200
0000
0330
1000
,
0002
0000
0100
0000
,
0013
0000
0000
0200
,
0002
0000
0000
0000
,
0000
0303
0000
0000
,
1000
1000
0001
0000
,
0001
0001
0010
0000
,
0100
0100
0000
0000
,
0100
0100
0000
0000
,
1000
1000
0000
0000
,
0010
0001
0000
0000
,
0100
1000
0000
0000
,
1000
0001
0000
0000
,
0001
1000
0000
0000
,
0010
1000
0000
0000
,
0001
0100
0000
0000
,
0001
1000
0000
0000
,
0100
0010
0000
0000
,
0010
1000
0000
0001
,
0000
0100
0000
1000
,
0010
0010
0010
0010
,
1001
0000
0000
0000
;

//---------------dance-double - Copied from----------------
#NOTES:
     dance-double:
     Copied from:
     Hard:
     8:
     0.571,0.527,0.069,0.010,0.515: // measure 1
00000000
00000000
00000000
00000000
,  // measure 2
00000000
00000000
00000000
00000000
,  // measure 3
00000000
00000000
00000000
00000000
,  // measure 4
00000000
00000000
00000000
00000000
,  // measure 5
00101000
00000000
00000000
01000000
00000000
00001000
00010000
00000000
00001000
00000000
00000000
00000000
00010000
00000000
00000010
00000000
,  // measure 6
00000100
00000001
00000000
00001000
00000000
00000100
00001000
00000000
00000001
00000000
00000000
00000000
00000010
00000000
00000100
00000000
,  // measure 7
00000010
00001000
00000000
00010000
00000000
00001000
00010000
00000000
00001000
00000000
00000000
00000000
00010000
00000000
01000000
00000000
,  // measure 8
10000000
01000000
00000000
00000000
10000000
00010000
00000000
00000000
00100000
00010000
00000000
00000000
01000000
00000000
00001000
00000000
,  // measure 9
00010000
01000000
00000000
10000000
00000000
00100000
10000000
00000000
00100000
00000000
00000000
00000000
00010000
00000000
00001000
00000000
,  // measure 10
00000100
00000001
00000000
00001000
00000000
00000100
00001000
00000000
00000010
00000000
00000000
00000000
00000100
00000000
00000001
00000000
,  // measure 11
00000010
00000001
00000000
00000100
00000000
00001000
00010000
00000000
00001000
00000000
00000000
00000000
01000000
00000000
00001000
00000000
,  // measure 12
00000100
00000010
00000000
00001000
00000000
00000100
00001000
00000000
00000100
00000000
00000000
00000000
00000010
00000000
00001000
00000000
,  // measure 13
00010000
00001000
00000000
00010000
00000000
01000000
10000000
00000000
00010000
00000000
00000000
00000000
00100000
00000000
01000000
00000000
,  // measure 14
00100000
00001000
00000000
01000000
00000000
00010000
00100000
00000000
01000000
00000000
00000000
00000000
10000000
00000000
00100000
00000000
,  // measure 15
00010000
00001000
00000000
01000000
00000000
00010000
00100000
00000000
01000000
00000000
00000000
00000000
00100000
00000000
00001000
00000000
,  // measure 16
01000000
00010000
00000000
01000000
00000000
00010000
10000000
00000000
00010000
00000000
00010000
00000000
00100000
00000000
01000000
00000000
,  // measure 17
10000000
00100000
00000000
10000000
00000000
00100000
10000000
00000000
00010000
00000000
00000000
00000000
10000000
00000000
01000000
00000000
,  // measure 18
00100000
00001000
00000000
01000000
00000000
00001000
00010000
00000000
00000100
00000000
00000100
00000000
00001000
00000000
00000001
00000000
,  // measure 19
00000010
00000001
00000000
00001000
00000000
00000100
00000010
00000000
00000001
00000000
00000001
00000000
00001000
00000000
00000010
00000000
,  // measure 20
00000100
00000000
00000010
00000100
00000000
00000010
00000000
00010000
00001000
00000000
00010000
00000000
00010000
00000000
00000100
00000000
,  // measure 21
00001000
00000001
00000000
00000100
00000000
00000001
00001000
00000000
00000100
00000000
00000010
00000000
00000001
00000000
00000001
00000000
,  // measure 22
00001000
00000010
00000000
00000100
00000000
00000010
00001000
00000000
00000001
00000000
00000100
00000000
00000001
00000000
00000001
00000000
,  // measure 23
00001000
00000010
00000000
00001000
00000000
00000100
00010000
00000000
00001000
00000000
00000000
00000000
01000000
00000000
00100000
00000000
,  // measure 24
01000000
00001000
00000000
00100000
00000000
00010000
00100000
00000000
01000000
00000000
00000000
00000000
10000000
00000000
00000000
00000000
,  // measure 25
10010000
00000000
00010000
00001000
00010000
01000000
10000000
00010000
,  // measure 26
00100000
01000000
10000000
00010000
00100000
00000000
10000000
01000000
,  // measure 27
00010000
00000000
00001000
00000000
00000100
00000000
00000010
00000001
,  // measure 28
00000100
00001000
00010000
00001000
00000100
00000000
00001001
00000001
,  // measure 29
00000010
00000000
00000100
00000010
00001000
00000000
00001000
00000010
,  // measure 30
00000001
00000000
00000001
00000000
00000001
00000100
00001000
00010000
,  // measure 31
00001000
00000100
00000001
00000100
00001000
00010000
01000000
10000000
,  // measure 32
00010000
00000000
00010000
00000000
00010000
10000000
01000000
00100000
,  // measure 33
00010000
00000000
10000000
00100000
00010000
00000000
00010000
01000000
,  // measure 34
10000000
00000000
10010000
00000000
00100000
00000000
01000000
00001000
,  // measure 35
00020000
00000000
00000000
00000000
00000000
00000000
00000000
00000000
00000000
00030000
00000000
00000000
00001000
00000000
00000100
00000000
,  // measure 36
00000010
00000000
00000011
00000000
00001001
00000000
00000100
00000001
,  // measure 37
00001000
00000000
00000010
00010000
00000100
00000000
00000010
00010000
,  // measure 38
00000100
00000000
00001000
00000000
00001000
00000000
00100000
00001000
,  // measure 39
01000000
00001000
00010000
00001000
00100000
00001000
01000000
00001000
,  // measure 40
00010000
00001000
00100000
00010000
00100000
00000000
00010000
01000000
,  // measure 41
00100000
10000000
00000000
00100000
00000000
01000000
00010000
00000000
10000000
00000000
00000000
00000000
01000000
00000000
00100000
00000000
,  // measure 42
00001000
01000000
00000000
00010000
00000000
00100000
01000000
00000000
00100000
00000000
00100000
00000000
00001000
00000000
01000000
00000000
,  // measure 43
00001000
00010000
00000000
00001000
00000000
00000100
00000001
00000000
00001000
00000000
00000001
00000000
00000001
00000000
00000010
00000000
,  // measure 44
00000100
00000010
00000000
00000001
00000000
00001000
00000100
00000000
00000001
00000000
00000100
00000000
00000010
00000000
00000001
00000000
,  // measure 45
00000010
00001000
00000000
00010000
00000000
00001000
00010000
00000000
01000000
00000000
10000000
00000000
00010000
00000000
00100000
00000000
,  // measure 46
10000000
00100000
00000000
00010000
00000000
00100000
00001000
00000000
00010000
00000000
00001000
00000000
00000010
00000000
00000100
00000000
,  // measure 47
00000001
00000100
00000000
00001000
00000000
00000001
00000010
00000000
00001000
00000000
00000010
00000000
00000001
00000000
00000100
00000000
,  // measure 48
00001000
00010000
00000000
00001000
00000000
01000000
00100000
00000000
01000000
00000000
00001000
00000000
00010000
00000000
00010000
00000000
,  // measure 49
01000000
10000000
00000000
00010000
00000000
00100000
01000000
00000000
00100000
00000000
00000000
00000000
00001000
00000000
01000000
00000000
,  // measure 50
00001000
00010000
00000000
00001000
00000000
00000100
00000001
00000000
00001000
00000000
00000000
00000000
00000010
00000000
00000100
00000000
,  // measure 51
00000001
00001000
00000000
00000001
00000000
00001000
00000001
00000000
00001000
00000000
00000000
00000000
00000001
00000000
00001000
00000000
,  // measure 52
00000001
00001000
00000000
00000001
00000000
00001000
00000001
00000000
00001000
00000000
00000000
00000000
00000001
00000000
00000100
00000000
,  // measure 53
00001000
00010000
00000000
00001000
00000000
00010000
00001000
00000000
00010000
00000000
00000000
00000000
00001000
00000000
00010000
00000000
,  // measure 54
00001000
00010000
00000000
00001000
00000000
00010000
00001000
00000000
00010000
00000000
00000000
00000000
00001000
00000000
00010000
00000000
,  // measure 55
01000000
00000000
10000000
00000000
00010000
10000000
00010000
00000000
10000000
00000000
00000000
00000000
00010000
00000000
01000000
00000000
,  // measure 56
00010000
10000000
00000000
00000000
00010000
10000000
00000000
00000000
00010000
00000000
00000000
00000000
10000000
00000000
00010000
00000000
,  // measure 57
10010000
00000000
00000000
00000000
;
