#TITLE:AERODYNAMIC;
#SUBTITLE:;
#ARTIST:DJ Maniac;
#TITLETRANSLIT:;
#SUBTITLETRANSLIT:;
#ARTISTTRANSLIT:;
#CREDIT:;
#BANNER:aerodynamic-bn.png;
#BACKGROUND:aerodynamic-bg.png;
#LYRICSPATH:;
#CDTITLE:cdtitle.png;
#MUSIC:aerodynamic.ogg;
#OFFSET:-0.009;
#SAMPLESTART:87.860;
#SAMPLELENGTH:13.760;
#SELECTABLE:NO;
#BPMS:0.000=142.000;
#STOPS:;
#BGCHANGES:;

//---------------dance-single - ----------------
#NOTES:
     dance-single:
     :
     Hard:
     9:
     0.620,0.928,0.367,0.117,0.660:
0000
0000
0000
0000
,
0000
0000
0000
0000
,
0000
0000
0000
0000
,
0000
0000
0000
0000
,
1000
0000
0000
0000
0001
0000
0000
0100
0000
0010
0000
0000
1000
0000
0001
1000
,
0001
0000
0000
0000
0010
0000
0000
0100
0000
0010
0000
0000
0001
0000
1000
0001
,
1000
0000
0000
0000
0001
0000
0000
0100
0000
0010
0000
0000
1000
0000
0001
1000
,
0001
0000
0000
0000
0010
0000
1000
0000
0000
0000
1000
0000
0000
0000
0010
0100
,
0010
0000
1100
0100
1000
0010
0100
0001
,
0010
0000
0001
0000
1000
0000
0001
1000
0000
0000
0100
0000
0010
0000
0001
0000
,
1000
0000
0000
0001
1000
0000
0001
0000
0100
0000
0010
0000
1000
0000
0001
0000
,
1000
0000
0000
1000
0001
0000
1000
0000
0100
0000
0010
0000
0100
0000
0100
0000
,
0000
0010
0001
0100
0000
0010
1000
0100
,
0000
1000
0001
0100
0000
0001
1000
0100
,
0000
1000
1000
0001
0000
0001
0001
1000
,
0100
0001
0010
0000
0010
0000
0000
0000
0100
0010
0100
0000
1001
0100
1000
0000
,
0110
0000
0010
0001
1000
0100
1000
0010
,
1000
0001
0010
0100
0010
0001
1000
0010
,
0100
0001
0100
0010
0100
0001
0010
0100
,
1000
0010
1000
0001
1000
0100
0010
0010
,
0000
0000
0001
0000
0010
0000
0100
1000
0000
0000
0100
0000
1000
0000
0001
1000
,
0000
0000
0001
0000
0100
0000
0010
0100
0000
0000
0001
0000
1000
0000
0010
1000
,
0000
0000
0001
0000
0100
0000
0001
1000
0000
0100
0000
0000
0010
0000
0100
0010
,
0000
0000
0001
0000
1000
0000
0010
1000
0000
0010
0000
0000
0100
0000
0100
0000
,
1002
1003
0001
2100
,
3100
0201
0301
1020
,
0130
0000
0201
0000
1300
0010
0002
0000
,
0103
0000
2100
0000
3010
0001
0200
0000
,
0310
1002
0013
0001
,
1020
0031
1000
1001
,
0010
0001
0200
0000
1000
0000
0310
0000
,
0110
0000
0002
0100
1003
0000
0001
0000
,
1001
0000
0000
0100
0000
1000
0000
0001
0000
0000
0100
0000
0010
0000
0000
0000
,
1000
0000
0000
0001
0000
0100
0000
0001
0000
0000
0000
0000
1000
0000
0000
0000
,
0010
0000
0000
0001
0000
1000
0000
0100
0000
0000
0000
0000
0010
0000
0000
0000
,
0001
0000
0000
1000
0000
0100
0000
0100
0000
0000
1000
0000
0010
0000
0000
0000
,
0100
0000
0000
0001
0000
1000
0000
0010
0000
0000
0100
0000
0001
0000
1000
0000
,
0001
0000
0000
0100
0000
0010
0000
0010
0000
0000
1000
0000
0001
0000
0010
0000
,
0001
0000
0000
1000
0000
1000
0000
0001
0000
0000
1000
0000
0010
0000
0001
0000
,
0100
0000
0000
1000
0000
0100
0000
0001
0000
0000
0010
0000
1000
0000
0001
0000
,
1001
0000
0000
0101
0000
0001
0000
1000
0000
0000
0010
0000
1000
0000
0010
1000
,
0010
0000
0000
0100
0000
1000
0000
0010
0000
0000
0001
0000
0001
0000
0010
0000
,
0100
0000
0000
0010
0000
0001
0000
1000
0000
0000
0100
0000
1000
0000
0100
1000
,
0100
0000
0000
0010
0000
0010
0000
0001
0000
0000
0100
0000
0010
0000
0100
0000
,
0101
0000
0000
1001
0000
1100
0000
1001
0000
0000
0100
0000
0001
0000
1000
0001
,
1000
0000
0000
0010
0000
0010
0000
1000
0000
0000
0001
0000
0010
0000
0100
0000
,
0100
0000
0000
1000
0000
0010
0000
1000
0000
0000
0000
0001
0100
0000
0010
0100
,
0010
0000
0000
0100
0000
0001
0000
0001
0000
0000
1000
0000
0010
0000
1000
0010
,
1000
0000
0000
0001
0000
0001
0000
0010
0100
0000
0000
1000
0000
0001
0000
0100
,
0001
0000
0000
1000
0000
0001
0000
0100
0001
0000
0000
1000
0000
0001
0000
1000
,
0001
0000
0000
0100
0001
0000
0000
1000
0001
0000
0000
0100
0001
0000
0000
0000
,
0001
1000
0001
0010
0100
1000
1000
0100
0010
0001
1000
0010
0100
0001
0010
0100
,
1000
0010
1000
0001
1000
0100
0010
0100
1000
0010
0100
0001
0010
0100
0010
0001
,
1000
0001
0100
0010
0100
0001
0010
0100
1000
0010
0100
0001
1000
0100
0010
0000
,
0220
0000
0000
0000
,
0000
0000
0000
0330
,
1001
0000
0000
0100
0000
0010
0000
0100
0000
0000
1000
0000
0010
0000
0100
0001
,
0100
0000
0001
0000
0010
0000
0100
0000
0100
0000
1000
0000
0001
0000
0010
0001
,
0010
0000
0001
0000
0100
0000
0010
0000
1000
0000
0001
0000
1000
0000
0001
1000
,
0001
0000
0000
0101
0000
1001
0000
0010
0000
0000
1000
0000
0001
0000
0010
0001
,
0010
0000
0000
1001
0000
1100
0000
1001
0000
0000
0001
0000
0010
0000
0100
0010
,
0001
0000
0000
1010
0000
0101
0000
1001
0000
0000
0010
0000
0100
0000
0001
0010
,
1000
0000
0000
1010
0000
0110
0000
1001
0000
0000
0100
0000
0010
0000
0100
0010
,
0100
0210
0010
0310
,
0110
0000
0100
0000
1000
0000
0010
1000
0000
0000
0001
0000
0100
0000
0001
1000
,
0001
0000
0000
0010
0000
0001
0000
1000
0000
0000
0100
0000
1000
0000
0001
1000
,
0010
0000
0000
1000
0000
0010
0000
0001
0000
0000
1000
0000
0100
0000
0001
0100
,
1000
0000
0000
0001
0000
0010
0000
1000
0000
0000
0100
0000
1000
0000
0001
0000
,
0010
0000
0000
0011
0000
1001
0000
1100
0000
0000
0001
0000
0010
0000
1000
0010
,
0001
0000
0000
1001
0000
0101
0000
1001
0000
0000
0001
0000
1000
0000
0100
0000
,
1100
0000
0000
1001
0000
0101
0000
0000
1000
0000
0001
0000
0010
0000
0100
0010
,
0001
0000
0000
0110
0000
1100
0000
0010
0000
1000
0000
0001
0100
0010
0001
0010
,
1100
0000
0000
0000
;

//---------------dance-single - ----------------
#NOTES:
     dance-single:
     :
     Medium:
     5:
     0.416,0.481,0.344,0.211,0.000:
0000
0000
0000
0000
,
0000
0000
0000
0000
,
0000
0000
0000
0000
,
0000
0000
0000
0000
,
1000
1001
0001
0101
,
1000
1100
0001
1001
,
0010
0110
0001
1000
,
2002
0000
0000
3003
,
1000
0100
0010
0000
0001
0010
0100
0000
,
0001
0010
0100
0000
1000
0100
0010
0000
,
1000
0100
0010
0000
0001
1000
0100
0000
,
1000
0001
0100
0000
1000
0001
0100
0000
,
0010
0000
1000
0000
0001
0100
0002
0000
,
0010
0000
1003
0000
0100
1000
0001
0000
,
0020
0000
0100
0030
1000
0001
0100
0000
,
0220
0000
0000
0330
,
1002
0000
0100
0003
0010
0100
1000
0000
,
0010
0000
0001
0000
1000
0100
0001
0000
,
0010
0000
1001
0000
0100
0001
1000
0000
,
0010
1000
0001
0000
0100
0001
1000
0000
,
1000
0010
0001
0000
0001
0100
1000
0000
,
0100
0001
1000
0000
0010
1000
0001
0000
,
0010
0001
1000
0000
1000
0100
1000
0000
,
0001
0001
0010
0010
0100
0100
1000
1000
,
0001
0000
1002
0000
0100
0003
0012
0000
,
0100
0003
2001
0000
0100
3000
1100
0000
,
0010
1000
0001
0100
,
0100
1001
0100
0001
,
0000
0000
1200
0000
0010
0300
0120
0000
,
0001
0030
0102
0000
0100
0003
1001
0000
,
0010
0000
1020
0000
0100
0030
1001
0000
,
0100
0000
1000
0000
0001
0000
0010
0100
,
0220
0000
0000
0000
,
0000
0000
0000
0000
0000
0000
0000
0330
,
1000
0001
0100
0010
,
0100
0000
0000
0001
0000
1000
0001
0000
,
0100
0000
0010
1000
0001
0000
0100
0000
,
0001
0000
0000
0010
0010
0000
0000
0000
,
0200
0000
0000
0000
0000
1000
1000
0000
,
0000
0000
0000
0000
0000
0001
0301
0000
,
2002
0000
0000
3003
,
0100
0000
0010
0010
0010
0000
0100
0000
,
0001
0000
1000
1000
1000
0000
0001
0000
,
0010
0000
0001
0001
0001
0000
0100
0000
,
0110
1001
1100
0001
,
2000
0000
0000
3000
,
0011
0101
1001
0000
,
1100
1010
1001
0000
,
0100
0000
0001
0001
0001
0000
1000
1000
,
1000
0000
0001
0001
0001
0000
0010
0010
,
0010
0100
0100
0100
,
0010
0100
0010
0001
1000
0010
0100
0001
,
1000
0010
0100
0001
0010
0100
1000
0010
,
1000
0100
0010
0001
1000
0001
0010
0100
,
2000
0000
0000
0000
,
0000
0000
0000
3000
,
1100
0000
0001
0000
1000
0010
0001
0000
,
1000
0000
0001
0100
1000
0000
0001
0000
,
0011
0000
1000
0100
0001
0000
0010
0000
,
0110
0000
0001
0010
1000
0000
0010
0000
,
1010
0000
1000
0010
0100
0000
0001
0000
,
0101
0000
0001
0100
1000
0000
0010
0000
,
1001
0000
0010
0001
1000
0000
0100
0000
,
1100
0000
1002
0000
0010
0000
0010
0013
,
0011
0000
0001
0000
0100
0010
2000
0000
,
0100
0000
0001
3000
0010
0001
1000
0000
,
1200
0000
1000
0000
0310
0000
0001
0100
,
0001
0102
1000
0013
,
0110
0000
0100
0100
1000
0000
0001
0000
,
0010
0000
0010
0010
0100
0000
0001
0000
,
0001
0000
1000
1000
0001
0000
0100
0000
,
0010
0000
0100
0100
0001
0000
1000
0000
,
0220
0000
0330
0000
;

//---------------dance-single - ----------------
#NOTES:
     dance-single:
     :
     Easy:
     2:
     0.272,0.396,0.109,0.266,0.000:
0000
0000
0000
0000
,
0000
0000
0000
0000
,
0000
0000
0000
0000
,
0000
0000
0000
0000
,
1000
0000
0001
0000
,
1000
0000
0010
0000
,
0100
0000
0001
0000
,
2000
0000
0000
3000
,
0001
0010
0010
0000
,
0001
1000
1000
0000
,
1000
0100
0100
0000
,
0001
0010
0010
0000
,
1000
0010
0200
0300
,
0001
0100
0020
0030
,
0100
0001
2000
3000
,
0001
0000
0010
0000
,
0210
0000
1300
0001
,
0010
0001
0200
0000
,
0302
0000
2003
3000
,
0010
1000
2002
3003
,
0200
0000
0302
0000
,
1003
0010
2000
0000
,
0001
0000
0100
0000
,
3001
0010
0100
0010
,
1002
0100
0100
0100
,
0100
0100
0100
0103
,
2001
0100
0100
0100
,
0100
0100
0100
3100
,
1002
0010
0010
0010
,
0010
0010
0010
0013
,
2001
0010
0010
0010
,
0010
0010
0010
3010
,
2002
0000
0000
0000
,
0000
0000
0000
3003
,
1000
0000
0001
0000
,
0010
0000
0001
0000
,
1000
0100
0001
0000
,
0010
1000
0001
0000
,
1000
0010
0100
0000
,
0001
0100
0010
0000
,
0110
0000
0001
0000
,
1000
0010
0100
0000
,
0001
0100
0010
0000
,
0010
0001
0100
0000
,
1000
0001
0100
0000
,
0200
0000
0000
0300
,
0020
0000
0000
0030
,
2002
0000
0000
3003
,
0200
0000
0000
0300
,
0002
0000
2003
0000
,
3001
1000
0001
1000
,
0010
0010
0010
0010
,
0010
0010
0010
0010
,
0010
0010
0010
0010
,
0220
0000
0000
0000
,
0000
0000
0000
0330
,
1000
0001
0100
1000
,
0010
0001
0001
1000
,
0010
1000
0100
0001
,
0010
1000
0001
0000
,
0001
0010
1000
0100
,
1000
0001
0100
0000
,
0010
0001
0010
0001
,
0200
1000
1300
0000
,
1002
0010
1003
0100
,
1002
0010
1003
0100
,
1020
0100
1030
0001
,
0100
0001
1000
0000
,
0100
0001
1000
0000
,
0010
0001
0100
0000
,
0100
1000
0010
0000
,
0010
1000
0001
0010
,
0220
0000
0330
0000
;

//---------------dance-double - Copied from----------------
#NOTES:
     dance-double:
     Copied from:
     Hard:
     9:
     0.625,0.900,0.492,0.094,0.644:
00000000
00000000
00000000
00000000
,
00000000
00000000
00000000
00000000
,
00000000
00000000
00000000
00000000
,
00000000
00000000
00000000
00000000
,
00000000
00000000
00000000
00000000
10000000
00000000
00010000
01000000
00000000
00010000
00000000
00000000
00100000
00000000
00001000
00010000
,
00000000
00001000
00000000
00000000
01000000
00000000
00001000
00010000
00000000
00000100
00000000
00000000
00001000
00000000
00000001
00000100
,
00000000
00000001
00000000
00000000
00001000
00000000
00000001
00001000
00000000
00000100
00000000
00000000
00000010
00000000
00000000
00000000
,
00000001
00001000
00000001
00000000
00000000
00000000
00000000
00000010
00000100
00000000
00000000
00000010
00001000
00000000
00000100
00000000
,
00010000
00001000
01000000
00100000
01000000
00010000
10000000
01000000
,
00010000
01000000
10000000
01000000
00010000
01000000
10000000
01000000
,
00010000
00001000
00000100
00000001
00000100
00001000
00000100
00000001
,
00000100
00001000
00000100
00000001
00000010
00000100
00001000
00000001
,
00001001
00000000
00000001
00000010
00001000
00000010
00000001
00000010
,
00001000
00000010
00000001
00000010
00001000
00010000
00100000
10000000
,
00100000
00010000
00100000
10000000
00100000
00010000
00100000
10000000
,
00010000
00000000
00100000
00000000
01000000
00000000
00000000
00000000
10000000
00000000
00000000
00000000
10010000
01000000
10000000
00010000
,
10000000
00000000
01010000
00000000
01000000
00100000
10000000
01000000
,
00100000
00001000
00010000
01000000
10000000
00100000
10000000
01000000
,
00010000
00000000
00001000
00000000
00000100
00000000
00000001
00001000
00000000
00000001
00000000
00000000
00000100
00000000
00000010
00000000
,
00001000
00000000
00000100
00000000
00010000
00000000
00001000
01000000
00000000
00010000
00000000
00000000
00100000
00000000
01000000
00000000
,
10000000
00000000
01000000
00000000
00010000
00000000
00001000
00100000
00000000
01000000
00000000
00000000
00010000
00000000
00001000
00000000
,
00000010
00000000
00000100
00000000
00010000
00000000
00000010
00000100
00000000
00000001
00000000
00000000
00000100
00000000
00001000
00000000
,
00010000
00000000
00000100
00000000
00001000
00000000
00010000
01000000
00000000
00100000
00000000
00000000
10000000
00000000
01000000
00100000
,
01000000
00001000
00010000
00000000
00000010
00000100
00000001
00001000
,
00002100
00000100
00013000
01020000
,
00001000
00030010
00210000
10000000
,
00310000
00001200
00000001
00000310
,
00021000
00100000
01030000
00001200
,
00000010
00010300
10200000
00010000
,
00300100
00002010
00010000
01003000
,
00102000
00010000
00003010
00001200
,
00001000
00010300
01000000
00010000
,
10010000
00000000
00000000
01000000
00000000
00010000
00000000
10000000
00000000
00000000
01000000
00000000
00100000
00000000
00000000
00000000
,
00010000
00000000
00000000
10000000
00000000
00100000
00000000
01000000
00000000
00000000
00000000
00000000
00001000
00000000
00000000
00000000
,
00010000
00000000
00000000
00000100
00000000
00001000
00000000
00000001
00000000
00000000
00000000
00000000
00000010
00000000
00000000
00000000
,
00000100
00000000
00000000
00000010
00000000
00000010
00000000
00000001
00000000
00000000
00000100
00000000
00000010
00000000
00000000
00000000
,
00001000
00000000
00000000
00010000
00000000
00100000
00000000
01000000
00000000
00000000
00001000
00000000
00010000
00000000
00001000
00100000
,
00001000
00000000
00000000
00010000
00000000
01000000
00000000
10000000
00000000
00000000
00010000
00000000
00010000
00000000
00100000
00000000
,
01000000
00000000
00000000
10000000
00000000
00010000
00000000
10000000
00000000
00000000
01000000
00000000
00100000
00000000
00010000
00000000
,
10000000
00000000
00000000
00100000
00000000
01000000
00000000
01000000
00000000
00000000
10000000
00000000
00010000
00000000
00100000
00000000
,
01100000
00000000
00000000
01000000
00000000
10000000
00000000
00010000
00000000
00000000
01000000
00000000
00100000
00000000
10000000
01000000
,
10000000
00000000
00000000
01000000
00000000
00100000
00000000
00010000
00000000
00000000
00001000
00000000
01000000
00000000
00010000
00000000
,
00001000
00000000
00000000
00000010
00000000
00000100
00000000
00000100
00000000
00000000
00001000
00000000
00000001
00000000
00000100
00000001
,
00000100
00000000
00000000
00001000
00000000
00010000
00000000
00001000
00000000
00000000
00000100
00000000
00000010
00000000
00000000
00000000
,
00001010
00000000
00000000
00011000
00000000
01010000
00000000
00110000
00000000
00000000
01000000
00000000
10000000
00000000
01000000
10000000
,
01000000
00000000
00000000
00110000
00000000
01100000
00000000
11000000
00000000
00000000
10000000
00000000
00010000
00000000
01000000
00010000
,
01000000
00000000
00000000
00101000
00000000
00011000
00000000
01001000
00000000
00000000
00010000
00000000
00001000
00000000
00000010
00000100
,
00000010
00000000
00000000
00001100
00000000
00001001
00000000
00000101
00000000
00000000
00000010
00000000
00001000
00000000
00000100
00001000
,
00000100
00000000
00000000
00010000
00000000
00001000
00000000
01000000
00001000
00000000
00000000
00010000
00000000
00001000
00000000
00100000
,
00010000
00000000
00000000
01000000
00000000
00010000
00000000
10000000
01000000
00000000
00000000
00100000
00000000
00001000
00000000
00000000
,
00010000
00001000
00000000
00000100
00000001
00000000
00000000
00001000
00010000
00000000
00000000
00100000
10000000
00000000
00000000
00010000
,
00001000
00000100
00000001
00001000
00000100
00000010
00000001
00001000
,
00000001
00000010
00000100
00001000
00000100
00000010
00000001
00001000
00000010
00000100
00000001
00001000
00000010
00001000
00000100
00010000
,
00001000
00010000
00001000
00010000
00000100
00001000
00000100
00000010
00000001
00001000
00000010
00000100
00000001
00001000
00000000
00000000
,
00000220
00000000
00000000
00000000
,
00000000
00000000
00000000
00000330
,
00000110
00000000
00000000
00000100
00000000
00001000
00000000
00000100
00000000
00000000
00000010
00000000
00001000
00000000
00010000
00001000
,
00010000
00000000
00000000
01001000
00000000
01010000
00000000
10010000
00000000
00000000
01000000
00000000
00100000
00000000
10000000
00000000
,
10010000
00000000
00000000
11000000
00000000
00110000
00000000
11000000
00000000
00000000
10000000
00000000
00100000
00000000
10000000
00100000
,
00010000
00000000
00000000
00011000
00000000
00011000
00000000
00010100
00000000
00000000
00001000
00000000
00000100
00000000
00000010
00000000
,
00001001
00000000
00000000
00000110
00000000
00001100
00000000
00001001
00000000
00000000
00000001
00000000
00001000
00000000
00000001
00000010
,
00001000
00000000
00000000
00000010
00000000
00000100
00000000
00001000
00000000
00000000
00001010
00000000
00000110
00000000
00000101
00000000
,
00001001
00000000
00000000
00000100
00000000
00001000
00000000
00000010
00000000
00000000
00001000
00000000
00000100
00000000
00010000
00001000
,
00000100
00000000
00000000
00000001
00000000
00001000
00000000
00000100
00000000
00000000
00000010
00000000
00000100
00000000
00000000
00000000
,
00000110
00000000
00000000
00000010
00000000
00000001
00000000
00001000
00000000
00000000
00000100
00000000
00000010
00000000
00001000
00010000
,
00001000
00000000
01000000
00000000
00100000
00000000
01000000
00000000
00001000
00000000
00010000
00000000
01000000
00000000
10000000
01000000
,
10000000
00000000
00010000
00000000
00100000
00000000
01000000
00000000
10000000
00000000
00100000
00000000
10000000
00000000
10000000
01000000
,
00010000
00000000
00000000
00101000
00000000
01001000
00000000
00011000
00000000
00000000
00010000
00000000
00001000
00000000
00000010
00000000
,
00001100
00000000
00000000
00001001
00000000
00000101
00000000
00001001
00000000
00000000
00000010
00000000
00001000
00000000
00001000
00000010
,
00000001
00000000
00000000
00000110
00000000
00001010
00000000
00001100
00000000
00000000
00001000
00000000
00010000
00000000
00100000
00000000
,
01000000
00000000
00000000
01010000
00000000
10010000
00000000
11000000
00000000
00000000
00100000
00000000
00001000
00000000
00010000
00001000
,
00100000
00000000
00000000
01000000
00000000
10000000
00000000
00010000
00000000
00100000
00000000
01000000
00100000
00000000
01000000
00000000
,
10010000
00000000
00000000
00000000
;
