#TITLE:Music In The Rhythm;
#SUBTITLE:;
#ARTIST:nc ft. 触電;
#TITLETRANSLIT:Music In The Rhythm;
#SUBTITLETRANSLIT:;
#ARTISTTRANSLIT:nc ft. Electric Touch;
#CREDIT:;
#BANNER:Music In The Rhythm.png;
#BACKGROUND:Music In The Rhythm-bg.png;
#LYRICSPATH:;
#CDTITLE:./CDTITLES/DanceDanceRevolution SuperNOVA2.png;
#MUSIC:Music In The Rhythm.mp3;
#OFFSET:-0.069;
#SAMPLESTART:12.441;
#SAMPLELENGTH:15.000;
#SELECTABLE:YES;
#BPMS:0.000=155.010;
#STOPS:31.000=0.387
,61.500=0.387
,90.000=0.387
,121.000=1.548
;
#BGCHANGES:0.000=Music In The Rhythm.avi=1.000=1=0=0,
99999=-nosongbg-=1.000=0=0=0 // don't automatically add -songbackground-
;

//---------------dance-single - Copied from----------------
#NOTES:
     dance-single:
     :
     Hard:
     15:
     0.859,0.898,0.251,0.077,0.839:
0000
0000
0000
0000
,
0000
0000
0000
0000
,
0000
0000
0000
0000
,
0000
0000
0000
0000
,
1001
1000
1000
0010
0001
0010
1000
0100
,
0110
0100
0010
0001
0011
0010
0100
0100
,
1000
0001
0010
0100
0001
0100
1000
0001
,
0020
0000
0000
0000
0000
0000
0030
0001
,
1000
0010
0100
0001
1000
0100
1100
0100
,
0010
0001
0011
0001
0100
0100
0110
0010
,
1000
0100
0010
0001
0100
0010
1010
1000
,
0010
0100
0101
0001
0010
0100
0110
0010
,
0001
1000
0010
0100
0001
1000
1001
1000
,
0100
0010
0110
0010
0001
0001
0100
0010
,
1000
0010
0001
0010
1000
0100
0010
0001
,
0010
0000
0100
0000
1000
0100
2000
3000
1000
0000
0100
0000
0001
0000
0100
0000
,
0010
0001
0010
0100
0110
0100
1000
1000
,
1010
0010
0100
0100
0001
0010
0100
1000
,
0010
1000
0100
0010
0011
0001
0100
0100
,
0110
0010
1000
1000
0001
0010
0100
1000
,
0010
0001
0010
1000
1100
0100
0010
0010
,
0011
0010
0100
0100
0001
0100
1000
1000
,
0001
0000
0100
0000
1000
0000
0100
0000
0020
0000
0000
0030
1000
0010
0100
0001
,
0010
0001
0100
0010
1000
0000
0100
0000
0010
0000
0001
0000
0100
0000
0010
0000
,
1000
0100
1100
1000
0010
0010
0110
0100
,
0001
0001
1001
1000
0100
0001
0100
0010
,
0001
1000
1001
1000
0010
0010
0110
0100
,
0001
0001
0010
0001
0100
1000
0100
0001
,
0010
0100
0110
0010
0001
0001
1001
1000
,
0010
0010
1000
0100
0001
0100
1000
0010
,
1000
0000
1000
0000
0002
0003
1000
0010
1000
0000
0001
0010
0001
0000
0100
0010
,
0100
0000
0001
0100
0001
0000
1000
0010
1000
0000
0100
0010
0100
0000
1000
0010
,
1000
0000
0100
1000
0001
0000
0010
0100
0010
0000
0001
0100
0001
0000
1000
0010
,
1000
0000
0001
0010
0001
0000
0100
0001
0100
0000
0010
1000
0100
0000
0010
0001
,
0100
0001
0010
0100
1000
0000
0010
1000
0100
0000
0010
0001
0100
0000
0001
1000
,
0100
0000
1000
0001
0010
0000
0100
1000
0010
0000
0100
0001
0010
0000
0001
0100
,
0001
0010
0100
1000
0010
0000
1000
0100
0010
0000
0001
1000
0010
0000
1000
0100
,
1000
0010
0100
0001
0010
0100
1000
0010
1000
0100
0010
0001
0100
0001
0010
0100
,
1000
0010
1000
0001
0100
0010
1000
0100
1000
0000
0010
0100
0000
0001
0000
0010
,
0001
0100
0010
1000
0100
1000
0001
0100
0010
0100
0000
0001
0000
0010
0000
0001
,
0100
0010
1000
0100
1000
0001
0010
0100
1000
0010
0000
1000
0000
0100
0000
0010
,
0001
0100
0001
0010
0100
1000
0010
0100
0010
1000
0000
0100
0000
0010
0000
0001
,
0100
0010
0100
0001
0010
0100
1000
0010
0100
0010
0000
1000
0000
0001
0000
0010
,
0100
0010
0001
0100
0010
1000
0100
1000
0010
0100
0000
0001
0000
0010
0000
0100
,
1000
0010
1000
0100
0010
0001
0100
0001
1000
0010
0000
0100
0000
0001
0000
0010
,
0100
0010
0001
0100
0020
0000
2030
0000
3100
1000
0010
0100
0001
0020
0000
0000
,
0130
1000
0010
0100
0001
0010
0001
0100
0010
1000
0000
0100
0000
1000
0000
0010
,
0100
0001
0010
0001
0100
0010
1000
0100
0010
0001
0000
0100
0000
0010
0000
1000
,
0010
1000
0100
0010
0001
0100
0001
0010
0100
1000
0000
0010
0000
1000
0000
0001
,
0100
0010
1000
0100
0010
0001
0100
0010
0100
0001
0000
0010
0000
0100
0000
1000
,
0010
1000
0100
0010
0001
0100
0010
0100
0001
0010
0000
0001
0000
1000
0000
0010
,
0100
0001
0010
0100
1000
0010
0100
0010
1000
0100
0000
0010
0000
0100
0000
1000
,
0010
0100
0001
0010
0001
0100
0010
1000
0100
0010
0000
0100
0000
1000
0000
0010
,
0100
0001
0010
0100
1000
0000
0001
0000
0100
0000
0010
0000
1000
0010
0100
0001
,
0020
0030
0101
0100
0001
0010
0100
1000
,
0010
0000
1000
0000
1010
0000
1000
0100
1000
0000
0001
0000
0010
0000
0001
0100
,
0001
0010
0100
0010
0001
0000
0100
0000
0010
0000
1000
0000
0100
0000
1000
0000
,
0010
0000
0100
0000
0001
0000
1000
0010
1000
0000
0001
0000
0100
0000
0001
0010
,
0001
0100
0010
1000
0100
0000
1000
0000
0010
0000
0100
0000
0001
0000
1000
0000
,
0100
0000
0010
0000
0001
0000
0100
0001
0100
0000
0001
0000
0010
0000
0100
0010
,
0001
0100
0001
1000
0010
0000
0100
0000
0010
0000
1000
0000
0100
0000
0010
0000
,
0001
1000
0010
0001
0010
1000
0001
1000
,
0001
1000
0000
0000
0000
0000
0000
0000
;
