#TITLE:MONEY;
#SUBTITLE:;
#ARTIST:RAGGA TWINS;
#TITLETRANSLIT:;
#SUBTITLETRANSLIT:;
#ARTISTTRANSLIT:;
#CREDIT:;
#BANNER:MONEY.png;
#BACKGROUND:MONEY-bg.png;
#LYRICSPATH:;
#CDTITLE:CDTitles/Dancemania.png;
#MUSIC:MONEY.mp3;
#OFFSET:-7.928;
#SAMPLESTART:40.320;
#SAMPLELENGTH:12.000;
#SELECTABLE:YES;
#BPMS:0.000=118.450;
#STOPS:;
#BGCHANGES:12.000=Circle4.avi=1.000=1=0=1,
32.000=Film2.avi=1.000=0=0=1,
40.000=Piranha1.avi=1.000=0=0=1,
48.000=Film2.avi=1.000=0=0=1,
56.000=Piranha1.avi=1.000=0=0=1,
64.000=Blinds1.avi=1.000=0=0=1,
72.000=Text16.avi=1.000=0=0=1,
80.000=Blinds1.avi=1.000=0=0=1,
88.000=Text16.avi=1.000=0=0=1,
92.000=Circle4.avi=1.000=0=0=1,
96.000=Film2.avi=1.000=0=0=1,
104.000=Piranha1.avi=1.000=0=0=1,
112.000=Film2.avi=1.000=0=0=1,
120.000=Piranha1.avi=1.000=0=0=1,
128.000=Blinds1.avi=1.000=0=0=1,
136.000=Text16.avi=1.000=0=0=1,
144.000=Blinds1.avi=1.000=0=0=1,
152.000=Text16.avi=1.000=0=0=1,
155.500=MONEY-bg.png=1.000=0=0=1;

//---------------dance-single - ----------------
#NOTES:
     dance-single:
     :
     Easy:
     5:
     0.250,0.310,0.171,0.000,0.000: // measure 1
0000
0000
0000
0000
,  // measure 2
0000
0000
0000
0000
,  // measure 3
0000
0000
0000
0000
,  // measure 4
0101
0001
0000
0000
,  // measure 5
1100
1000
0000
0000
,  // measure 6
0101
0001
0000
0000
0000
0000
0000
0000
,  // measure 7
1100
1000
0000
0000
0000
0000
0000
0000
,  // measure 8
0101
0001
0001
0000
0000
0000
0000
0000
,  // measure 9
1100
1000
1000
0000
0000
0000
0010
0000
,  // measure 10
0000
0000
0000
0010
,  // measure 11
0000
0000
0000
0010
,  // measure 12
0101
0001
0001
0000
0001
0000
0010
0000
,  // measure 13
1100
1000
1000
0000
1000
0000
0010
0000
,  // measure 14
0101
0001
0001
0000
0001
0000
0010
0000
,  // measure 15
1100
1000
1000
0000
1000
0000
0010
0000
,  // measure 16
0101
0001
0001
0000
0001
0001
0000
0000
,  // measure 17
0101
0001
0000
0001
,  // measure 18
1000
0000
0001
0000
,  // measure 19
1100
1000
0000
1000
,  // measure 20
1000
0000
1000
1000
0000
0000
0000
0000
,  // measure 21
0101
0000
0001
0000
0001
0001
0000
0000
,  // measure 22
1000
0001
1000
0001
,  // measure 23
1100
0000
1000
0000
1000
1000
1000
0000
,  // measure 24
0000
0000
0000
0000
,  // measure 25
0100
0001
0000
0000
0001
0000
0000
0000
,  // measure 26
0100
1000
0000
0000
1000
0000
0000
0000
,  // measure 27
0100
0001
0001
0000
0001
0000
0000
0000
,  // measure 28
0100
1000
1000
0000
1000
0000
0000
0000
,  // measure 29
0100
0001
0001
0000
0001
0000
0001
0000
,  // measure 30
0100
1000
1000
0000
1000
0000
1000
0000
,  // measure 31
0100
0001
0001
0000
0001
0001
0001
0000
,  // measure 32
0100
1000
1000
0000
1000
1000
1000
0000
,  // measure 33
0100
0001
0001
0000
0001
0001
0000
0000
,  // measure 34
1000
0001
1000
0001
,  // measure 35
0100
1000
1000
0000
1000
1000
0000
0000
,  // measure 36
1000
0000
1000
1000
1000
1000
0000
0000
,  // measure 37
0100
0001
0001
0000
0100
1000
0000
0000
,  // measure 38
0001
1000
0001
1000
,  // measure 39
0100
1000
0100
1000
0100
0001
0100
0001
,  // measure 40
0001
0000
0000
0000
;

//---------------dance-single - ----------------
#NOTES:
     dance-single:
     :
     Medium:
     6:
     0.315,0.333,0.000,0.000,0.000:
0000
0000
0000
0000
,
0000
0000
0000
0000
,
0000
0000
0000
0000
,
0100
0001
0001
0001
0000
0000
0000
0000
,
0100
1000
1000
1000
0000
0000
0000
0000
,
0100
0001
0001
0000
0001
0001
0000
0000
,
0100
1000
1000
0000
1000
1000
0000
0000
,
0100
0001
0001
0001
0001
0000
0000
0000
,
0000
0000
0000
0010
,
0000
0000
0000
0010
,
0100
1000
1000
1000
1000
0000
0010
0000
,
0100
0001
0001
0000
0001
0001
0010
0000
,
0100
1000
1000
0000
1000
1000
0010
0000
,
0100
0001
0000
0001
0000
0001
0010
0000
,
0100
1000
0000
1000
0000
1000
0010
0000
,
0100
0001
0000
0001
0100
1000
1000
0000
,
0100
0001
0001
0000
0100
1000
1000
0000
,
0001
0000
1000
0000
0001
0001
0010
0000
,
0100
1000
1000
0000
0100
0001
0001
0000
,
1000
0000
1000
1000
0001
0001
0000
0000
,
0100
0001
0100
1000
0100
0001
0100
1000
,
1000
0000
0001
0000
1000
1000
0010
0000
,
0100
1000
0100
0001
0100
1000
0100
0001
,
0000
0000
0000
0000
,
0100
0001
0000
0000
0001
0000
0000
0001
,
0100
1000
0000
0000
1000
0000
0000
1000
,
0010
0001
0001
0000
0001
0000
0000
0000
,
0010
1000
1000
0000
1000
0000
0000
0000
,
0100
0001
0001
0000
0001
0001
0001
0000
,
0100
1000
1000
0000
1000
1000
1000
0000
,
0010
0001
0001
0001
0001
0001
0001
0000
,
0010
1000
1000
1000
1000
1000
1000
0000
,
0100
0001
0100
1000
0010
0001
0010
1000
,
0001
0001
1000
0000
0001
0001
0100
0000
,
0010
0001
0010
1000
0100
0001
0100
1000
,
0001
0000
0001
0001
0001
0001
0000
0000
,
0100
0001
0010
0001
0010
1000
0100
1000
,
1000
1000
0001
0000
1000
1000
0010
0000
,
0100
1000
0010
1000
0010
0001
0100
0001
,
0001
0000
0000
0000
;

//---------------dance-single - ----------------
#NOTES:
     dance-single:
     :
     Hard:
     8:
     0.398,0.532,0.443,0.000,0.000:
0000
0000
0000
0000
,
0000
0000
0000
0000
,
0000
0000
0000
0000
,
0101
0001
0000
0001
0000
0001
0000
0000
,
1100
1000
0000
1000
0000
1000
0000
0000
,
0101
0001
0000
0001
0000
0001
0001
0000
,
1100
1000
0000
1000
0000
1000
1000
0000
,
0101
0001
0001
0001
0001
0001
0001
0001
,
0000
0000
0000
0010
,
0000
0000
0000
0010
,
1010
1000
0000
1000
1000
1000
0010
0000
,
0011
0001
0000
0001
0001
0001
0010
0000
,
1100
0000
0000
1000
1000
1000
0010
0000
,
0101
0000
0000
0001
0001
0001
0010
0000
,
1010
1000
0000
1000
0000
1000
0010
0000
,
0011
0001
0000
0001
0000
0001
0000
0000
,
0100
0001
0100
1000
0010
0001
0010
1000
,
1000
1000
1001
0000
0001
0001
1001
0000
,
0010
0001
0010
1000
0100
0001
0100
1000
,
0001
0100
0100
1000
1000
0100
0000
0000
,
0100
0001
0010
0001
0010
1000
0100
1000
,
1000
0001
1001
0000
0001
1000
1001
0000
,
0100
1000
0010
1000
0010
0001
0100
0001
,
0100
0000
0000
0000
,
0100
1000
0000
1000
0000
0000
1000
0000
,
0100
0001
0000
0001
0000
0000
0001
0000
,
0010
1000
1000
1000
0000
1000
0000
1000
,
0010
0001
0001
0001
0000
0001
0000
0001
,
0100
1000
1000
1100
0000
1000
1000
0000
,
0100
0001
0001
0101
0000
0001
0001
0000
,
0010
1000
1000
1000
0000
1010
1000
0000
,
0010
0001
0011
0001
0000
0011
0001
0000
,
0100
1000
1000
0010
0010
0001
0001
0100
,
1000
1100
0101
0000
0001
0101
0110
0000
,
0010
0001
0001
0100
0100
1000
1000
0010
,
0100
0101
0010
1010
0100
1100
0000
0000
,
0101
0010
0011
0100
1100
0010
1010
0100
,
1000
1100
1010
1000
1000
1100
1000
0000
,
1010
1000
0100
0101
0011
1010
1000
1001
,
0100
0000
0000
0000
;

//---------------dance-couple - ----------------
#NOTES:
     dance-couple:
     :
     Easy:
     5:
     0.487,0.621,1.000,0.000,0.000:
00000000
00000000
00000000
00000000
,
00000000
00000000
00000000
00000000
,
00000000
00000000
00000000
00000000
,
00000000
00000000
00000000
00000000
,
01011100
00011000
00000000
00000000
,
11000101
10000001
00000000
00000000
,
01011100
00011000
00000000
00000000
00000000
00000000
00000000
00000000
,
11000101
10000001
00000000
00000000
00000000
00000000
00000000
00000000
,
01011100
00011000
00011000
00000000
00000000
00000000
00100010
00000000
,
00000101
00000001
00000001
00000000
00000001
00000000
00100010
00000000
,
00001100
00001000
00001000
00000000
00001000
00000000
00100010
00000000
,
01010000
00010000
00010000
00000000
00010000
00000000
00100010
00000000
,
11000000
10000000
10000000
00000000
10000000
00000000
00100010
00000000
,
01011100
00011000
00011000
00000000
00011000
00000000
00100010
00000000
,
11000101
10000001
10000001
00000000
10000001
00000000
00100010
00000000
,
01011100
00011000
00011000
00000000
00011000
00011000
00000000
00000000
,
01011100
00011000
00000000
00011000
,
10000001
00000000
00011000
00000000
,
11000101
10000001
00000000
10000001
,
10000001
00000000
10000001
10000001
00000000
00000000
00000000
00000000
,
01011100
00000000
00011000
00000000
00011000
00011000
00000000
00000000
,
10000001
00011000
10000001
00011000
,
11000101
00000000
10000001
00000000
10000001
10000001
10000001
00000000
,
00000000
00000000
00000000
00000000
,
01000100
00011000
00000000
00000000
00011000
00000000
00000000
00000000
,
01000100
10000001
00000000
00000000
10000001
00000000
00000000
00000000
,
01000100
00011000
00011000
00000000
00011000
00000000
00000000
00000000
,
01000100
10000001
10000001
00000000
10000001
00000000
00000000
00000000
,
01000100
00011000
00011000
00000000
00011000
00000000
00011000
00000000
,
01000100
10000001
10000001
00000000
10000001
00000000
10000001
00000000
,
01000100
00011000
00011000
00000000
00011000
00011000
00011000
00000000
,
01000100
10000001
10000001
00000000
10000001
10000001
10000001
00000000
,
01000100
00011000
00011000
00000000
00011000
00011000
00000000
00000000
,
10000001
00011000
10000001
00011000
,
01000100
10000001
10000001
00000000
10000001
10000001
00000000
00000000
,
10000001
00000000
10000001
10000001
10000001
10000001
00000000
00000000
,
01000100
00011000
00011000
00000000
01000100
10000001
00000000
00000000
,
00011000
10000001
00011000
10000001
,
01000100
10000001
01000100
10000001
01000100
00011000
01000100
00011000
,
00011000
00000000
00000000
00000000
;

//---------------dance-couple - ----------------
#NOTES:
     dance-couple:
     :
     Medium:
     7:
     0.617,0.665,1.000,0.000,0.000:
00000000
00000000
00000000
00000000
,
00000000
00000000
00000000
00000000
,
00000000
00000000
00000000
00000000
,
00000000
00000000
00000000
00000000
,
01000100
10000001
10000001
10000001
00000000
00000000
00000000
00000000
,
01000100
00011000
00011000
00000000
00011000
00011000
00000000
00000000
,
01000100
10000001
10000001
00000000
10000001
10000001
00000000
00000000
,
01000100
00011000
00011000
00011000
00011000
00000000
00000000
00000000
,
00000100
00000001
00000001
00000001
00000001
00000000
00100010
00000000
,
00000100
00001000
00001000
00000000
00001000
00001000
00100010
00000000
,
01000000
10000000
10000000
10000000
10000000
00000000
00100010
00000000
,
01000000
00010000
00010000
00000000
00010000
00010000
00100010
00000000
,
01000100
10000001
10000001
00000000
10000001
10000001
00100010
00000000
,
01000100
00011000
00000000
00011000
00000000
00011000
00100010
00000000
,
01000100
10000001
00000000
10000001
00000000
10000001
00100010
00000000
,
01000100
00011000
00000000
00011000
01000100
10000001
10000001
00000000
,
01000100
00011000
00011000
00000000
01000100
10000001
10000001
00000000
,
00011000
00000000
10000001
00000000
00011000
00011000
00100010
00000000
,
01000100
10000001
10000001
00000000
01000100
00011000
00011000
00000000
,
10000001
00000000
10000001
10000001
00011000
00011000
00000000
00000000
,
01000100
00011000
01000100
10000001
01000100
00011000
01000100
10000001
,
10000001
00000000
00011000
00000000
10000001
10000001
00100010
00000000
,
01000100
10000001
01000100
00011000
01000100
10000001
01000100
00011000
,
00000000
00000000
00000000
00000000
,
01000100
00011000
00000000
00000000
00011000
00000000
00000000
00011000
,
01000100
10000001
00000000
00000000
10000001
00000000
00000000
10000001
,
00100010
00011000
00011000
00000000
00011000
00000000
00000000
00000000
,
00100010
10000001
10000001
00000000
10000001
00000000
00000000
00000000
,
01000100
00011000
00011000
00000000
00011000
00011000
00011000
00000000
,
01000100
10000001
10000001
00000000
10000001
10000001
10000001
00000000
,
00100010
00011000
00011000
00011000
00011000
00011000
00011000
00000000
,
00100010
10000001
10000001
10000001
10000001
10000001
10000001
00000000
,
01000100
00011000
01000100
10000001
00100010
00011000
00100010
10000001
,
00011000
00011000
10000001
00000000
00011000
00011000
01000100
00000000
,
00100010
00011000
00100010
10000001
01000100
00011000
01000100
10000001
,
00011000
00000000
00011000
00011000
00011000
00011000
00000000
00000000
,
01000100
00011000
00100010
00011000
00100010
10000001
01000100
10000001
,
10000001
10000001
00011000
00000000
10000001
10000001
00100010
00000000
,
01000100
10000001
00100010
10000001
00100010
00011000
01000100
00011000
,
00011000
00000000
00000000
00000000
;

//---------------dance-double - ----------------
#NOTES:
     dance-double:
     :
     Easy:
     6:
     0.252,0.333,0.205,0.000,0.000:
00000000
00000000
00000000
00000000
,
00000000
00000000
00000000
00000000
,
00000000
00000000
00000000
00000000
,
00000000
00000000
00000000
00000000
,
00010010
00000000
00000000
00000000
,
00101000
00000000
00000000
00000000
,
00010010
00000010
00000000
00000000
00000000
00000000
00000000
00000000
,
00101000
00100000
00000000
00000000
00000000
00000000
00000000
00000000
,
00000000
00000000
00000000
00000100
,
00000000
00000000
00000000
01000000
,
00010010
00000010
00000010
00000000
00000000
00000000
00000100
00000000
,
00101000
00100000
00100000
00000000
00000000
00000000
01000000
00000000
,
00010010
00000010
00000000
00000000
00000010
00000000
00000100
00000000
,
00101000
00100000
00000000
00000000
00100000
00000000
01000000
00000000
,
00010010
00000010
00000010
00000010
00000000
00000000
00000100
00000000
,
00101000
00100000
00100000
00100000
00000000
00000000
00000000
00000000
,
00010010
00101000
00000000
00000000
,
00100000
00000000
01000000
00000000
,
00101000
00010010
00000000
00000000
,
00000001
00000000
00000001
00000001
00000000
00000000
00000000
00000000
,
00010010
00000000
00000010
00000000
00101000
00000000
00100000
00100000
,
00100000
01000000
00100000
01000000
,
00101000
00000000
00100000
00000000
00010010
00000000
00000010
00000010
,
00000010
00000000
00000000
00000000
,
00010000
00000010
00000000
00000000
00000010
00000000
00000000
00000000
,
00001000
00100000
00000000
00000000
00100000
00000000
00000000
00000000
,
00010000
00000010
00000010
00000000
00000010
00000000
00000000
00000000
,
00001000
00100000
00100000
00000000
00100000
00000000
00000000
00000000
,
00010000
00000010
00000010
00000010
00000000
00000000
00000010
00000000
,
00001000
00100000
00100000
00100000
00000000
00000000
00100000
00000000
,
00010000
00000010
00000010
00000010
00000010
00000000
00000010
00000010
,
00001000
00100000
00100000
00100000
00100000
00000000
00100000
00100000
,
00010000
00000010
00000010
00000000
00001000
00100000
00000000
00000000
,
00100000
00000000
01000000
00000000
00100000
00100000
01000000
00000000
,
00001000
00100000
00100000
00000000
00010000
00000010
00000000
00000000
,
00000010
00000000
00000010
00000010
00000010
00000010
00000000
00000000
,
00001000
00100000
00010000
00000010
00000010
00100000
00100000
00100000
,
00100000
00000000
01000000
00000000
00100000
00100000
01000000
00000000
,
00010000
00000010
00001000
00100000
00010000
00000010
00001000
00100000
,
00100000
00000000
00000000
00000000
;

//---------------dance-double - ----------------
#NOTES:
     dance-double:
     :
     Medium:
     7:
     0.335,0.399,0.239,0.000,0.000:
00000000
00000000
00000000
00000000
,
00000000
00000000
00000000
00000000
,
00000000
00000000
00000000
00000000
,
00000000
00000000
00000000
00000000
,
00010010
00000010
00000010
00000000
00000000
00000000
00000000
00000000
,
00101000
00100000
00100000
00000000
00000000
00000000
00000000
00000000
,
00010010
00000010
00000000
00000010
00000000
00000000
00000000
00000000
,
00101000
00100000
00000000
00000000
00000000
00100000
00000000
00000000
,
00000000
00000000
00000000
00000100
,
00000000
00000000
00000000
01000000
,
00010010
00000010
00000000
00000000
00000010
00000010
00000100
00000000
,
00101000
00100000
00000000
00000000
00100000
00100000
01000000
00000000
,
00010010
00000010
00000000
00000010
00000010
00000010
00000100
00000000
,
00101000
00100000
00000000
00100000
00100000
00100000
01000000
00000000
,
00010010
00000000
00000000
00000010
00000000
00000010
00000100
00000000
,
00101000
00000000
00000000
00100000
00010010
00000000
00000000
00000010
,
00101000
00100000
00010010
00000010
,
00000000
00000000
00000000
00000000
00010000
10000000
00001000
00000001
,
00010010
00000010
00000010
00000000
00101000
00100000
00100000
00000000
,
00001000
00000010
00000010
00000010
00000010
00000010
00000000
00000000
,
00101000
00100000
00100000
00000000
00010010
00000000
00000010
00000010
,
00010000
10000000
00010000
00001000
00001000
00000001
00001000
00010000
,
00101000
00000000
00010010
00000000
00101000
00000000
00010010
00000010
,
00000010
00000000
00000000
00000000
,
00001000
00100000
00000000
00000000
00100000
00000000
00000000
00100000
,
00010000
00000010
00000000
00000000
00000010
00000000
00000000
00000010
,
00001000
01000000
01000000
01000000
00000000
01000000
00000000
01000000
,
00010000
00000100
00000100
00000100
00000000
00000100
00000000
00000100
,
00001000
00100000
00100000
00100000
00000000
00100000
00100000
00100000
,
00010000
00000100
00000100
00000100
00000000
00000100
00000100
00000100
,
00001000
00100000
00100000
00100000
00100000
00100000
00100000
00100000
,
00010000
00000100
00000000
00000100
00000000
00000100
00000000
00000000
,
00010000
00000010
00001000
00100000
00010000
00000010
00001000
00100000
,
00001000
00000001
00001000
00010000
00010000
10000000
00010000
00001000
,
00010000
00100000
01000000
00010000
00001000
00000100
00000010
00001000
,
00010000
10000000
10000000
10000000
10000000
10000000
00000000
00000000
,
00010000
00000010
00000001
00000100
00001000
00100000
10000000
01000000
,
01000000
00100000
00010000
00001000
00000010
00000100
00010000
00001000
,
00001000
00100000
00001000
00000100
00010000
00000010
00010000
01000000
,
00001000
00000000
00000000
00000000
;

//---------------dance-double - ----------------
#NOTES:
     dance-double:
     :
     Hard:
     7:
     0.335,0.399,0.239,0.000,0.000:
00000000
00000000
00000000
00000000
,
00000000
00000000
00000000
00000000
,
00000000
00000000
00000000
00000000
,
00000000
00000000
00000000
00000000
,
00010010
00000010
00000010
00000000
00000000
00000000
00000000
00000000
,
00101000
00100000
00100000
00000000
00000000
00000000
00000000
00000000
,
00010010
00000010
00000000
00000010
00000000
00000000
00000000
00000000
,
00101000
00100000
00000000
00000000
00000000
00100000
00000000
00000000
,
00000000
00000000
00000000
00000100
,
00000000
00000000
00000000
01000000
,
00010010
00000010
00000000
00000000
00000010
00000010
00000100
00000000
,
00101000
00100000
00000000
00000000
00100000
00100000
01000000
00000000
,
00010010
00000010
00000000
00000010
00000010
00000010
00000100
00000000
,
00101000
00100000
00000000
00100000
00100000
00100000
01000000
00000000
,
00010010
00000000
00000000
00000010
00000000
00000010
00000100
00000000
,
00101000
00000000
00000000
00100000
00010010
00000000
00000000
00000010
,
00101000
00100000
00010010
00000010
,
00000000
00000000
00000000
00000000
00010000
10000000
00001000
00000001
,
00010010
00000010
00000010
00000000
00101000
00100000
00100000
00000000
,
00001000
00000010
00000010
00000010
00000010
00000010
00000000
00000000
,
00101000
00100000
00100000
00000000
00010010
00000000
00000010
00000010
,
00010000
10000000
00010000
00001000
00001000
00000001
00001000
00010000
,
00101000
00000000
00010010
00000000
00101000
00000000
00010010
00000010
,
00000010
00000000
00000000
00000000
,
00001000
00100000
00000000
00000000
00100000
00000000
00000000
00100000
,
00010000
00000010
00000000
00000000
00000010
00000000
00000000
00000010
,
00001000
01000000
01000000
01000000
00000000
01000000
00000000
01000000
,
00010000
00000100
00000100
00000100
00000000
00000100
00000000
00000100
,
00001000
00100000
00100000
00100000
00000000
00100000
00100000
00100000
,
00010000
00000100
00000100
00000100
00000000
00000100
00000100
00000100
,
00001000
00100000
00100000
00100000
00100000
00100000
00100000
00100000
,
00010000
00000100
00000000
00000100
00000000
00000100
00000000
00000000
,
00010000
00000010
00001000
00100000
00010000
00000010
00001000
00100000
,
00001000
00000001
00001000
00010000
00010000
10000000
00010000
00001000
,
00010000
00100000
01000000
00010000
00001000
00000100
00000010
00001000
,
00010000
10000000
10000000
10000000
10000000
10000000
00000000
00000000
,
00010000
00000010
00000001
00000100
00001000
00100000
10000000
01000000
,
01000000
00100000
00010000
00001000
00000010
00000100
00010000
00001000
,
00001000
00100000
00001000
00000100
00010000
00000010
00010000
01000000
,
00001000
00000000
00000000
00000000
;
