#TITLE:CANDY;
#SUBTITLE:[PLANET REMIX];
#ARTIST:Luv UNLIMITED;
#TITLETRANSLIT:CANDY (DDR 6thMIX);
#SUBTITLETRANSLIT:;
#ARTISTTRANSLIT:;
#CREDIT:;
#BANNER:CANDY [PLANET REMIX].png;
#BACKGROUND:CANDY [PLANET REMIX]-bg.png;
#LYRICSPATH:;
#CDTITLE:CDTitles/Dancemania.png;
#MUSIC:CANDY [PLANET REMIX].mp3;
#OFFSET:-0.440;
#SAMPLESTART:31.820;
#SAMPLELENGTH:12.000;
#SELECTABLE:YES;
#BPMS:0.000=198.420;
#STOPS:;
#BGCHANGES:8.000=CANDY [PLANET REMIX]-SPEED10.png=1.000=0=0=1,
12.000=CANDY [PLANET REMIX]-bg.png=1.000=0=0=1,
16.000=CANDY [PLANET REMIX]-SPEED10.png=1.000=0=0=1,
18.750=CANDY [PLANET REMIX].avi=1.033=1=0=1,
272.000=CANDY [PLANET REMIX]-SPEED10.png=1.000=0=0=1,
276.000=CANDY [PLANET REMIX]-bg.png=1.000=0=0=1,
99999=-nosongbg-=1.000=0=0=0 // don't automatically add -songbackground-
;
#LASTBEAT:280;

//---------------dance-single - ----------------
#NOTES:
     dance-single:
     :
     Beginner:
     2:
     0.162,0.316,0.115,0.000,0.000:
0000
0000
0000
0000
,
0000
0000
0000
0000
,
0000
0000
0000
0000
,
0000
0000
0000
0000
,
0010
0000
0000
0000
,
0100
0000
0000
0000
,
0001
0000
0000
0000
,
0001
0000
0000
0000
,
0010
0000
0000
0000
,
0100
0000
0000
0000
,
1001
0000
0000
0000
,
1000
0000
0000
0000
,
0110
0000
0000
0000
,
0001
0000
0000
0000
,
1001
0000
0000
0000
,
0001
0000
0000
0000
,
0110
0000
0000
0000
,
1000
0000
0001
0001
,
0001
0000
0000
0000
,
1000
0000
0000
0000
,
0001
0000
0000
0000
,
0001
0000
0000
0000
,
1000
0000
0000
0000
,
1000
0000
0000
0000
,
1000
0000
0000
0000
,
0001
0001
0001
0000
,
0010
0000
0010
0000
,
0100
0000
0100
0000
,
0010
0000
0010
0000
,
0100
0000
0100
0000
,
0001
0000
0000
0000
,
1000
0000
0000
0000
,
0001
0000
0000
0000
,
0100
0000
0000
0000
,
0001
0000
0001
0000
,
1000
0000
1000
0000
,
0001
0000
0001
0000
,
1000
0000
1000
0000
,
0010
0000
0000
0000
,
0010
0000
0000
0000
,
0100
0000
0000
0000
,
0100
0000
0000
0000
,
1000
0000
0000
0000
,
0100
0000
0000
0000
,
1000
0000
0000
0000
,
0100
0000
0000
0000
,
1000
0000
0000
0000
,
0010
0000
0000
0000
,
1000
0000
0000
0000
,
0010
0000
0000
0000
,
1000
1000
1000
0000
,
1000
0000
0000
0000
,
0010
0010
0010
0000
,
0010
0000
0000
0000
,
1001
0000
0000
0000
,
0001
0000
0000
0000
,
1000
0000
0000
0000
,
0001
0000
0000
0000
,
0010
0010
0010
0000
,
0010
0000
0000
0000
,
0001
0001
0001
0000
,
0001
0000
0000
0000
,
1001
0000
0000
0000
,
0001
0000
0000
0000
,
1000
0000
0000
0000
,
0001
0000
0000
0000
,
1001
0000
0100
0000
,
0110
0000
0001
0000
,
1001
0000
0100
0000
,
1001
0000
0000
0000
;

//---------------dance-single - ----------------
#NOTES:
     dance-single:
     :
     Easy:
     4:
     0.298,0.356,0.138,0.000,0.000:
0000
0000
0000
0000
,
0000
0000
0000
0000
,
0000
0000
0000
0000
,
0000
0000
0000
0000
,
0010
0000
1001
0000
,
0100
0100
1001
0000
,
0001
0000
0001
0000
,
0001
0001
0001
0000
,
0010
0000
0010
0000
,
0100
0000
0100
0000
,
1000
0000
1001
0000
,
1000
0001
1000
0000
,
0001
0000
0001
0000
,
0001
1000
1001
0000
,
1000
0000
1000
0000
,
0001
0000
0001
0000
,
1000
0000
0001
0000
,
1000
1000
0001
0000
,
0001
0000
1001
0000
,
1000
0001
0100
0000
,
0001
0000
0001
0000
,
0001
1000
0100
0000
,
1000
0000
0001
0000
,
1000
0001
0100
0000
,
1000
0000
1000
0000
,
0001
1000
0100
0000
,
0010
1000
0100
0000
,
0100
1000
0010
0000
,
0010
1000
0100
0000
,
0100
1000
0010
0000
,
0001
0000
0001
0000
,
1000
0000
1000
0000
,
0001
0000
0001
0000
,
0100
0000
0100
0000
,
0010
0001
0100
0000
,
0100
0001
0010
0000
,
0010
0001
0100
0000
,
0100
0001
0010
0000
,
0010
0000
1000
0000
,
0010
0000
1000
0000
,
0100
0000
0001
0000
,
0100
0000
0001
0000
,
1000
0010
0001
0010
,
0100
0010
0100
0010
,
1000
0010
0001
0010
,
0100
0010
0100
0010
,
1000
0100
0001
0100
,
0010
0100
0010
0100
,
1000
0100
0001
0100
,
0010
0100
0010
0100
,
1000
0000
0001
0000
,
1000
0000
0001
0000
,
0010
0000
0100
0000
,
0010
1000
0100
0000
,
1001
0000
1000
0000
,
0001
0000
1001
0000
,
1000
0100
0001
0000
,
0001
0100
1000
0000
,
1000
0000
0001
0000
,
1000
0000
0001
0000
,
0010
0000
0100
0000
,
0010
1000
0100
0000
,
1001
0000
1000
0000
,
0001
0000
1001
0000
,
1000
0100
0001
0000
,
0001
0100
1000
0000
,
1000
0000
1001
0000
,
0001
0000
1001
0000
,
0010
0000
0100
0000
,
1001
0000
0000
0000
;

//---------------dance-single - ----------------
#NOTES:
     dance-single:
     :
     Medium:
     5:
     0.437,0.475,0.172,0.183,0.000:
0000
0000
0000
0000
,
0000
0000
0000
0000
,
0000
0000
0000
0000
,
0000
0000
0000
0000
,
0001
0000
0000
0000
,
1000
0000
0000
0000
,
0001
0000
1000
0000
,
0001
1000
0100
0000
,
1000
0000
0000
1000
0000
0000
0000
0000
,
0001
0000
0000
0001
0000
0000
0000
0000
,
0010
0001
1000
1001
,
0100
1000
0001
1001
,
0010
0001
0100
1000
,
0010
1000
0100
0100
,
0010
1000
0001
1001
,
0100
0001
1000
1001
,
0010
1000
0001
0010
,
0100
1000
0001
0000
,
0110
0001
0110
1000
,
0010
0100
0001
0010
,
1100
0010
1000
0100
,
0010
0001
1000
1000
,
0010
1000
0100
1000
,
0001
0101
1000
0100
,
0010
0110
0001
0010
,
0100
1000
0010
0000
,
0010
0000
0001
0000
0100
0000
0001
1000
,
0000
1000
0001
0000
0100
0000
0001
0000
,
0010
0000
0100
0000
1000
0000
0100
0010
,
0000
0010
0100
0000
1000
0000
0001
0000
,
2000
0000
0200
3300
,
0001
0100
1000
1000
,
0010
0000
1000
0000
0100
0000
0010
0100
,
0000
1000
0001
0000
0100
0000
0010
0000
,
0010
0000
1000
0000
0100
0000
1000
0001
,
0000
0001
1000
0000
0100
0000
1000
0000
,
0010
0000
0100
0000
0001
0000
0100
0010
,
0000
0010
0100
0000
0001
0000
1000
0000
,
0020
0000
0200
0330
,
0001
0001
1000
0001
,
0010
0000
0001
0000
1000
0000
0010
0100
,
0000
0001
1000
0000
0001
0000
0100
0000
,
2000
0000
3010
0000
,
0002
0000
0013
0000
,
2000
3000
0002
0003
,
0100
0001
1000
0100
,
2000
0000
3010
0000
,
0002
0000
0013
0000
,
0200
0300
0020
0030
,
0001
1000
0001
0100
,
0010
0000
1001
0000
0100
0000
0001
1000
,
0000
1000
0001
0000
0100
0000
1001
0000
,
0001
0000
0101
0000
1000
0000
1000
0100
,
0000
0001
0100
0000
1000
0000
0100
0000
,
0020
0030
0200
0300
,
0010
0100
0010
0100
,
0010
1000
0100
1000
,
1000
0100
0001
0100
,
1000
0000
1100
0000
0001
0000
0001
0100
,
0000
1000
0100
0000
0001
0000
0100
0000
,
0010
0000
1001
0000
0100
0000
1000
0001
,
0000
0001
1000
0000
0100
0000
1001
0000
,
2000
0000
0002
3003
,
1000
0100
0001
0100
,
0010
1000
0001
0010
,
0100
1000
0001
0100
,
1000
0100
0001
0100
,
1000
1000
0001
0001
,
1000
0100
0001
0010
,
1000
0000
0000
0000
;

//---------------dance-single - ----------------
#NOTES:
     dance-single:
     :
     Hard:
     8:
     0.632,0.633,0.344,0.332,0.000: // measure 1
0000
0000
0000
0000
,  // measure 2
0000
0000
0000
0000
,  // measure 3
0000
0000
0000
0000
,  // measure 4
0000
0000
0000
0000
,  // measure 5
1100
0000
0001
0000
1000
0010
0001
0010
,  // measure 6
0000
1000
0000
0100
0001
1000
0100
0000
,  // measure 7
0001
0000
1000
0000
0001
0100
0010
1000
,  // measure 8
0100
1000
0010
0100
0000
1000
0010
0000
,  // measure 9
1002
0100
0010
1003
,  // measure 10
2001
0010
0100
3001
,  // measure 11
1000
0000
0110
0000
0001
0010
0100
1000
,  // measure 12
0000
0010
0001
0000
0100
1000
0010
0001
,  // measure 13
1000
0000
0110
0000
0001
0010
0100
1000
,  // measure 14
0000
0010
0001
0000
0100
1000
0010
0001
,  // measure 15
1000
0000
0100
0000
0010
1000
0001
0010
,  // measure 16
0000
1000
0010
0000
0001
0100
1000
0010
,  // measure 17
1000
0000
0100
0000
0010
1000
0001
0010
,  // measure 18
0000
1000
0010
0001
0100
0000
1000
0000
,  // measure 19
0001
0000
0010
0000
1000
0010
0001
0010
,  // measure 20
0000
0001
0100
0000
1000
0100
0001
0100
,  // measure 21
1000
0000
0010
0000
0001
0010
1000
0010
,  // measure 22
0000
1000
0100
0000
0001
0100
1000
0100
,  // measure 23
0010
0000
0001
0000
0100
0001
0010
0001
,  // measure 24
0000
1000
0010
0000
0100
1000
0010
0100
,  // measure 25
0010
0000
0001
0000
0100
0001
0010
0001
,  // measure 26
0000
1000
0010
0100
1000
0000
0010
0000
,  // measure 27
0001
0000
0120
0000
2030
0000
3001
0010
,  // measure 28
0000
2000
0100
0000
3010
0000
0001
0000
,  // measure 29
1000
0000
0120
0000
0032
0000
1003
0010
,  // measure 30
0000
0002
0100
0000
0013
0000
1000
0000
,  // measure 31
0020
0000
0030
0010
0010
0000
0000
0000
,  // measure 32
0200
2300
3002
0103
,  // measure 33
0010
0000
2000
0000
0001
0000
3001
0100
,  // measure 34
0000
0200
1000
0300
0100
0000
0001
0000
,  // measure 35
1000
0000
0120
0000
0032
0000
1003
0010
,  // measure 36
0000
0002
0100
0000
0013
0000
1000
0000
,  // measure 37
0001
0000
0120
0000
2030
0000
3001
0010
,  // measure 38
0000
2000
0100
0000
3010
0000
0001
0000
,  // measure 39
0020
0000
0030
0010
0010
0000
0000
0000
,  // measure 40
0200
0302
2003
3100
,  // measure 41
0010
0000
0002
0000
1000
0000
1003
0100
,  // measure 42
0000
0200
0001
0300
0100
0000
1000
0000
,  // measure 43
1001
0000
1000
0100
0000
1000
0100
0000
,  // measure 44
0100
1000
0000
1000
0100
0000
1100
0000
,  // measure 45
1001
0000
0100
1000
0000
0100
1000
0000
,  // measure 46
0100
1000
0000
1000
0100
0000
1100
0000
,  // measure 47
1001
0000
0100
0001
0000
0001
0100
0000
,  // measure 48
0100
0001
0000
0001
0100
0000
0101
0000
,  // measure 49
1001
0000
0001
0100
0000
0001
0100
0000
,  // measure 50
0001
0100
0000
0001
0000
0100
0001
0000
,  // measure 51
1100
0000
0101
0000
1100
0000
0001
0100
,  // measure 52
0000
1000
0100
0000
0101
0000
1100
0000
,  // measure 53
0010
0000
0001
0000
0100
0000
0001
0010
,  // measure 54
0000
0001
0100
0000
0010
0000
0100
0000
,  // measure 55
1100
0101
1100
0101
,  // measure 56
0010
1000
0100
0001
,  // measure 57
0010
0000
1000
0000
0100
0000
0010
1000
,  // measure 58
0000
0100
1000
0000
0100
0000
0010
0000
,  // measure 59
0001
0000
0010
0000
1000
0001
0010
1000
,  // measure 60
0000
0001
0010
0000
1000
0010
0001
1000
,  // measure 61
0001
0000
0010
0000
1000
0001
0100
1000
,  // measure 62
0000
0001
0100
0000
1000
0100
0001
0000
,  // measure 63
1000
1001
0001
1001
,  // measure 64
2001
3002
2003
3001
,  // measure 65
0110
0000
0001
0000
1100
0000
0001
0100
,  // measure 66
0000
0010
1000
0000
0001
0000
0100
0000
,  // measure 67
1000
0000
1000
0100
0000
0001
0100
0100
,  // measure 68
0001
0000
0001
0100
0000
0100
1000
0100
,  // measure 69
1000
0000
0100
0001
0000
0100
0001
0100
,  // measure 70
1000
0000
0000
0000
;

//---------------dance-double - ----------------
#NOTES:
     dance-double:
     :
     Beginner:
     2:
     0.125,0.151,0.011,0.000,0.000: // measure 1
00000000
00000000
00000000
00000000
,  // measure 2
00000000
00000000
00000000
00000000
,  // measure 3
00000000
00000000
00000000
00000000
,  // measure 4
00000000
00000000
00000000
00000000
,  // measure 5
00100000
00000000
00000000
00000000
,  // measure 6
10000000
00000000
00000000
00011000
,  // measure 7
00000000
00000000
00000100
00000000
,  // measure 8
00000000
00010000
00000000
00000000
,  // measure 9
00100000
00000000
00000000
00000000
,  // measure 10
10000000
00000000
00000000
01000000
,  // measure 11
00000000
00000000
01000000
00000000
,  // measure 12
00000000
00001000
00000000
00000000
,  // measure 13
00000010
00000000
00000000
00000000
,  // measure 14
00000001
00000000
00000000
00000000
,  // measure 15
00001000
00000000
00000000
00000100
,  // measure 16
00000000
00000000
00001000
00000000
,  // measure 17
00000000
00000000
00010000
00000000
,  // measure 18
00000000
00000000
01000000
00000000
,  // measure 19
00000000
10000000
00000000
00000000
,  // measure 20
00010000
00000000
00000000
00000000
,  // measure 21
00010000
00000000
00000000
00000100
,  // measure 22
00000000
00000000
00000100
00000000
,  // measure 23
00000000
00000001
00000000
00000000
,  // measure 24
00001000
00000000
00000000
00000000
,  // measure 25
00001000
00000000
00000000
01000000
,  // measure 26
00000000
00000000
01000000
00000000
,  // measure 27
00000000
10000000
00000000
00000000
,  // measure 28
00010000
00000000
00000000
00000000
,  // measure 29
00001000
00000000
00000000
00010000
,  // measure 30
00000000
00000000
00001000
00000000
,  // measure 31
00000000
00000000
00000010
00000000
,  // measure 32
00000000
00000000
00000100
00000000
,  // measure 33
00000000
00000000
00010000
00000000
,  // measure 34
00000000
00010000
00000000
00000000
,  // measure 35
00001000
00000000
00000000
00000001
,  // measure 36
00000000
00000000
00001000
00000000
,  // measure 37
00000000
00001000
00000000
00000000
,  // measure 38
00010000
00000000
00000000
00000000
,  // measure 39
00100000
00000000
00000000
00000000
,  // measure 40
01000000
00000000
00000000
00000000
,  // measure 41
00010000
00000000
00000000
00000000
,  // measure 42
00010000
00000000
00000000
01000000
,  // measure 43
00000000
00000000
00100000
00000000
,  // measure 44
00000000
10000000
00000000
00000000
,  // measure 45
01000000
00000000
00000000
01000000
,  // measure 46
00000000
00000000
00010000
00000000
,  // measure 47
00000000
00000100
00000000
00000000
,  // measure 48
00000001
00000000
00000000
00000001
,  // measure 49
00000000
00000000
00000010
00000000
,  // measure 50
00000000
00000100
00000000
00000000
,  // measure 51
00001000
00000000
00000000
00010000
,  // measure 52
00000000
00000000
00001000
00000000
,  // measure 53
00000000
01000000
00000000
00000000
,  // measure 54
00100000
00000000
00000000
00000000
,  // measure 55
00001000
00000000
00000000
00000000
,  // measure 56
00000010
00000000
00000000
00000000
,  // measure 57
00000001
00000000
00000000
00000000
,  // measure 58
00000010
00000000
00000000
00000100
,  // measure 59
00000000
00000000
00010000
00000000
,  // measure 60
00000000
00001000
00000000
00000000
,  // measure 61
00000010
00000000
00000000
00000100
,  // measure 62
00000000
00000000
00000010
00000000
,  // measure 63
00000000
00000000
00001000
00000000
,  // measure 64
00000000
00000000
01000000
00000000
,  // measure 65
00000000
00000000
00010000
00000000
,  // measure 66
00000000
00100000
00000000
00000000
,  // measure 67
10000000
00000000
00000000
00000000
,  // measure 68
00010000
00000000
00000000
00000000
,  // measure 69
00000100
00000000
00000000
00000000
,  // measure 70
00000001
00000000
00000000
00000000
;

//---------------dance-double - ----------------
#NOTES:
     dance-double:
     :
     Easy:
     4:
     0.326,0.351,0.011,0.000,0.000:
00000000
00000000
00000000
00000000
,
00000000
00000000
00000000
00000000
,
00000000
00000000
00000000
00000000
,
00000000
00000000
00000000
00000000
,
00100000
00000000
00100000
00000000
,
10000000
01000000
00010000
00011000
,
00000010
00000000
00000100
00000000
,
00001000
00010000
00001000
00000000
,
00100000
00000000
00010000
00000000
,
10000000
01000000
10000000
01000000
,
00010000
00010000
01000000
01000000
,
00001000
00001000
00010000
00010000
,
00000010
00000000
00001000
00000000
,
00000001
00000000
00000100
00000000
,
00001000
00001000
00000100
00000100
,
00010000
00010000
00001000
00001000
,
00100000
00000000
00010000
00000000
,
10000000
00000000
01000000
00000000
,
00100000
10000000
01000000
01000000
,
00010000
00000000
00001000
00000000
,
00010000
00000010
00000100
00000100
,
00000001
00000000
00000100
00000000
,
00000010
00000001
00000100
00000100
,
00001000
00000000
00010000
00000000
,
00001000
00100000
01000000
01000000
,
10000000
00000000
01000000
00000000
,
00010000
10000000
00010000
10000000
,
00010000
10000000
00010000
00000000
,
00001000
00010000
00001000
00010000
,
00001000
00010000
00001000
00000000
,
00000010
00000010
00000100
00000100
,
00001000
00000000
00010000
00000000
,
00001000
00010000
00000100
00000000
,
00001000
00000001
00001000
00000001
,
00001000
00000001
00001000
00000000
,
00010000
00001000
00010000
00001000
,
00010000
00001000
00010000
00000000
,
00100000
00000000
00100000
00000000
,
01000000
00000000
01000000
00000000
,
00010000
00000000
00001000
00000000
,
00010000
00001000
01000000
01000000
,
00100000
00100000
00100000
00100000
,
10000000
10000000
10000000
10000000
,
01000000
01000000
01000000
01000000
,
00010000
00001000
00010000
00001000
,
00000100
00000100
00000100
00000100
,
00000001
00000001
00000001
00000001
,
00000010
00000010
00000010
00000010
,
00000100
00000100
00010000
00000000
,
00001000
00010000
00001000
00010000
,
00001000
00010000
00001000
00000000
,
00100000
01000000
00100000
01000000
,
00100000
01000000
00100000
00000000
,
00001000
00000000
00010000
00000000
,
00000010
00000000
00000100
00000000
,
00000001
00000000
00001000
00000000
,
00000010
00000010
00000100
00000100
,
00010000
00001000
00010000
00001000
,
00010000
00001000
00010000
00000000
,
00000010
00000100
00000010
00000100
,
00000010
00000100
00000010
00000000
,
00010000
00000000
00001000
00000000
,
00100000
00000000
01000000
00000000
,
10000000
00000000
00010000
00000000
,
00100000
00100000
01000000
01000000
,
10000000
00000000
01000000
00000000
,
00010000
00000000
00001000
00000000
,
00000100
00000000
00000001
00000000
,
00000001
00000000
00000000
00000000
;

//---------------dance-double - ----------------
#NOTES:
     dance-double:
     :
     Medium:
     6:
     0.403,0.475,0.138,0.310,0.000:
00000000
00000000
00000000
00000000
,
00000000
00000000
00000000
00000000
,
00000000
00000000
00000000
00000000
,
00000000
00000000
00000000
00000000
,
10000000
00000000
01000000
00000000
00100000
00010000
01000000
00001000
,
00000000
00001000
00000000
00001000
00010000
00001000
00010000
00000000
,
00000010
00000000
00001000
00000000
00000100
00000010
00000001
00000000
,
00000100
00000010
00000000
00001001
00000000
00000000
00000000
00000000
,
00000200
00000000
00000000
00000300
,
00010000
00010000
00010000
00010000
,
00001000
00000000
00100000
00000000
00010000
00000000
00000000
10000000
,
00000000
10000000
01000000
00000000
00100000
00000000
00000000
00000000
,
00001000
00000000
00010000
00000000
00000100
00000000
00000000
00000010
,
00000000
00000010
00000001
00000000
00000100
00000000
00000000
00000000
,
00001000
00000000
00010000
00000000
01000000
00000000
00000000
10000000
,
00000000
10000000
00100000
00000000
01000000
00000000
00000000
00000000
,
00001000
00010000
00000010
00000000
,
00000100
00000001
00000010
00000100
,
00002000
00000000
00003001
00000000
00000000
00000000
00000100
00001000
,
00000000
00010000
00001000
00000000
01000000
00000000
00000000
00000000
,
00200000
00000000
10300000
00000000
00000000
00000000
01000000
00100000
,
00000000
00001000
00010000
00000000
00000100
00000000
00000000
00000000
,
00000020
00000000
00000031
00000000
00000000
00000000
00001000
00000010
,
00000000
00000100
00001000
00000000
00010000
00000000
00000000
00000000
,
02000000
13000000
00000000
00010000
,
01000000
00100000
10000000
00000000
,
01000000
00010000
00001000
00000000
,
00000100
00001001
00001001
00000000
,
00000100
00010000
00001000
00000000
,
00100000
10010000
10010000
00000000
,
02000000
03000000
00200000
00000000
,
00300000
10000000
00100000
00010000
,
00001000
00000010
00000001
00000001
,
00001000
00000100
00000010
00000010
,
00000001
00000100
00001000
00000000
,
00010000
00110000
00110000
00000000
,
10000000
00100000
00010000
00000000
,
00001000
00001100
00001100
00000000
,
00000020
00000030
00000020
00000000
,
00000030
00000001
00000100
00000010
,
00010000
00001000
00100000
01000000
,
10000000
00100000
01000000
00010000
,
20000000
00000000
00000000
30000000
,
02000000
00000000
00000000
03000000
,
00020000
00000000
00000000
00030000
,
00002000
00000000
00003000
00000200
00000000
00000300
00000001
00000000
,
00000020
00000000
00000000
00000030
,
00000200
00000000
00000000
00000300
,
00020000
00000000
00000000
00030000
,
00001000
00000010
00010000
00100000
,
10000000
00000000
01000000
00000000
00100000
00000000
00000000
00010000
,
00000000
00010000
01000000
00000000
00001000
00000000
00000000
00000000
,
00010000
00000000
00001000
00000000
00000010
00000000
00000000
00000001
,
00000000
00000001
00000100
00000000
00000010
00000000
00000000
00000000
,
00002000
00003000
00000002
00000003
,
00000010
00000100
00001000
00000001
,
00000100
00001000
00010000
01000000
,
10000000
10000000
00010000
01000000
,
00100000
00000000
10000000
00000000
01000000
00000000
00000000
00010000
,
00000000
00010000
00001000
00000000
00011000
00000000
00000000
00000000
,
00000010
00000000
00000100
00000000
00000001
00000000
00000000
00000010
,
00000000
00000010
00000100
00000000
00001001
00000000
00000000
00000000
,
00000200
00000300
00002000
00003000
,
00010000
01000000
10000000
00010000
,
01000000
00000000
00100000
00000000
10000000
00000000
01000000
00010000
,
00000000
00010000
00001000
00000000
00000100
00000000
00000001
00000000
,
00002000
00000000
00003000
00002000
00000000
00003000
00000000
00000000
,
00000200
00000000
00000300
00000200
00000000
00000300
00000000
00000000
,
00020000
00000000
00030000
00002000
00000000
00003000
00100000
00000000
,
10010000
00000000
00000000
00000000
;

//---------------dance-double - ----------------
#NOTES:
     dance-double:
     :
     Hard:
     9:
     0.645,0.712,0.676,0.115,0.000:
00000000
00000000
00000000
00000000
,
00000000
00000000
00000000
00000000
,
00000000
00000000
00000000
00000000
,
00000000
00000000
00000000
00000000
,
00000110
00000000
00001001
00000000
00000001
00000100
00001000
00000100
,
00000000
00000001
00000000
00000010
00000100
00010000
00001000
01000000
,
00010000
00000000
10000000
00000000
00010000
01000000
00010000
01000000
,
10000000
01000000
10000000
01000000
00000000
00010000
00001000
00000000
,
00010010
00001000
00000100
00000001
,
00000100
00001000
00010000
01000000
,
01100000
00000000
00010000
00000000
00001000
00000100
00000001
00000100
,
00000000
00001000
00010000
00000000
00000100
00010000
00001000
01000000
,
00010000
00000000
00100000
00000000
10000000
01000000
00010000
01000000
,
00000000
01000000
10000000
00000000
00100000
01000000
00001000
00010000
,
00001000
00000000
00000110
00000000
00000001
00000000
00001000
00000100
,
00000000
00000001
00000100
00000000
00001000
00000000
00010000
00000000
,
01100000
00000000
10000000
00000000
01100000
00000000
00010000
01000000
,
00000000
10000000
01000000
00010000
01000000
00000000
00000000
00000000
,
01100000
00000000
00010000
00000000
00001000
00000100
00000001
00000100
,
00000000
00001000
00010000
00000000
00000100
00010000
00001000
01000000
,
00010000
00000000
00100000
00000000
10000000
01000000
00010000
01000000
,
00000000
01000000
10000000
00000000
00100000
01000000
00001000
00010000
,
00001000
00000000
00000110
00000000
00001001
00000000
00000010
00000001
,
00000000
00000001
00000100
00000000
00001000
00000000
00010000
00000000
,
01000000
00000000
01100000
00000000
10010000
00000000
00100000
10000000
,
00000000
10000000
01000000
00000000
00010000
00000000
00001000
00000000
,
00000010
00000000
00001000
00000000
00010000
00001000
00020000
00000000
,
00130000
00000000
00010000
00000000
00001000
00010000
00002000
00000000
,
00003100
00000000
00001000
00000000
00010000
00001000
00020000
00000000
,
01030000
00000000
00010000
00000000
00001000
00010000
00002000
00000000
,
00003100
00000000
00000000
00000100
00000010
00000000
00000000
00000000
,
00001001
00000100
00001000
00010000
,
01000000
00000000
00010000
00000000
00001000
00000000
00010000
00001000
,
00000000
00000100
00000001
00000000
00001100
00000000
00001001
00000000
,
00000010
00000100
00002002
00003003
,
00000100
00001000
00020000
01030000
,
00100000
01000000
20020000
30030000
,
01000000
00010000
00002000
00003100
,
00000001
00000000
00000000
00000100
00001000
00000000
00000000
00000000
,
00010000
01000000
01100000
00010000
,
00001000
00000000
00000100
00000000
00000110
00000000
00001000
00000100
,
00000000
00001000
00010000
00000000
01100000
00000000
10000000
00000000
,
01100000
10010000
11000000
01010000
,
10010000
00011000
00001001
00011000
,
00010100
00011000
00101000
00011000
,
00011000
10010000
00011000
00001001
,
00000110
00001001
00000101
00001100
,
00001001
00011000
10010000
00011000
,
01001000
01010000
01001000
00011000
,
00010100
00001100
00010100
00011000
,
00001001
00000000
00000100
00000000
00000001
00000010
00000100
00001000
,
00000000
00000010
00000100
00000000
00000001
00000010
00000100
00001000
,
00001001
00000000
00000100
00000000
00001000
00010000
00001000
00000100
,
00000000
00000100
00000010
00000000
00000100
00000001
00000100
00001000
,
00010000
01000000
10000000
01000000
,
00100000
00010000
01000000
00000000
00100000
10000000
01000000
00000000
,
00100000
00010000
00100000
01000000
00100000
00010000
10000000
01000000
,
10000000
01000000
00100000
01000000
00100000
00010000
01000000
00000000
,
10010000
00000000
01000000
00000000
10000000
00100000
01000000
00010000
,
00000000
00100000
01000000
00000000
10000000
00100000
01000000
00010000
,
10010000
00000000
01000000
00000000
00010000
00001000
00010000
01000000
,
00000000
01000000
00100000
00000000
01000000
10000000
01000000
00010000
,
00001000
00000100
00000001
00000100
,
00000010
00001000
00000100
00000000
00000010
00000001
00000010
00000000
,
00000010
00001000
00000010
00000100
00000010
00001000
00000001
00000100
,
00000001
00000100
00000010
00000100
00000010
00001000
00000100
00000000
,
00000001
00000110
00001000
00010000
,
01100000
10000000
01100000
00010000
,
10000000
01000000
00010000
00001000
,
00000100
00000000
00000000
00000000
;

//---------------dance-solo - ----------------
#NOTES:
     dance-solo:
     :
     Easy:
     4:
     0.298,0.356,0.138,0.000,0.000:
000000
000000
000000
000000
,
000000
000000
000000
000000
,
000000
000000
000000
000000
,
000000
000000
000000
000000
,
000100
000000
100001
000000
,
001000
001000
100001
000000
,
000001
000000
000001
000000
,
000001
000001
000001
000000
,
000100
000000
000100
000000
,
001000
000000
001000
000000
,
100000
000000
100001
000000
,
100000
000001
100000
000000
,
000001
000000
000001
000000
,
000001
100000
100001
000000
,
100000
000000
100000
000000
,
000001
000000
000001
000000
,
100000
000000
000001
000000
,
100000
100000
000001
000000
,
000001
000000
100001
000000
,
100000
000001
001000
000000
,
000001
000000
000001
000000
,
000001
100000
001000
000000
,
100000
000000
000001
000000
,
100000
000001
001000
000000
,
100000
000000
100000
000000
,
000001
100000
001000
000000
,
000100
100000
001000
000000
,
001000
100000
000100
000000
,
000100
100000
001000
000000
,
001000
100000
000100
000000
,
000001
000000
000001
000000
,
100000
000000
100000
000000
,
000001
000000
000001
000000
,
001000
000000
001000
000000
,
000100
000001
001000
000000
,
001000
000001
000100
000000
,
000100
000001
001000
000000
,
001000
000001
000100
000000
,
000100
000000
100000
000000
,
000100
000000
100000
000000
,
001000
000000
000001
000000
,
001000
000000
000001
000000
,
100000
000100
000001
000100
,
001000
000100
001000
000100
,
100000
000100
000001
000100
,
001000
000100
001000
000100
,
100000
001000
000001
001000
,
000100
001000
000100
001000
,
100000
001000
000001
001000
,
000100
001000
000100
001000
,
100000
000000
000001
000000
,
100000
000000
000001
000000
,
000100
000000
001000
000000
,
000100
100000
001000
000000
,
100001
000000
100000
000000
,
000001
000000
100001
000000
,
100000
001000
000001
000000
,
000001
001000
100000
000000
,
100000
000000
000001
000000
,
100000
000000
000001
000000
,
000100
000000
001000
000000
,
000100
100000
001000
000000
,
100001
000000
100000
000000
,
000001
000000
100001
000000
,
100000
001000
000001
000000
,
000001
001000
100000
000000
,
100000
000000
100001
000000
,
000001
000000
100001
000000
,
000100
000000
001000
000000
,
100001
000000
000000
000000
;

//---------------dance-solo - ----------------
#NOTES:
     dance-solo:
     :
     Medium:
     5:
     0.411,0.475,0.172,0.000,0.000:
000000
000000
000000
000000
,
000000
000000
000000
000000
,
000000
000000
000000
000000
,
000000
000000
000000
000000
,
000001
000000
000000
000000
,
100000
000000
000000
000000
,
000001
000000
100000
000000
,
000001
100000
001000
000000
,
100000
000000
000000
100000
000000
000000
000000
000000
,
000001
000000
000000
000001
000000
000000
000000
000000
,
000100
000001
100000
100001
,
001000
100000
000001
100001
,
000100
000001
001000
100000
,
000100
100000
001000
001000
,
000100
100000
000001
100001
,
001000
000001
100000
100001
,
000100
100000
000001
000100
,
001000
100000
000001
000000
,
001100
000001
001100
100000
,
000100
001000
000001
000100
,
101000
000100
100000
001000
,
000100
000001
100000
100000
,
000100
100000
001000
100000
,
000001
001001
100000
001000
,
000100
001100
000001
000100
,
001000
100000
000100
000000
,
000100
000000
000001
000000
001000
000000
000001
100000
,
000000
100000
000001
000000
001000
000000
000001
000000
,
000100
000000
001000
000000
100000
000000
001000
000100
,
000000
000100
001000
000000
100000
000000
000001
000000
,
100000
000000
001000
000000
,
000001
001000
100000
100000
,
000100
000000
100000
000000
001000
000000
000100
001000
,
000000
100000
000001
000000
001000
000000
000100
000000
,
000100
000000
100000
000000
001000
000000
100000
000001
,
000000
000001
100000
000000
001000
000000
100000
000000
,
000100
000000
001000
000000
000001
000000
001000
000100
,
000000
000100
001000
000000
000001
000000
100000
000000
,
000100
000000
001000
000000
,
000001
000001
100000
000001
,
000100
000000
000001
000000
100000
000000
000100
001000
,
000000
000001
100000
000000
000001
000000
001000
000000
,
100000
000000
000100
000000
,
000001
000000
000100
000000
,
100000
000000
000001
000000
,
001000
000001
100000
001000
,
100000
000000
000100
000000
,
000001
000000
000100
000000
,
001000
000000
000100
000000
,
000001
100000
000001
001000
,
000100
000000
100001
000000
001000
000000
000001
100000
,
000000
100000
000001
000000
001000
000000
100001
000000
,
000001
000000
001001
000000
100000
000000
100000
001000
,
000000
000001
001000
000000
100000
000000
001000
000000
,
000100
000000
001000
000000
,
000100
001000
000100
001000
,
000100
100000
001000
100000
,
100000
001000
000001
001000
,
100000
000000
101000
000000
000001
000000
000001
001000
,
000000
100000
001000
000000
000001
000000
001000
000000
,
000100
000000
100001
000000
001000
000000
100000
000001
,
000000
000001
100000
000000
001000
000000
100001
000000
,
100000
000000
000001
000000
,
100000
001000
000001
001000
,
000100
100000
000001
000100
,
001000
100000
000001
001000
,
100000
001000
000001
001000
,
100000
100000
000001
000001
,
100000
001000
000001
000100
,
100000
000000
000000
000000
;

//---------------dance-solo - ----------------
#NOTES:
     dance-solo:
     :
     Hard:
     8:
     0.585,0.593,0.344,0.000,0.000:
000000
000000
000000
000000
,
000000
000000
000000
000000
,
000000
000000
000000
000000
,
000000
000000
000000
000000
,
101000
000000
000001
000000
100000
000100
000001
000100
,
000000
100000
000000
001000
000001
100000
001000
000000
,
000001
000000
100000
000000
000001
001000
000100
100000
,
001000
100000
000100
001000
000000
100000
000100
000000
,
100001
001000
000100
100000
,
100001
000100
001000
000001
,
100000
000000
001100
000000
000001
000100
001000
100000
,
000000
000100
000001
000000
001000
100000
000100
000001
,
100000
000000
001100
000000
000001
000100
001000
100000
,
000000
000100
000001
000000
001000
100000
000100
000001
,
100000
000000
001000
000000
000100
100000
000001
000100
,
000000
100000
000100
000000
000001
001000
100000
000100
,
100000
000000
001000
000000
000100
100000
000001
000100
,
000000
100000
000100
000001
001000
000000
100000
000000
,
000001
000000
000100
000000
100000
000100
000001
000100
,
000000
000001
001000
000000
100000
001000
000001
001000
,
100000
000000
000100
000000
000001
000100
100000
000100
,
000000
100000
001000
000000
000001
001000
100000
001000
,
000100
000000
000001
000000
001000
000001
000100
000001
,
000000
100000
000100
000000
001000
100000
000100
001000
,
000100
000000
000001
000000
001000
000001
000100
000001
,
000000
100000
000100
001000
100000
000000
000100
000000
,
000001
000000
001100
000000
100000
000000
000001
000100
,
000000
100000
001000
000000
000100
000000
000001
000000
,
100000
000000
001100
000000
000001
000000
100000
000100
,
000000
000001
001000
000000
000100
000000
100000
000000
,
000100
000000
000000
000100
000100
000000
000000
000000
,
001000
100000
000001
001000
,
000100
000000
100000
000000
000001
000000
000001
001000
,
000000
001000
100000
000000
001000
000000
000001
000000
,
100000
000000
001100
000000
000001
000000
100000
000100
,
000000
000001
001000
000000
000100
000000
100000
000000
,
000001
000000
001100
000000
100000
000000
000001
000100
,
000000
100000
001000
000000
000100
000000
000001
000000
,
000100
000000
000000
000100
000100
000000
000000
000000
,
001000
000001
100000
001000
,
000100
000000
000001
000000
100000
000000
100000
001000
,
000000
001000
000001
000000
001000
000000
100000
000000
,
100001
000000
100000
001000
000000
100000
001000
000000
,
001000
100000
000000
100000
001000
000000
101000
000000
,
100001
000000
001000
100000
000000
001000
100000
000000
,
001000
100000
000000
100000
001000
000000
101000
000000
,
100001
000000
001000
000001
000000
000001
001000
000000
,
001000
000001
000000
000001
001000
000000
001001
000000
,
100001
000000
000001
001000
000000
000001
001000
000000
,
000001
001000
000000
000001
000000
001000
000001
000000
,
101000
000000
001001
000000
101000
000000
000001
001000
,
000000
100000
001000
000000
001001
000000
101000
000000
,
000100
000000
000001
000000
001000
000000
000001
000100
,
000000
000001
001000
000000
000100
000000
001000
000000
,
101000
001001
101000
001001
,
000100
100000
001000
000001
,
000100
000000
100000
000000
001000
000000
000100
100000
,
000000
001000
100000
000000
001000
000000
000100
000000
,
000001
000000
000100
000000
100000
000001
000100
100000
,
000000
000001
000100
000000
100000
000100
000001
100000
,
000001
000000
000100
000000
100000
000001
001000
100000
,
000000
000001
001000
000000
100000
001000
000001
000000
,
100000
100001
000001
100001
,
100001
000001
100000
000001
,
001100
000000
000001
000000
101000
000000
000001
001000
,
000000
000100
100000
000000
000001
000000
001000
000000
,
100000
000000
100000
001000
000000
000001
001000
001000
,
000001
000000
000001
001000
000000
001000
100000
001000
,
100000
000000
001000
000001
000000
001000
000001
001000
,
100000
000000
000000
000000
;

//---------------dance-single - [UNIVR-SC]----------------
#NOTES:
     dance-single:
     [UNIVR-SC]:
     Challenge:
     9:
     0.819,0.870,1.000,0.688,0.000:
0000
0000
0000
0000
,
0000
0000
0000
0000
,
0000
0000
0000
0000
,
0000
0000
0000
0000
,
1010
0000
0101
0000
0010
0100
0002
1000
,
0000
1000
0000
0103
0001
0010
0100
2000
,
0001
0000
0001
0000
3100
1000
0010
0100
,
0001
0020
0100
0130
0000
1000
1001
0000
,
1000
0010
0010
1000
0010
0010
1000
0100
,
0010
0001
0001
0010
0001
0001
0010
0100
,
1000
0001
0100
0000
0010
0001
0100
0020
,
0000
1030
0010
0000
0100
0001
0010
0001
,
1000
0100
1000
0000
0010
1000
0100
0020
,
0000
0031
0010
0000
0100
1000
0010
1000
,
0001
0100
0010
0000
1000
0001
0100
0020
,
0000
1030
0010
0000
0100
0001
1000
0100
,
0010
0001
1000
0000
0001
0010
0100
2000
,
0000
3010
1000
0001
0010
0100
1000
0001
,
0100
0000
0101
0000
1000
0100
0001
0020
,
0000
1030
0020
0000
0031
0100
0010
1000
,
0001
0000
0011
0000
1000
0010
0001
0200
,
0000
1300
0200
0000
0301
0010
0100
1000
,
0010
0000
1010
0000
0001
0010
1000
0200
,
0300
0001
0200
0000
1300
0010
0100
0001
,
0010
0000
1001
0000
0100
1000
0010
0001
,
0010
1000
0100
0200
0000
0010
0310
0000
,
0011
0000
0110
0000
1100
0000
0001
0020
,
0000
2030
0100
0000
3001
0000
1001
0000
,
1010
0000
0110
0000
0101
0000
2000
0010
,
0000
3002
0100
0000
0013
0000
1100
0000
,
2002
0000
3000
1000
2003
0000
3002
0000
,
1003
1010
0110
0101
,
0011
0000
1100
0000
0011
0000
1000
0200
,
0000
0310
0002
0000
1003
0000
0101
0000
,
1010
0000
0110
0000
0101
0000
2000
0010
,
0000
3002
0100
0000
1003
0000
1100
0000
,
0011
0000
0110
0000
1100
0000
0002
0010
,
0000
2003
0100
0000
3010
0000
1100
0000
,
0220
0000
0300
0100
0230
0000
0320
0000
,
0031
0101
0110
1010
,
1100
0000
0011
0000
1100
0000
0001
0020
,
0000
0130
2000
0000
3001
0000
0101
0000
,
0010
0000
2100
0001
3000
0000
2020
0000
,
3030
0000
0102
1000
0003
0000
0022
0000
,
0033
0000
2001
0100
3000
0000
0220
0000
,
0330
0000
0110
0001
0000
1000
0110
0000
,
1001
0000
0100
0001
1001
0000
0001
0100
,
1001
0000
0100
1000
1001
0000
1000
0100
,
2001
0000
3010
0120
0000
0130
0102
0000
,
0013
0011
0001
1000
0100
0010
0001
1000
,
1100
0000
0101
0000
1100
0000
0001
0100
,
1000
0100
0001
1000
0200
0000
0310
0000
,
0011
0000
1010
0000
0011
0000
0001
0010
,
1000
0010
0001
1000
0020
0000
0130
0000
,
0202
0000
0300
0100
0103
0000
0110
0000
,
1010
1100
0110
0011
,
0101
0000
1010
0000
0101
0000
0010
2000
,
0000
3001
0200
0000
0310
0000
1010
0000
,
0011
0000
1001
0000
1100
0001
0010
0200
,
0000
1300
0002
0000
0013
0000
0011
0000
,
1010
0000
1001
0000
0101
1000
0010
0200
,
0000
0301
2000
0000
3010
0000
0101
0000
,
2200
0000
0300
0100
3100
0000
0011
0000
,
1001
1100
0110
0011
,
0101
0000
1010
0000
0101
0000
2000
0010
,
0000
3002
0100
0000
1000
0000
0013
0000
,
1000
0100
0100
1000
0100
0100
1000
0010
,
0100
0001
0001
0100
0001
0001
0100
0010
,
1000
0100
0010
0001
0100
0010
1000
0001
,
1001
0000
0000
0000
;

//---------------dance-double - [UNIVR-DC]----------------
#NOTES:
     dance-double:
     [UNIVR-DC]:
     Challenge:
     9:
     0.804,0.752,0.917,0.642,0.011:
00000000
00000000
00000000
00000000
,
00000000
00000000
00000000
00000000
,
00000000
00000000
00000000
00000000
,
00000000
00000000
00000000
00000000
,
10100000
00000000
10100000
00000000
00100000
00010000
00002000
00000100
,
00000000
00000100
00000000
00003100
00001000
00010000
01000000
00020000
,
00001000
00000000
00001000
00000000
00031000
00000010
00001000
00010000
,
00100000
00010000
00001000
00002000
00000000
00003000
00011000
00000000
,
00001000
00000100
00000100
00000010
00000100
00000100
00001000
00000000
,
00010000
01000000
01000000
10000000
01000000
01000000
00010000
00001000
,
00000100
00000010
00000100
00000000
00000010
00001000
00000100
00020000
,
00000000
00030100
00001000
00000000
00000010
00010000
00001000
01000000
,
00100000
10000000
00100000
00000000
01000000
00010000
00100000
00002000
,
00000000
00103000
00010000
00000000
01000000
00001000
00010000
00000100
,
00001000
00000010
00001000
00000000
00000010
00000001
00000010
00002000
,
00000000
00003100
00010000
00000000
00001000
00100000
01000000
10000000
,
00010000
01000000
00010000
00000000
01000000
10000000
01000000
00020000
,
00000000
00130000
01000000
10000000
00010000
00100000
00001000
00010000
,
00002100
00000000
00003020
00000000
00000031
00000010
00000100
00002000
,
00000000
00003100
00000002
00000000
00000103
00001000
00010000
00100000
,
01020000
00000000
00230000
00000000
10300000
00100000
01000000
00020000
,
00000000
01030000
20000000
00000000
31000000
00010000
00001000
00000010
,
00000012
00000000
00000103
00000000
00001000
00000100
00000010
00000002
,
00000000
00000013
00002000
00000000
00013000
01000000
10000000
01000000
,
01020000
00000000
00130000
00000000
01000000
10000000
00100000
00010000
,
00001000
00000000
00011000
00022000
00000000
00000000
00033000
00000000
,
00001010
00000000
00000110
00000000
00000101
00000000
00000200
00001000
,
00000300
00000100
00000002
00000000
00000013
00000000
00001100
00000000
,
00001010
00000000
00011000
00000000
01010000
00000000
02000000
10000000
,
03000000
01000000
00020000
00000000
10030000
00000000
11000000
00000000
,
20020000
00000000
30000000
00100000
00130000
00000000
01100000
00000000
,
00110000
00101000
00011000
00010010
,
00001010
00000000
00000101
00000000
00001010
00000000
00000002
00000100
,
00000003
00000100
00002000
00000000
00023000
00000000
01030000
00000000
,
00110000
00000000
01100000
00000000
11000000
00000000
02000000
00010000
,
03000000
01000000
20000000
00000000
30100000
00000000
01010000
00000000
,
00110000
00000000
00011000
00000000
00001100
00000000
00000200
00000001
,
00000300
00000100
00002000
00000000
00003001
00000000
00000101
00000000
,
00002002
00000000
00000003
00000010
00003010
00000000
00000110
00000000
,
00001010
00010010
00011000
00101000
,
00110000
00000000
11000000
00000000
00110000
00000000
20000000
01000000
,
30000000
01000000
00020000
00000000
00032000
00000000
00003010
00000000
,
00000011
00000000
00000001
00000010
00000000
00000010
00000001
00000000
,
00001000
00000100
00000000
00000100
00001000
00000000
00011000
00000000
,
01010000
00000000
00010000
01000000
00000000
01000000
00010000
00000000
,
10000000
00000000
00100000
00000000
00000000
00000000
00100000
00000000
10000000
00000000
00000000
00000000
00010000
10000000
00010000
10000000
,
01000000
00000000
00010000
00001000
00000100
00000000
00001000
00010000
,
01000000
00000000
00010000
00001000
00000100
00000000
00001000
00010000
,
00200000
00000000
00310000
00002000
00000000
00003010
00000002
00000000
,
00000103
00000001
00000010
00001000
00010000
00100000
10000000
01000000
,
10010000
00000000
01010000
00000000
00110000
00000000
01000000
00010000
,
00100000
00001000
00010000
00000010
00000200
00000000
00000301
00000000
,
00001001
00000000
00001010
00000000
00001100
00000000
00000010
00001000
,
00000100
00010000
00001000
00100000
02000000
00000000
13000000
00000000
,
02020000
00000000
03000000
01000000
01030000
00000000
10010000
00000000
,
11000000
01010000
00011000
00001010
,
00000011
00000000
00001100
00000000
00000011
00000000
00000100
00020000
,
00000000
00030010
00002000
00000000
00003001
00000000
00001100
00000000
,
00000011
00000000
00000110
00000000
00001100
00000001
00000010
00002000
,
00000000
00013000
02000000
00000000
13000000
00000000
01010000
00000000
,
10100000
00000000
01100000
00000000
01010000
10000000
00100000
00020000
,
00000000
00031000
00000200
00000000
00000301
00000000
00001100
00000000
,
00002002
00000000
00003000
00000100
00000103
00000000
00001001
00000000
,
00000011
00001010
00011000
01010000
,
11000000
00000000
00110000
00000000
11000000
00000000
00100000
00002000
,
00000000
01003000
00020000
00000000
10000000
00000000
00130000
00000000
,
10000000
01000000
01000000
00010000
01000000
01000000
00100000
00001000
,
00010000
00000100
00000100
00000001
00000100
00000100
00001000
00000010
,
00000100
00000001
00000010
00001000
00010000
00100000
10000000
01000000
,
10010000
00000000
00000000
00000000
;
