#TITLE:rainbow flyer;
#SUBTITLE:;
#ARTIST:dj TAKA;
#TITLETRANSLIT:;
#SUBTITLETRANSLIT:;
#ARTISTTRANSLIT:;
#GENRE:;
#CREDIT:;
#BANNER:rainbow flyer.png;
#BACKGROUND:rainbow flyer-bg.png;
#LYRICSPATH:;
#CDTITLE:;
#MUSIC:rainbow flyer.ogg;
#OFFSET:0.000000;
#SAMPLESTART:32.450001;
#SAMPLELENGTH:15.000000;
#SELECTABLE:YES;
#DISPLAYBPM:148.000000;
#BPMS:0.000000=148.147995
,8.000000=147.996002
;
#STOPS:
;
#BGCHANGES:;
#KEYSOUNDS:;
#ATTACKS:;

//---------------dance-single - ----------------
#NOTES:
     dance-single:
     :
     Beginner:
     1:
     0.120957,0.206153,0.018407,0.000000,0.000000,92.000000,90.000000,2.000000,0.000000,0.000000,0.000000,0.120957,0.206153,0.018407,0.000000,0.000000,92.000000,90.000000,2.000000,0.000000,0.000000,0.000000:
0000
0000
0000
0000
,
0000
0000
0000
0000
,
0000
0000
0000
0000
,
0000
0000
0000
0000
,
0010
0000
0000
0000
,
0001
0000
0000
0000
,
1000
0000
0000
0000
,
0001
0000
0001
0000
,
1000
0000
0000
0000
,
0010
0000
0000
0000
,
0100
0000
0000
0000
,
0010
0000
0010
0000
,
1000
0000
0000
0000
,
0001
0000
0000
0000
,
0100
0000
0000
0000
,
0010
0000
0010
0000
,
1000
0000
0000
0000
,
0000
0000
0000
0000
,
0001
0000
0001
0000
,
0001
0001
0001
0000
,
1000
0000
1000
0000
,
0100
0000
0100
0000
,
0010
0000
0010
0000
,
0001
0000
0001
0000
,
1000
0000
1000
0000
,
0001
0000
0001
0000
,
0100
0000
0100
0000
,
0100
0000
0000
0000
,
0010
0000
0010
0000
,
1000
0000
1000
0000
,
0001
0000
0001
0000
,
0010
0000
0010
0000
,
0001
0000
0001
0000
,
1000
0000
1000
0000
,
0100
0000
0100
0000
,
1000
1000
1000
0000
,
1001
0000
0000
0000
,
0000
0000
0000
0000
,
0000
0000
0000
0000
,
0000
0000
0000
0000
,
0100
0000
0000
0000
,
0010
0000
0000
0000
,
0100
0000
0000
0000
,
0010
0000
0000
0000
,
1000
0000
0000
0000
,
0001
0000
0000
0000
,
1000
0000
0000
0000
,
0001
0000
0000
0000
,
0100
0000
0100
0000
,
0100
0000
0000
0000
,
0010
0000
0010
0000
,
0010
0000
0000
0000
,
1000
0000
1000
0000
,
0001
0000
0000
0000
,
0001
0000
0001
0000
,
1000
0000
0000
0000
,
0010
0000
0010
0000
,
0100
0000
0100
0000
,
0001
0000
0001
0000
,
0001
0000
0001
0000
,
0100
0000
0100
0000
,
0010
0000
0010
0000
,
1000
0000
1000
0000
,
1000
0000
0000
0000
,
1001
0000
0000
0000
,
0000
0000
0000
0000
;

//---------------dance-single - ----------------
#NOTES:
     dance-single:
     :
     Easy:
     3:
     0.188010,0.294505,0.147252,0.193269,0.000000,143.000000,127.000000,16.000000,21.000000,0.000000,0.000000,0.188010,0.294505,0.147252,0.193269,0.000000,143.000000,127.000000,16.000000,21.000000,0.000000,0.000000:
0000
0000
0000
0000
,
0000
0000
0000
0000
,
0000
0000
0000
0000
,
0000
0000
0000
0000
,
0002
0000
0000
0003
,
0200
0000
0000
0300
,
0020
0000
0000
0030
,
2000
3000
0002
0003
,
1000
0000
0100
0000
,
0001
0000
0100
0000
,
1000
0000
0010
0000
,
0001
0000
0010
0000
,
1000
0000
0001
0000
,
1000
0000
0001
0000
,
0110
0000
1001
0000
,
1000
1000
0001
0001
,
1001
0000
0000
0000
,
0000
0000
0000
0000
,
0110
0000
1001
0000
,
0100
0100
0100
0000
,
0001
0000
1000
0000
,
0010
0000
1000
1000
,
1000
0000
0001
0000
,
1000
0000
0010
0010
,
0010
0000
1000
0000
,
0010
0000
0100
0100
,
0100
0000
0001
0000
,
1001
0000
0000
0000
,
0001
0001
0001
0000
,
0010
0100
1000
0000
,
1000
1000
1000
0000
,
1000
0100
0010
0000
,
0001
0000
1001
0000
,
1000
0000
1001
0000
,
1000
1000
0001
0001
,
1001
0000
0100
0000
,
0110
0000
0000
0000
,
0000
0000
0000
0000
,
0000
0000
0000
0000
,
0000
0000
0000
0000
,
0002
0003
2000
3000
,
0002
0003
2000
3000
,
0020
0030
0200
0300
,
0020
0030
2000
3000
,
0002
0003
0200
0300
,
2000
3000
0200
0300
,
0002
0003
0020
0030
,
0200
0300
2000
3000
,
1000
0000
1001
0000
,
0001
0000
0010
0000
,
0001
0000
1000
0000
,
1000
0000
0100
0000
,
1000
0000
1001
0000
,
0001
0000
0100
0000
,
0001
0000
1000
0000
,
0110
0000
0000
0000
,
1000
1000
1000
0000
,
0001
0001
0001
0000
,
0100
0100
0010
0010
,
0100
0100
0100
0000
,
0001
0001
0001
0000
,
1000
1000
1000
0000
,
1001
0000
0110
0000
,
0010
0010
0100
0100
,
0110
0000
0000
0000
,
0000
0000
0000
0000
;

//---------------dance-single - ----------------
#NOTES:
     dance-single:
     :
     Medium:
     5:
     0.303708,0.412307,0.469367,0.101236,0.000000,231.000000,180.000000,51.000000,11.000000,0.000000,0.000000,0.303708,0.412307,0.469367,0.101236,0.000000,231.000000,180.000000,51.000000,11.000000,0.000000,0.000000:
0000
0000
0000
0000
,
0000
0000
0000
0000
,
0000
0000
0000
0000
,
0000
0000
0000
0000
,
0002
0000
0000
0003
,
2000
0000
0000
3000
,
0020
0000
0000
0030
,
1010
0000
0101
0000
,
1001
1000
0010
1000
,
0001
0010
1000
0010
,
0001
1000
0100
0010
,
0011
0000
1100
0000
,
0110
0100
1000
0010
,
0100
0001
0010
0001
,
0100
0110
0010
1010
,
1000
0001
0100
0110
,
1001
0000
0000
0000
,
0000
0000
0000
0000
,
1000
1100
0001
0101
,
0001
1000
0110
0000
,
1000
1000
0100
0010
,
0001
0000
0001
0000
0100
0000
0010
0100
,
0010
0010
1000
0001
,
0100
0000
0100
0000
0001
0000
1000
0001
,
1000
1000
0100
0010
,
0001
0000
0001
0000
0100
0000
0010
0100
,
0010
0010
1000
0001
,
0110
0000
0000
0000
,
0100
0100
0100
0100
,
1001
0000
0100
0000
1001
0000
0000
1000
,
0010
0010
0010
0010
,
1001
0000
0010
0000
1001
0000
0000
0001
,
0100
0100
0100
0100
,
1001
0000
0100
0000
1001
0000
0000
1000
,
0020
0030
2002
3003
,
0001
0001
1000
1000
,
0220
0000
0000
0000
,
0000
0000
0000
0330
,
0000
0000
0000
0000
,
0000
0000
0000
0000
,
0110
0000
0001
0000
,
1001
0000
0100
0000
,
0011
0000
0001
0000
,
1100
0000
0010
0000
,
0101
0000
0100
0000
,
1010
0000
0001
0000
,
1001
0000
0100
0000
,
0110
0000
1001
0000
,
0100
0100
0100
1001
,
0001
0001
0001
0110
,
0010
0010
0010
1001
,
1000
1000
1000
1001
,
0001
0011
0100
1100
,
1000
1010
0100
0101
,
0200
0300
0020
0030
,
2000
0000
0000
3000
,
0001
0100
0001
0100
,
0010
1000
0010
1001
,
1001
0100
1000
0100
,
0001
0010
0001
0011
,
1100
0100
0010
0100
,
1000
0100
1000
0110
,
1001
0000
0101
0000
,
1100
0101
0011
1010
,
1001
0000
0000
0000
,
0000
0000
0000
0000
;

//---------------dance-single - ----------------
#NOTES:
     dance-single:
     :
     Hard:
     7:
     0.425980,0.530109,0.294505,0.138049,0.101236,324.000000,292.000000,32.000000,15.000000,0.000000,0.000000,0.425980,0.530109,0.294505,0.138049,0.101236,324.000000,292.000000,32.000000,15.000000,0.000000,0.000000:
0000
0000
0000
0000
,
0000
0000
0000
0000
,
0000
0000
0000
0000
,
0000
0000
0000
0000
,
0011
0000
0000
0000
,
1001
0000
0000
0000
,
1010
0000
0000
0000
,
1001
0000
0110
0000
,
0010
1000
0100
0000
0010
1000
0100
0000
,
1000
0001
1100
1001
,
0010
1000
0001
0000
0010
1000
0001
0000
,
1000
0011
1100
1001
,
0100
1000
0001
0000
0100
1000
0001
0000
,
0110
0011
1100
1001
,
0010
0000
1000
0000
0100
0000
0000
0010
0001
0000
0100
0000
0001
0000
0000
1000
,
0001
1000
0010
1000
0100
0000
1100
0000
,
2002
0000
0000
0000
,
0000
0000
0000
3003
,
0010
0000
1000
0000
0001
0000
0000
0010
0001
0000
1000
0000
0001
0000
0000
1000
,
0001
1000
0010
1000
0200
0000
0300
0000
,
0010
0000
0001
0000
0100
0000
0010
0000
1000
0000
0100
0000
1000
0000
0000
0100
,
1000
0000
0010
0000
0100
0000
0001
0000
0010
0000
0001
0000
0100
0000
0000
0001
,
0010
0000
0001
0000
0100
0000
0010
0000
1000
0000
0100
0000
1000
0000
0000
0100
,
1000
0100
0010
0001
1000
0100
0010
0001
,
0010
0000
0001
0000
0100
0000
0010
0000
1000
0000
0100
0000
1000
0000
0000
0100
,
1000
0000
0010
0000
0100
0000
0001
0000
0010
0000
0001
0000
0100
0000
0000
0001
,
0010
0000
0001
0000
0100
0000
0010
0000
1000
0000
0100
0000
1000
0000
0000
0100
,
2000
0000
0000
3000
,
0100
1000
0002
0000
0103
0001
0020
0000
,
0130
1000
0020
0000
0130
0001
2000
0000
,
3010
1000
0200
0000
0310
0001
0100
0000
,
0110
0011
1100
1001
,
1000
0001
0100
0000
1100
0000
1001
0000
,
1000
0001
0100
0000
1100
0000
1001
0000
,
0010
0000
1000
0000
0001
0000
0000
0010
0001
0000
1000
0000
0001
0000
0000
1000
,
0001
1000
0010
1000
0100
0010
0001
0100
,
2002
0000
0000
0000
,
0000
0000
0000
3003
,
0000
0000
0000
0000
,
0000
0000
0000
0000
,
0021
0000
0100
0000
,
1000
0000
0001
0000
,
1000
0000
0100
0000
,
0001
0000
1000
0000
,
0230
0000
0010
0000
,
0001
0000
1000
0000
,
0001
0000
1000
0000
,
0310
0000
0110
0000
,
0010
0001
0010
0001
0100
1000
0100
0010
,
1000
0100
0001
0100
0010
0001
0100
1000
,
0100
0010
1000
0001
0010
1000
0010
0001
,
1000
0010
0100
0001
0100
1000
0100
0000
,
0001
0000
0000
0001
0010
0000
0000
0010
1000
0000
0000
1000
0010
0000
0000
0010
,
0100
0000
0000
0100
1000
0000
0000
1000
0001
0000
0000
0001
0010
0000
0000
0010
,
0100
0000
2000
0000
,
0002
0000
0000
3003
,
0110
0001
1000
0000
0110
1000
0001
0000
,
0010
0001
0100
0010
1000
0100
1000
0100
,
1000
0010
0100
0000
0001
0010
0001
0000
,
0010
0001
0100
0010
1000
0100
1000
0000
,
0110
0001
1000
0000
0110
1000
0001
0000
,
0100
1000
0010
0100
0001
0010
0001
0100
,
0010
0000
1000
0000
0001
0000
0000
0010
0001
0000
1000
0000
0001
0000
0000
1000
,
0001
1000
0100
1000
0010
0000
1000
0100
,
1001
0000
0000
0000
;

//---------------dance-double - ----------------
#NOTES:
     dance-double:
     :
     Easy:
     3:
     0.149882,0.206153,0.092033,0.156456,0.000000,114.000000,104.000000,10.000000,17.000000,0.000000,0.000000,0.149882,0.206153,0.092033,0.156456,0.000000,114.000000,104.000000,10.000000,17.000000,0.000000,0.000000:
00000000
00000000
00000000
00000000
,
00000000
00000000
00000000
00000000
,
00000000
00000000
00000000
00000000
,
00000000
00000000
00000000
00000000
,
00011000
00000000
00000000
00000000
,
01000000
00000000
00000000
00000000
,
10010000
00000000
00000000
00000000
,
10000000
00000000
00010000
00000000
,
00100000
01000000
10000000
00000000
,
02000000
00000000
00000000
03000000
,
01000000
00010000
00001000
00000000
,
00020000
00000000
00000000
00030000
,
00010000
00001000
00000100
00000000
,
00000002
00000000
00000000
00000003
,
00001000
00000000
00000001
00000000
,
00000010
00000001
00000100
00000000
,
00002002
00000000
00000000
00000000
,
00000000
00000000
00000000
00003003
,
00000001
00000000
00000100
00000000
,
00000100
00001000
00010000
00000000
,
00001000
00000000
00010000
00000000
,
02000000
00000000
00000000
03000000
,
10000000
00000000
00100000
00000000
,
20000000
00000000
00000000
30000000
,
01000000
00000000
00010000
00000000
,
02000000
00000000
00000000
03000000
,
00010000
00000000
00001000
00000000
,
00022000
00000000
00000000
00033000
,
00010000
00000000
00001000
00000000
,
00000100
00000000
00000001
00000000
,
00000010
00000000
00000100
00000000
,
00010000
00000000
00001000
00000000
,
00010000
00000000
01000000
00000000
,
10000000
00000000
00010000
00000000
,
00100000
00000000
00010000
00000000
,
10000000
00000000
00010000
00000000
,
20020000
00000000
00000000
00000000
,
00000000
00000000
00000000
30030000
,
00000000
00000000
00000000
00000000
,
00000000
00000000
00000000
00000000
,
00000001
00000000
00001000
00000000
,
00000020
00000000
00000000
00000030
,
00001000
00000000
00000001
00000000
,
00000200
00000000
00000000
00000300
,
00001000
00000000
00010000
00000000
,
02000000
00000000
00000000
03000000
,
10000000
00000000
00100000
00000000
,
02000000
00000000
00000000
03000000
,
10010000
00000000
00000000
00000000
,
01100000
00000000
00000000
00000000
,
00011000
00000000
00000000
00000000
,
00000110
00000000
00000000
00000000
,
00000001
00000000
00001000
00000000
,
00000001
00000000
00000010
00000000
,
00001000
00000000
00010000
00000000
,
00200000
00000000
00000000
00300000
,
10000000
10000000
10000000
00000000
,
00010000
00010000
00010000
00000000
,
10000000
01000000
00010000
00000000
,
01000000
00010000
00001000
00000000
,
00010000
00010000
00010000
00000000
,
00001000
00001000
00001000
00000000
,
00000100
00000000
00000001
00000000
,
00000010
00000010
00000010
00000000
,
00001001
00000000
00000000
00000000
,
00000000
00000000
00000000
00000000
;

//---------------dance-double - ----------------
#NOTES:
     dance-double:
     :
     Medium:
     5:
     0.278728,0.353406,0.165659,0.220879,0.000000,212.000000,194.000000,18.000000,24.000000,0.000000,0.000000,0.278728,0.353406,0.165659,0.220879,0.000000,212.000000,194.000000,18.000000,24.000000,0.000000,0.000000:
00000000
00000000
00000000
00000000
,
00000000
00000000
00000000
00000000
,
00000000
00000000
00000000
00000000
,
00000000
00000000
00000000
00000000
,
00021000
00000000
00000000
00030000
,
00010020
00000000
00000000
00000030
,
00000102
00000000
00000000
00000003
,
00002000
00003000
00000002
00000003
,
00000010
00000001
00000001
00000100
,
00001000
00010000
00010000
00100000
,
10000000
00010000
00010000
10000000
,
11000000
00000000
01010000
00000000
,
10000000
01000000
00010000
00001000
,
00010000
01000000
00010000
00001000
,
00000010
00000001
00000100
00000000
00000010
00001000
00000100
00000000
,
00001000
00000001
00000100
00001000
,
00011000
00000000
00000000
00000000
,
00000000
00000000
00000000
00000000
,
00001000
00010000
01000000
00000000
00010000
00001000
00000100
00000000
,
00001000
00010000
01000000
00000000
,
10010000
10000000
01000000
00010000
,
00001000
00010000
00001000
00000100
,
00001001
00000001
00000100
00001000
,
00010000
00001000
00010000
01000000
,
10010000
10000000
00100000
00010000
,
00001000
00010000
00001000
00000010
,
00001001
00000001
00000010
00001000
,
00011000
00000000
00000000
00000000
,
00010000
01000000
10000000
00000000
00000000
00000000
10010000
00000000
,
10000000
01000000
00010000
00000000
00000000
00000000
00011000
00000000
,
00001000
00000100
00000001
00000000
00000000
00000000
00001001
00000000
,
00000001
00000100
00001000
00000000
00000000
00000000
00011000
00000000
,
00010000
00001000
00010000
00000000
00010000
00000000
01000000
00000000
,
10000000
01000000
10000000
00000000
01000000
00000000
00100000
00000000
,
00010000
10000000
00010000
00000000
10000000
01000000
10000000
00000000
,
01000000
00010000
00001000
00000100
,
00002001
00000000
00000000
00000000
,
00000000
00000000
00000000
00003000
,
00000000
00000000
00000000
00000000
,
00000000
00000000
00000000
00000000
,
00000002
00000003
00002000
00003000
,
00000200
00000300
00020000
00030000
,
00002000
00003000
00200000
00300000
,
00020000
00030000
20000000
30000000
,
00200000
00300000
02000000
03000000
,
00002000
00003000
00020000
00030000
,
00000020
00000030
00002000
00003000
,
00000002
00000003
00000200
00000300
,
00000001
00000010
00001000
00000010
,
00001000
00010000
00100000
00010000
,
00100000
10000000
01000000
10000000
,
01000000
00010000
00001000
00010000
,
00001000
00000000
00000000
00000100
00000001
00000000
00000000
00000010
,
00001000
00000000
00000000
00010000
00100000
00000000
00000000
10000000
,
01000000
00000000
00000000
00010000
00001000
00000000
00000000
00000000
,
00022000
00000000
00000000
00033000
,
00001000
00000100
00001000
00000000
00000100
00000000
00000001
00000000
,
00000010
00000001
00000100
00001000
,
00010000
00100000
10000000
01000000
,
10000000
01000000
00010000
00001000
,
00010000
01000000
00010000
00000000
00001000
00000000
00000100
00000000
,
00000001
00000010
00001000
00010000
,
00100000
10000000
00100000
00000000
10000000
01000000
00010000
00000000
,
00001000
00010000
00001000
00000100
,
00001001
00000000
00000000
00000000
,
00000000
00000000
00000000
00000000
;

//---------------dance-double - ----------------
#NOTES:
     dance-double:
     :
     Hard:
     7:
     0.404944,0.500658,0.165659,0.165659,0.000000,308.000000,290.000000,18.000000,18.000000,0.000000,0.000000,0.404944,0.500658,0.165659,0.165659,0.000000,308.000000,290.000000,18.000000,18.000000,0.000000,0.000000:
00000000
00000000
00000000
00000000
,
00000000
00000000
00000000
00000000
,
00000000
00000000
00000000
00000000
,
00000000
00000000
00000000
00000000
,
10010000
00000000
00000000
00000000
,
01100000
00000000
00000000
00000000
,
00101000
00000000
00000000
00000000
,
00001010
00000000
00000101
00000000
,
00000010
00000001
00000100
00001000
00010000
00001000
00010000
00000000
,
00010000
00100000
00010000
00100000
10000000
01000000
00100000
00000000
,
00001000
01000000
00010000
00000000
00100000
00001000
00010000
00000000
,
00001000
00000100
00001000
00000100
00000001
00000010
00000100
00000000
,
00001000
00000001
00001000
00000001
00001000
00000100
00010000
00001000
,
01000000
00010000
01000000
00010000
00100000
01000000
10000000
01000000
,
10000000
00100000
01000000
00000000
00001000
00100000
00010000
00000000
,
10000000
01000000
10000000
01000000
00010000
00001000
00010000
00001000
,
00011000
00000000
00000000
00000000
,
00000000
00000000
00000000
00000000
,
00000010
00000001
00000100
00000000
00001000
00010000
01000000
00000000
,
10000000
00100000
01000000
00010000
20000000
00000000
30000000
00000000
,
01000000
00010000
01000000
00010000
00001000
00000010
00000001
00000000
,
00001000
00000010
00001000
00000010
00010000
00001000
00000100
00000000
,
00000001
00001000
00000001
00001000
00000010
00000100
00001000
00000000
,
00010000
00001000
00010000
00001000
00100000
00010000
01000000
10000000
,
01000000
00100000
01000000
00100000
10000000
01000000
00100000
00000000
,
00001000
00010000
00001000
00010000
00000100
00001000
00000010
00000000
,
00000100
00000001
00000010
00000000
00000001
00000100
00001000
00000000
,
00000110
00000000
00000000
00000000
,
00000001
00001000
00000100
00000000
00010000
00001000
00010000
00000000
,
00001000
01000000
00010000
00000000
10000000
00100000
10000000
00000000
,
10000000
00010000
01000000
00000000
00001000
00010000
00001000
00000000
,
00010000
00000100
00001000
00000000
00000001
00001000
00000100
00000000
,
00000001
00000100
00000001
00000000
00000101
00000000
00001100
00000000
,
00010000
00001000
00010000
00000000
00011000
00000000
00101000
00000000
,
00010000
00100000
01000000
00000000
10000000
01000000
00100000
00000000
,
10000000
01000000
00010000
01000000
00010000
00001000
00000100
00000001
,
00002002
00000000
00000000
00000000
,
00000000
00000000
00000000
00003003
,
00000000
00000000
00000000
00000000
,
00000000
00000000
00000000
00000000
,
00002000
00000000
00010000
00000000
,
00000010
00000000
00000010
00000000
,
00010000
00000000
00000100
00000000
,
00000100
00000000
00010000
00000000
,
00023000
00000000
00001000
00000000
,
00100000
00000000
00100000
00000000
,
00001000
00000000
01000000
00000000
,
01030000
00000000
10010000
00000000
,
10000000
01000000
00100000
00010000
10000000
01000000
00100000
00001000
,
00010000
00001000
00010000
00000100
00000010
00000001
00000001
00000001
,
00000001
00000010
00000100
00001000
00000001
00000010
00000100
00010000
,
00001000
00010000
00001000
00100000
01000000
10000000
10000000
00000000
,
20000000
30200000
00320000
00032000
,
00003020
00000000
00000000
00000000
00000032
00000000
00000000
00000003
00000200
00000000
00000000
00000000
00002300
00000000
00000000
00000000
,
00023000
00030000
00202000
00303000
,
00220000
00000000
00000000
00330000
,
10000000
01000000
00100000
00001000
00010000
00001000
00010000
00000100
,
00000010
00000001
00000100
00001000
00010000
00001000
00010000
01000000
,
10000000
00100000
01000000
00100000
01000000
00010000
00100000
00001000
,
00010000
00001000
00010000
00000010
00000100
00000001
00000010
00000001
,
00000010
00000100
00001000
00000010
00000100
00000010
00000100
00000000
,
00000001
00000100
00001000
00010000
00001000
00010000
01000000
00000000
,
00001000
00010000
01000000
00000000
00010000
00001000
00000100
00000000
,
00001000
00000100
00000001
00000010
00001001
00000000
00000110
00000000
,
00001001
00000000
00000000
00000000
;

//---------------dance-single - ----------------
#NOTES:
     dance-single:
     :
     Challenge:
     10:
     0.646859,0.971866,0.064423,0.276098,0.740863,492.000000,485.000000,7.000000,30.000000,0.000000,0.000000,0.646859,0.971866,0.064423,0.276098,0.740863,492.000000,485.000000,7.000000,30.000000,0.000000,0.000000:
// measure 0
0000
0000
0000
0000
,  // measure 1
0000
0000
0000
0000
,  // measure 2
0000
0000
0000
0000
,  // measure 3
0000
0000
0000
0000
,  // measure 4
1002
0000
0000
0000
,  // measure 5
0203
0000
0000
0000
,  // measure 6
0320
0000
0000
0000
,  // measure 7
2030
0000
3000
0000
,  // measure 8
0100
0001
0100
1000
0100
0001
0100
1000
,  // measure 9
0010
0001
0010
1000
0010
0001
0010
1000
,  // measure 10
0001
0010
0001
0100
0001
0010
0001
0100
,  // measure 11
0010
1000
0100
1000
0010
1000
0100
0010
,  // measure 12
0110
0100
1000
0010
0001
0010
1000
0100
,  // measure 13
0110
0010
0001
0100
1000
0100
0001
0010
,  // measure 14
0100
0000
0000
0000
0000
0000
0000
0000
0100
0000
0000
0000
0000
0000
0000
0000
1000
0000
0000
0000
0000
0010
0000
0000
0000
0000
0000
0000
0000
0010
0000
0000
0100
0000
0000
0000
0000
0000
0000
0000
0100
0000
0000
0000
0000
0000
0000
0000
0001
0000
0000
0000
0000
0010
0000
0000
0000
0000
0000
0000
0000
0010
0000
0000
,  // measure 15
0100
1000
0100
1000
0002
0000
0100
0103
,  // measure 16
0220
0000
0000
0000
,  // measure 17
0000
0000
0330
0000
,  // measure 18
1000
0000
0000
0000
0000
0000
0000
0000
0100
0000
0000
0000
0000
0000
0000
0000
0010
0000
0000
0000
0000
0001
0000
0000
0000
0000
0000
0000
0000
0001
0000
0000
0100
0000
0000
0000
0000
0000
0000
0000
0010
0000
0000
0000
0000
0000
0000
0000
1000
0000
0000
0000
0000
0100
0000
0000
0000
0000
0000
0000
0000
0100
0000
0000
,  // measure 19
1000
0000
0000
0000
0000
0010
0000
0000
1000
0000
0000
0000
0000
0010
0000
0000
1000
0000
0000
0000
0000
0010
0000
0000
1000
0000
0000
0000
0000
0010
0000
0000
2000
0000
0000
0000
0000
0000
0000
0000
0000
0000
0000
0000
0000
0000
0000
0000
3001
0000
0000
0000
0100
0000
0000
0000
0010
0000
0000
0000
1000
0000
0000
0000
,  // measure 20
0001
0000
0010
0000
1000
0000
0010
0000
0001
0000
0100
0000
0010
1000
0000
1000
,  // measure 21
0100
0000
1000
0000
0010
0000
0100
0000
1000
0000
0100
0000
0001
1000
0000
1000
,  // measure 22
0100
0000
0010
0000
0001
0000
1000
0000
0100
0000
1000
0000
0001
0100
0000
0100
,  // measure 23
0010
1000
0010
0000
0100
0000
0001
0000
0010
0100
0010
0000
0001
0000
1000
0000
,  // measure 24
0001
0010
0001
0000
1000
0000
0100
0000
0001
0000
0100
0000
1000
0001
0000
0001
,  // measure 25
1000
0000
0010
0000
0100
0000
0001
0000
1000
0000
0100
0000
1000
0010
0000
0010
,  // measure 26
1000
0000
0100
0000
0010
0000
0001
0000
1000
0000
0010
0000
0100
0001
0000
0001
,  // measure 27
0010
0001
0010
0000
0100
0000
1000
0000
0010
1000
0010
0000
0110
0000
0000
0000
,  // measure 28
0100
0001
0100
0000
0010
0000
1000
0000
0100
0000
1000
0000
0010
0100
0000
0100
,  // measure 29
0010
1000
0010
0000
0100
0000
0001
0000
1000
0000
0100
0000
1000
0001
0000
0001
,  // measure 30
1000
0100
1000
0000
0001
0000
0010
0000
0100
0000
1000
0000
0010
0100
0000
0100
,  // measure 31
0001
0010
0001
0000
0100
0000
0010
0000
1000
0100
1000
0000
0010
0000
0100
0000
,  // measure 32
0001
1000
0001
0000
0100
0000
0010
0000
1000
0001
1000
0000
0010
0100
0000
0100
,  // measure 33
0010
1000
0010
0000
0100
0000
0010
0100
0010
0000
0100
0001
0100
0000
0001
0000
,  // measure 34
1000
0000
0010
0000
1000
0100
0000
0100
0010
0000
0001
0000
0100
0010
0000
0010
,  // measure 35
1000
0100
1000
0100
0010
0100
0010
0100
0020
0000
0000
0000
0031
0000
0001
0000
,  // measure 36
2002
0000
0000
0000
,  // measure 37
0000
0000
0000
0000
,  // measure 38
0000
0000
0000
0000
,  // measure 39
3003
0000
0000
0000
,  // measure 40
0200
0000
0320
0000
,  // measure 41
2030
0000
3100
0000
,  // measure 42
0020
0000
0032
0000
,  // measure 43
2003
0000
3002
0000
,  // measure 44
0203
0000
0320
0000
,  // measure 45
0230
0000
0301
0000
,  // measure 46
2000
0000
3200
0000
,  // measure 47
0320
0000
0002
0033
,  // measure 48
0100
0001
0100
0001
0100
0010
0100
0001
1000
0100
1000
0100
1000
0010
0100
0010
,  // measure 49
1000
0010
1000
0010
0100
0010
0100
0010
0100
0001
0100
0001
1000
0001
1000
0001
,  // measure 50
0010
0100
0010
0100
0010
0001
0100
0010
1000
0100
1000
0100
1000
0010
0100
0001
,  // measure 51
1000
0001
0010
0100
1000
0010
0100
0001
1000
0100
1000
0100
0001
0100
0001
0100
,  // measure 52
0010
0000
0000
0000
0000
0100
0000
0000
0010
0000
0000
0000
0000
0100
0000
0000
0010
0000
0000
0000
0000
0100
0000
0000
0010
0000
0000
0000
0000
0100
0000
0000
1000
0000
0000
0000
0000
0001
0000
0000
1000
0000
0000
0000
0000
0001
0000
0000
1000
0000
0000
0000
0000
0001
0000
0000
1000
0000
0000
0000
0000
0001
0000
0000
,  // measure 53
0100
0000
0000
0000
0000
0010
0000
0000
0100
0000
0000
0000
0000
0010
0000
0000
0100
0000
0000
0000
0000
0010
0000
0000
0100
0000
0000
0000
0000
0010
0000
0000
1000
0000
0000
0000
0000
0001
0000
0000
1000
0000
0000
0000
0000
0001
0000
0000
1000
0000
0000
0000
0000
0001
0000
0000
1000
0000
0000
0000
0000
0001
0000
0000
,  // measure 54
0200
0000
0320
0000
,  // measure 55
2030
0000
0002
3003
,  // measure 56
0001
1000
0001
1000
0100
0010
0100
1000
0001
1000
0001
0100
0010
0100
0001
1000
,  // measure 57
0100
1000
0100
1000
0010
0100
0001
0100
0010
0100
0001
1000
0100
0010
0001
1000
,  // measure 58
0010
0100
0010
0100
0001
1000
0010
0100
0001
1000
0001
1000
0100
0010
0100
1000
,  // measure 59
0001
0010
0100
0010
0001
0010
0100
1000
0001
1000
0100
0010
0001
1000
0010
0100
,  // measure 60
0001
0010
0001
0010
0100
1000
0001
0100
0010
1000
0010
1000
0001
0010
0100
1000
,  // measure 61
0001
0100
0010
0100
0001
0010
0100
0010
0001
0100
0010
1000
0001
1000
0010
0100
,  // measure 62
0001
0000
0000
0000
0000
0000
0000
0000
1000
0000
0000
0000
0000
0000
0000
0000
0010
0000
0000
0000
0000
0100
0000
0000
0000
0000
0000
0000
0000
0100
0000
0000
0001
0000
0000
0000
0000
0000
0000
0000
1000
0000
0000
0000
0000
0000
0000
0000
0100
0000
0000
0000
0000
0010
0000
0000
0000
0000
0000
0000
0000
0010
0000
0000
,  // measure 63
0001
0000
0000
0000
0000
0100
0000
0000
0001
0000
0000
0000
0000
0100
0000
0000
0010
0000
0000
0000
0000
0100
0000
0000
0010
0000
0000
0000
0000
0100
0000
0000
0002
0000
0000
0000
0000
0000
0000
0000
0000
0000
0000
0000
0000
0000
0000
0000
1003
0000
0000
0000
0000
0000
0000
0000
1000
0000
0000
0000
0000
0000
0000
0000
,  // measure 64
1001
0000
0000
0000
;

//---------------dance-double - ----------------
#NOTES:
     dance-double:
     :
     Challenge:
     10:
     0.652118,0.971866,0.055220,0.285301,0.768473,496.000000,490.000000,6.000000,31.000000,0.000000,0.000000,0.652118,0.971866,0.055220,0.285301,0.768473,496.000000,490.000000,6.000000,31.000000,0.000000,0.000000:
00000000
00000000
00000000
00000000
,
00000000
00000000
00000000
00000000
,
00000000
00000000
00000000
00000000
,
00000000
00000000
00000000
00000000
,
00020100
00000000
00000000
00000000
,
00032000
00000000
00000000
00000000
,
00203000
00000000
00000000
00000000
,
00320000
00000000
20000000
30030000
,
01000000
00000000
00100000
00000000
01000000
00000000
10000000
00000000
01000000
00000000
00100000
00000000
01000000
10000000
01000000
10000000
,
00010000
00000000
00100000
00000000
00001000
00000000
00100000
00000000
00010000
00000000
00100000
00000000
00001000
00010000
00001000
00010000
,
00000100
00000000
00000001
00000000
00000100
00000000
00001000
00000000
00000100
00000000
00000001
00000000
00000100
00001000
00000100
00001000
,
00000010
00000000
00000100
00000000
00000001
00000000
00000100
00000000
00000010
00000000
00000100
00000000
00000001
00000010
00000001
00000010
,
00000001
00000000
00000100
00000000
00001000
00000000
00000100
00000000
00000010
00000000
00001000
00000000
00000100
00010000
00000100
00010000
,
00001000
00000000
00100000
00000000
01000000
00000000
00010000
00000000
01000000
00000000
10000000
00000000
00100000
01000000
00100000
01000000
,
00010000
00000000
00000000
00000000
00000000
00000000
00000000
00000000
00010000
00000000
00000000
00000000
00000000
00000000
00000000
00000000
01000000
00000000
00000000
00000000
00000000
00100000
00000000
00000000
00000000
00000000
00000000
00000000
00000000
00100000
00000000
00000000
10000000
00000000
00000000
00000000
00000000
00000000
00000000
00000000
10000000
00000000
00000000
00000000
00000000
00000000
00000000
00000000
01000000
00000000
00000000
00000000
00000000
00100000
00000000
00000000
00000000
00000000
00000000
00000000
00000000
00100000
00000000
00000000
,
00010000
00100000
00001000
00010000
00000200
00000000
00000310
00000010
,
00000220
00000000
00000000
00000000
,
00000000
00000000
00000330
00000000
,
00000001
00000000
00000000
00000000
00000000
00000000
00000000
00000000
00000010
00000000
00000000
00000000
00000000
00000000
00000000
00000000
00000100
00000000
00000000
00000000
00000000
00001000
00000000
00000000
00000000
00000000
00000000
00000000
00000000
00001000
00000000
00000000
00000010
00000000
00000000
00000000
00000000
00000000
00000000
00000000
00000100
00000000
00000000
00000000
00000000
00000000
00000000
00000000
00000001
00000000
00000000
00000000
00000000
00000010
00000000
00000000
00000000
00000000
00000000
00000000
00000000
00000010
00000000
00000000
,
00000001
00000000
00000000
00000000
00000000
00000100
00000000
00000000
00000001
00000000
00000000
00000000
00000000
00000100
00000000
00000000
00000001
00000000
00000000
00000000
00000000
00000100
00000000
00000000
00000001
00000000
00000000
00000000
00000000
00000100
00000000
00000000
00000002
00000000
00000000
00000000
00000000
00000000
00000000
00000000
00000000
00000000
00000000
00000000
00000000
00000000
00000000
00000000
00001003
00000000
00000000
00000000
00000010
00000000
00000000
00000000
00001000
00000000
00000000
00000000
00000010
00000000
00000000
00000000
,
00001000
00000000
00000100
00000000
00010000
00000000
00001000
00000000
00100000
00000000
00010000
00000000
10000000
00100000
00000000
00100000
,
01000000
00000000
00010000
00000000
00100000
00000000
00001000
00000000
00010000
00000000
00000100
00000000
00000010
00000001
00000000
00000001
,
00000100
00000000
00000010
00000000
00001000
00000000
00000100
00000000
00010000
00000000
00001000
00000000
00100000
01000000
00000000
01000000
,
10000000
00100000
10000000
00000000
01000000
00000000
00100000
00000000
00010000
01000000
00010000
00000000
10000000
00000000
00100000
00000000
,
01000000
00000000
00100000
00000000
10000000
00000000
01000000
00000000
00010000
00000000
01000000
00000000
00100000
00001000
00000000
00001000
,
00000100
00000000
00000001
00000000
00000010
00000000
00000100
00000000
00000010
00000000
00000001
00000000
00001000
00000100
00000000
00000100
,
00010000
00000000
01000000
00000000
10000000
00000000
01000000
00000000
00100000
00000000
00010000
00000000
00100000
00001000
00000000
00001000
,
00010000
00001000
00010000
00000000
01000000
00000000
00010000
00000000
00001000
00010000
00001000
00000000
00011000
00000000
00000000
00000000
,
00001100
00000000
00000100
00000000
00000010
00000000
00000001
00000000
00000100
00000000
00000010
00000000
00001000
00000100
00000000
00000100
,
00001000
00000000
00000010
00000000
00000100
00000000
00000001
00000000
00001000
00000000
00000100
00000000
00010000
00001000
00000000
00001000
,
00100000
00000000
00010000
00000000
10000000
00000000
00010000
00000000
00100000
00000000
01000000
00000000
10000000
00100000
00000000
00100000
,
01000000
00010000
01000000
00000000
00100000
00000000
10000000
00000000
01000000
10000000
01000000
10000000
01000000
00000000
00100000
00000000
,
00001000
00000000
00010000
00000000
00000010
00000000
00001000
00000000
00000001
00000000
00001000
00000000
00000100
00010000
00000000
00010000
,
00001000
00000000
00100000
00000000
00010000
00000000
10000000
00000000
00100000
00000000
01000000
00000000
00010000
00100000
00000000
00100000
,
00001000
00000000
00010000
00000000
00001000
00000100
00000000
00000100
00001000
00000000
00010000
00000000
00001000
00100000
00000000
00100000
,
00010000
00100000
00010000
00100000
00001000
00100000
00001000
00100000
00002000
00000000
00000000
00000000
00010000
00000000
00013000
00000000
,
00022000
00000000
00000000
00000000
,
00000000
00000000
00000000
00000000
,
00033000
00000000
00000000
00000000
,
00000000
00000000
00000000
00000000
,
02000000
00000000
03020000
00000000
,
00230000
00000000
01300000
00000000
,
00200000
00000000
00302000
00000000
,
00023000
00000000
00030020
00000000
,
00000230
00000000
00000302
00000000
,
00002000
00000000
00003003
00000000
,
00000002
00000000
00002003
00000000
,
00023000
00000000
00000000
00000000
00000000
00000000
00000000
00000000
20000000
30030000
00000000
00000000
00000000
00000000
00000000
00000000
,
01000000
10000000
01000000
10000000
01000000
10000000
00010000
10000000
00100000
10000000
00100000
10000000
00100000
10000000
00010000
10000000
,
00100000
01000000
00100000
01000000
00010000
01000000
00010000
01000000
00010000
00100000
00010000
00100000
00001000
00100000
00001000
00100000
,
00001000
00010000
00000100
00010000
00001000
00010000
00001000
00010000
00000100
00001000
00000010
00001000
00000100
00001000
00000100
00001000
,
00000010
00001000
00000010
00001000
00000010
00000100
00000010
00000100
00000001
00000100
00000001
00000100
00000001
00000010
00000001
00000010
,
00000100
00000000
00000000
00000000
00000000
00010000
00000000
00000000
00000100
00000000
00000000
00000000
00000000
00010000
00000000
00000000
00000100
00000000
00000000
00000000
00000000
00010000
00000000
00000000
00000100
00000000
00000000
00000000
00000000
00010000
00000000
00000000
00001000
00000000
00000000
00000000
00000000
00100000
00000000
00000000
00001000
00000000
00000000
00000000
00000000
00100000
00000000
00000000
00001000
00000000
00000000
00000000
00000000
00100000
00000000
00000000
00001000
00000000
00000000
00000000
00000000
00100000
00000000
00000000
,
00010000
00000000
00000000
00000000
00000000
01000000
00000000
00000000
00010000
00000000
00000000
00000000
00000000
01000000
00000000
00000000
00010000
00000000
00000000
00000000
00000000
01000000
00000000
00000000
00010000
00000000
00000000
00000000
00000000
01000000
00000000
00000000
00100000
00000000
00000000
00000000
00000000
10000000
00000000
00000000
00100000
00000000
00000000
00000000
00000000
10000000
00000000
00000000
00100000
00000000
00000000
00000000
00000000
10000000
00000000
00000000
00100000
00000000
00000000
00000000
00000000
10000000
00000000
00000000
,
00020000
00000000
00200000
00300000
,
20000000
30000000
02000000
03030000
,
00010000
10000000
00010000
10000000
01000000
00100000
01000000
10000000
00010000
10000000
00010000
01000000
00100000
01000000
00010000
10000000
,
00100000
01000000
00100000
01000000
00010000
01000000
00010000
01000000
00010000
00100000
00010000
00100000
00001000
00010000
00001000
00010000
,
00001000
00100000
00001000
00100000
00001000
00010000
00000100
00010000
00001000
00100000
00001000
00100000
00001000
00010000
00000100
00010000
,
00001000
00010000
00001000
00010000
00000100
00010000
00000100
00010000
00000100
00001000
00000100
00001000
00000010
00000100
00000010
00000100
,
00000010
00001000
00000010
00001000
00000010
00000100
00000001
00000100
00000010
00001000
00000010
00001000
00000100
00000010
00000001
00000010
,
00000100
00001000
00000100
00001000
00000100
00010000
00000100
00010000
00001000
00010000
00001000
00010000
00001000
00100000
00001000
00100000
,
00001000
00000000
00000000
00000000
00000000
00000000
00000000
00000000
00010000
00000000
00000000
00000000
00000000
00000000
00000000
00000000
00001000
00000000
00000000
00000000
00000000
00000100
00000000
00000000
00000000
00000000
00000000
00000000
00000000
00000100
00000000
00000000
00001000
00000000
00000000
00000000
00000000
00000000
00000000
00000000
00010000
00000000
00000000
00000000
00000000
00000000
00000000
00000000
00001000
00000000
00000000
00000000
00000000
00100000
00000000
00000000
00000000
00000000
00000000
00000000
00000000
00100000
00000000
00000000
,
00010000
00000000
00000000
00000000
00000000
01000000
00000000
00000000
00010000
00000000
00000000
00000000
00000000
01000000
00000000
00000000
00100000
00000000
00000000
00000000
00000000
10000000
00000000
00000000
00100000
00000000
00000000
00000000
00000000
10000000
00000000
00000000
00020000
00000000
00000000
00000000
00000000
00000000
00000000
00000000
00000000
00000000
00000000
00000000
00000000
00000000
00000000
00000000
00130000
00000000
00000000
00000000
00000000
00000000
00000000
00000000
00100000
00000000
00000000
00000000
00000000
00000000
00000000
00000000
,
01100000
00000000
00000000
00000000
;
