#TITLE:memento mori -intro-;
#SUBTITLE:;
#ARTIST:あさき;
#TITLETRANSLIT:;
#SUBTITLETRANSLIT:;
#ARTISTTRANSLIT:Asaki;
#GENRE:;
#CREDIT:;
#BANNER:memento mori -intro-.png;
#BACKGROUND:;
#LYRICSPATH:;
#CDTITLE:;
#MUSIC:memento mori -intro-.ogg;
#OFFSET:-0.160000;
#SAMPLESTART:69.300003;
#SAMPLELENGTH:15.000000;
#SELECTABLE:YES;
#DISPLAYBPM:*;
#BPMS:0.000000=85.000000
,24.000000=170.000000
;
#STOPS:
;
#BGCHANGES:-4.000=memento mori -intro-.avi=1.000=0=0=0=StretchNoLoop====,
99999=-nosongbg-=1.000=0=0=0 // don't automatically add -songbackground-
;
#KEYSOUNDS:;
#ATTACKS:;

//---------------dance-single - ----------------
#NOTES:
     dance-single:
     :
     Beginner:
     3:
     0.187391,0.215106,0.036692,0.045865,0.000000,143.000000,139.000000,4.000000,5.000000,0.000000,0.000000,0.187391,0.215106,0.036692,0.045865,0.000000,143.000000,139.000000,4.000000,5.000000,0.000000,0.000000:
0000
0000
0000
0000
,
0000
0000
0000
0000
,
2000
0000
3000
0000
,
0002
0000
0003
0000
,
0100
0100
0100
0000
,
0010
0010
0020
0030
,
0100
0000
0010
0000
,
0100
0100
0100
0000
,
0001
0000
1000
0000
,
0001
0001
0001
0000
,
0010
0000
0100
0000
,
1000
1000
1000
0000
,
0010
0000
0100
0000
,
0001
0001
0001
0000
,
0010
0000
0100
0000
,
0010
0000
0100
0000
,
1000
0000
0001
0000
,
0100
0000
0010
0000
,
0100
0000
0001
0000
,
1000
0000
1000
0000
,
0001
0001
0001
0000
,
0100
0000
0100
0000
,
0010
0010
0010
0000
,
1000
0000
0001
0000
,
0010
0010
0010
0000
,
0100
0000
1000
0000
,
0001
0001
0001
0000
,
0100
0000
0010
0000
,
0100
0000
0100
0000
,
0001
0000
1000
0000
,
0001
0000
0000
0000
,
0010
0000
0100
0000
,
1000
0000
1000
0000
,
0010
0000
0100
0000
,
0001
0000
0000
0000
,
0010
0000
0100
0000
,
0010
0000
0000
0000
,
0001
0000
1000
0000
,
0001
0000
0000
0000
,
0100
0000
0100
0000
,
0010
0000
0010
0000
,
1000
0000
0001
0000
,
2002
0000
3003
0000
,
0001
0000
1000
0000
,
0100
0000
0010
0000
,
0001
0001
0001
0000
,
1000
1000
1000
0000
,
0010
0000
0100
0000
,
0001
0000
0100
0000
,
0010
0010
0010
0000
,
0100
0100
0100
0000
,
0010
0000
1000
0000
,
0001
0000
0010
0000
,
0001
0001
0001
0000
,
0010
0010
0010
0000
,
0100
0000
1000
0000
,
0010
0000
0100
0000
,
0001
0000
1000
0000
,
1001
0000
0110
0000
,
0100
0000
0010
0000
,
0100
0000
0010
0000
,
0001
0000
1000
0000
,
0001
0000
1000
0000
,
0010
0000
0010
0000
,
0100
0000
0000
0000
,
0001
0000
1000
0000
,
0001
0000
1000
0000
,
1001
0000
0000
0000
;

//---------------dance-single - ----------------
#NOTES:
     dance-single:
     :
     Hard:
     10:
     0.830809,1.012695,0.431129,0.110076,0.839326,634.000000,587.000000,47.000000,12.000000,0.000000,0.000000,0.830809,1.012695,0.431129,0.110076,0.839326,634.000000,587.000000,47.000000,12.000000,0.000000,0.000000:
0000
0000
0000
0000
,
0000
0000
0000
0000
,
2001
0000
0010
0000
0001
0000
3010
0000
0110
0110
0000
0000
0010
0000
0100
0000
,
0102
0000
0010
0000
0100
0000
0013
0000
0110
0110
0000
0000
0100
0000
1100
0000
,
1001
0000
0001
0100
0110
0000
0010
1000
0001
1000
0000
1000
1100
0000
1000
0001
,
0100
0001
1000
0100
1000
0001
0010
0001
1000
0010
1000
0001
0100
0010
1000
0001
,
1000
0000
0000
0100
0010
0000
0000
0001
1000
0000
0000
0010
1000
0000
0000
0001
,
0010
0000
0001
1000
0100
0000
1000
0001
0100
0000
0010
1000
0001
0000
0010
0100
,
1000
0000
0000
0001
1000
0000
0000
0010
0100
0000
0000
0001
0100
0000
0000
0010
,
1000
0000
0000
0000
0010
0000
0000
0000
0100
0000
0000
0000
0001
0000
0000
0000
0010
0000
0000
0000
0100
0000
0000
0000
1000
0000
0000
0001
0000
0000
0000
0000
0000
1000
0000
0000
0001
0000
0000
0100
0000
0000
0001
0000
0000
0100
0000
0000
,
0010
0000
0000
1000
0100
0000
0000
0010
0100
0000
0000
1000
0001
0000
0000
0100
,
0010
0000
0100
0001
0100
0000
0001
1000
0001
0000
1000
0100
1000
0000
0100
0010
,
0001
0000
0000
0000
0010
0001
1000
0010
0100
0000
0000
0000
0101
0000
0000
0000
,
0010
0000
0000
0000
1000
0000
0000
0000
0100
0000
0000
0000
0010
0000
0000
0001
0000
0000
0010
0000
0000
0001
0000
0000
1000
0000
0000
0010
0000
0000
0100
0000
0000
0001
0000
0000
1000
0000
0000
0000
0000
0000
0000
0000
0000
0000
0000
0000
,
0001
0100
0010
1000
0001
1000
0100
0000
0000
0010
0001
0010
,
0100
1000
0010
0100
0000
0000
0001
0100
0010
1000
0001
1000
,
0100
0010
0001
1000
0000
0000
0010
0100
0001
0100
0010
1000
,
0001
0011
1100
1001
,
0001
0010
0001
1000
0010
0100
0001
0010
0100
1000
0010
0100
,
0001
0000
0010
0001
1000
0000
0000
1000
0010
0000
0000
0010
0100
0000
0000
0100
,
0001
0000
0000
0001
1000
0000
0000
1000
0100
0000
0000
0010
0001
0000
1000
0010
,
0100
0000
0000
0100
0001
0000
1000
0100
1000
0000
0000
0010
0100
0000
0000
0010
,
1000
0000
0001
0010
0001
0010
0100
0000
1000
0000
0001
0100
0001
0000
1000
0010
,
1000
0000
0010
0000
0100
0000
0000
0001
0100
0000
0000
0010
1000
0000
0000
0001
,
0010
0000
0001
0000
1000
0000
0000
0100
1000
0000
0000
0001
0100
0000
0010
0000
,
0200
0000
0000
0000
0301
0010
0100
1000
0020
0000
0000
0000
0230
0000
0000
0000
,
0302
0000
0000
0000
1003
0010
0100
0001
0010
0000
0000
0000
0110
0000
0000
0000
,
1001
0000
0001
1000
0100
0000
0000
0010
0001
0000
0000
1000
0010
0000
0000
0100
,
0001
0000
0000
0100
0010
0000
0000
1000
0001
0000
0010
0001
1000
0000
0010
1000
,
0100
1100
1001
0101
,
0001
0000
0100
0010
0000
0100
0001
0000
1000
0000
0100
1000
0010
0100
0010
0100
,
0001
0000
0000
0010
0001
0000
1000
0100
1000
0000
0000
0010
0100
0000
0001
0100
,
0001
0000
0000
0001
1000
0000
0100
1000
0010
0000
0100
0001
1000
0000
0100
0000
,
1000
0000
0001
1000
0100
0000
1000
0001
0100
0000
0001
1000
0100
0000
1000
0001
,
0100
0000
0000
0000
0010
0100
0000
0000
0110
0000
0000
0000
1000
0001
0000
0000
,
0010
0001
0100
0010
0000
0100
0001
1000
,
0000
0000
0100
0000
0010
0000
0001
0000
0000
0000
1000
0000
0010
0100
0000
0000
,
0101
0000
0001
0010
0100
0000
1100
0000
1000
0001
0100
0000
0010
0100
0000
0001
,
1000
0000
0100
0000
0010
0001
1000
0000
0020
0000
0000
0000
0130
0000
0000
0000
,
0010
1000
0010
1000
0100
0000
0012
0000
0000
0000
1003
0000
0010
1000
0010
0000
,
0100
0000
0000
0001
0000
0000
0100
0000
0000
0001
0000
0000
0100
0000
0000
0001
0000
0000
1000
0000
0000
0000
0000
0000
0010
0000
0000
0000
0100
0000
0000
0000
0001
0000
0000
0000
1000
0000
0000
0000
0000
0000
0000
0000
0000
0000
0000
0000
,
0001
0100
0001
1000
0100
1000
0001
0010
0001
1000
0010
1000
,
1100
0000
0000
0011
0000
0000
0110
0000
1001
0000
0000
0000
0210
0000
0000
0000
,
0301
0000
0100
0000
1000
0000
0100
0000
0001
0000
0000
0101
0000
0000
0001
0000
,
1000
0100
0010
0001
1000
0010
1000
0001
,
0010
0100
1100
0000
1001
0001
0000
0100
,
0010
0100
0001
0010
0100
1000
0010
1000
,
0001
0010
1000
0010
0001
0100
1000
0100
,
0010
0100
0001
1000
0010
1000
0001
0010
,
0100
1000
0001
1000
0010
0100
0001
0100
,
0010
0000
1000
0000
0001
0000
0010
0000
0100
1000
0100
1000
0001
0100
0001
0100
,
0010
1000
0100
1000
0001
0100
0010
0100
,
0001
0000
0010
0001
0000
1000
0100
0000
0010
0001
0010
0001
1000
0100
1000
0100
,
0010
0000
0001
0000
1000
0000
0010
0000
0100
0000
0001
0000
0100
0000
0010
1000
,
0010
0100
0001
0010
0100
1000
0001
0100
,
1010
0010
0100
0101
0001
1000
1100
0001
,
0010
0000
0100
0000
1000
0000
0001
0000
0100
0000
0010
0100
0001
1000
0100
0010
,
0001
0010
0001
0010
0001
0010
0100
1000
0001
0100
0000
0000
1010
0000
0000
0000
,
0100
0001
0100
0001
0100
0001
0100
0001
1000
0100
1000
0000
0010
0000
0100
0000
,
0001
0010
1100
0000
0010
0100
1001
0000
,
0010
0000
1000
0000
0101
0000
0000
0000
0001
0000
1000
0000
0110
0000
0100
0001
,
0010
0100
0011
0000
0001
1000
0110
0000
,
0010
0000
0000
0000
0000
0000
0100
0000
0000
0000
0000
0000
1001
0000
0000
0000
0000
0000
0001
0000
0000
1000
0000
0000
0010
0000
0000
0000
0100
0000
0000
0000
0001
0000
0000
0000
1000
0000
0000
0000
0100
0000
0000
0000
0010
0000
0000
0000
,
0001
0010
0100
1000
0110
0001
0010
0100
,
1000
0010
0100
0001
1001
0001
0010
0100
,
2000
0000
0000
0000
0001
0000
0000
0000
0001
0000
0000
0000
3001
0000
1000
0100
,
1000
0010
0100
0001
0011
0000
1100
0000
,
2002
0000
0000
0000
,
0000
0000
0000
0000
,
3003
0000
0000
0000
;

//---------------dance-single - ----------------
#NOTES:
     dance-single:
     :
     Medium:
     8:
     0.562172,0.632935,0.192632,0.018346,0.100903,429.000000,408.000000,21.000000,2.000000,0.000000,0.000000,0.562172,0.632935,0.192632,0.018346,0.100903,429.000000,408.000000,21.000000,2.000000,0.000000,0.000000:
0000
0000
0000
0000
,
0000
0000
0000
0000
,
0010
0000
0100
0000
0010
0000
0100
0000
0001
0001
0000
0000
0000
0000
0000
0000
,
0010
0000
0100
0000
0010
0000
0100
0000
1000
1000
0000
0000
0001
0000
0000
0000
,
0100
0010
0110
0100
0001
1000
1001
0000
,
0011
0000
0000
1100
0000
0000
1001
0000
0001
0000
0100
0000
0010
0000
1000
0000
,
0010
0100
0001
0000
1000
0100
0010
0000
,
0100
1000
0010
0100
0001
1000
0100
0000
,
0010
0001
1000
0000
0010
1000
0100
0000
,
0010
0100
1000
0010
1000
0001
0100
0000
,
0010
0100
0001
0000
1000
0100
0010
0000
,
0100
1000
0001
0010
0001
0100
0010
1000
,
0001
0010
0001
0000
1000
0010
1000
0000
,
0001
0100
0010
0100
0001
1000
0100
0010
,
0001
0000
0001
0100
0000
0100
0010
0000
0000
0100
0000
0100
,
0001
0000
0001
1000
0000
0000
0001
0000
0001
0010
0000
0010
,
0100
0000
0100
1000
0000
0000
0001
0000
0001
0100
0000
0100
,
0010
1000
0001
0010
,
0100
0000
1000
0001
1000
0001
1000
0000
0000
1001
0000
0000
,
0001
0100
0010
0100
0001
1000
0100
0000
,
0010
0001
1000
0000
0010
1000
0100
0000
,
0010
0001
1000
0010
1000
0001
0100
0000
,
0010
0100
0001
0010
0100
1000
0010
0000
,
1000
0001
0100
0000
0010
0100
0001
0000
,
1000
0100
0010
0000
0001
1000
0010
0000
,
1000
0100
0010
0001
0100
0010
0100
0000
,
0001
0000
0010
0100
1000
0000
1100
0000
,
1000
0010
0100
0000
0001
0100
0010
0000
,
0100
0001
1000
0100
0010
0001
1000
0000
,
0010
1000
0100
0000
1000
0001
0100
0000
,
0110
0000
1000
0001
0010
0000
1100
0000
,
1000
0100
0001
0100
1000
0100
0010
0000
,
0001
0010
1000
0010
0001
0010
0100
0000
,
1000
0001
0100
0000
0010
0100
0001
0000
,
1100
0000
0010
0001
0101
0000
1001
0000
,
1000
0010
0100
0001
0000
0010
0100
1000
,
0000
0001
0100
0010
0000
1000
0001
0000
,
0010
0000
0100
1000
0000
0001
0100
0010
,
0100
0001
1000
0100
0010
0000
0001
0000
,
0100
0010
0100
1001
0000
0001
0010
0100
,
1000
0000
0000
0010
0000
0000
0100
0000
0000
0001
0000
0000
1000
0000
0001
0000
1000
0000
0001
0000
0000
0000
0000
0000
,
0010
0000
0010
0100
0000
0100
1000
0000
1000
0001
0000
0001
,
0100
0000
0000
0010
0000
0000
0100
0000
0001
0000
0000
0000
1001
0000
0000
0000
,
0001
0000
0100
0010
0100
0000
0001
1000
,
0100
0010
0001
1000
0010
1000
0001
0010
,
0100
1000
0010
0000
1000
0100
0010
0000
,
0001
0010
0001
0000
1000
0010
1000
0000
,
0010
0000
0100
0001
0010
0001
1000
0000
,
0010
0000
0100
0001
1000
0001
0100
0000
,
0010
0000
1000
0100
0001
0100
0010
0000
,
0011
0000
0001
1000
0010
0100
0001
0100
,
0010
0000
0100
0001
1000
0100
0010
0001
,
1000
0000
0001
0000
1000
0010
0100
0001
,
0010
0000
0100
0000
1000
0010
0100
0000
,
0001
0000
0100
0000
0010
1000
0100
0000
,
0010
0000
0001
0000
1000
0010
0100
0000
,
0001
0000
0100
0000
0010
1000
0001
0000
,
0010
0000
0000
0100
0010
0000
0110
0000
,
0001
0100
0010
1000
0001
0010
0100
1000
,
0001
0000
0100
0010
0100
0000
0001
1000
,
0100
0000
0010
0001
0010
0000
0001
1000
,
0010
0000
0100
0010
0100
0000
0001
1000
,
0100
0000
1000
0001
0100
0010
1000
0000
,
0010
1000
0100
0000
0011
0000
1100
0000
,
0001
0100
0010
0000
1010
0000
0101
0000
,
0001
1000
0100
0000
1000
0001
0010
0000
,
0001
1000
0010
0100
0001
0000
1000
0000
,
2002
0000
0000
0000
,
0000
0000
0000
0000
,
3003
0000
0000
0000
;

//---------------dance-single - ----------------
#NOTES:
     dance-single:
     :
     Easy:
     5:
     0.397058,0.506348,0.210978,0.110076,0.013759,303.000000,280.000000,23.000000,12.000000,0.000000,0.000000,0.397058,0.506348,0.210978,0.110076,0.013759,303.000000,280.000000,23.000000,12.000000,0.000000,0.000000:
0000
0000
0000
0000
,
0000
0000
0000
0000
,
2002
0000
0000
0000
3003
0000
0000
0000
0001
1000
0000
0000
0000
0000
0000
0000
,
0220
0000
0000
0000
0330
0000
0000
0000
0010
0100
0000
0000
0000
0000
0000
0000
,
0010
0100
0110
0000
0001
1000
1001
0000
,
0001
0000
0000
0010
0000
0000
0100
0000
1000
0000
0001
0000
0100
0000
0010
0000
,
1000
0001
1000
0000
0010
0000
0100
0000
,
0001
0010
0001
0000
0010
0000
0100
0000
,
1000
1000
0001
0001
,
0100
0010
1000
0001
,
0010
0001
0010
0000
0100
0000
1000
0000
,
0010
0100
0001
1000
,
1001
0000
0001
1000
0001
0000
0010
0000
,
0100
1000
0010
0100
,
0001
0001
0011
0100
,
0100
1100
0010
0100
,
0100
0110
0010
1000
,
1000
0001
0010
0100
,
1000
0100
0010
0001
,
1000
0000
0001
0000
1000
0001
0100
0000
,
0010
0000
0100
0000
0001
1000
0100
0000
,
0010
0000
0010
0000
0001
1000
0010
0000
,
0100
0001
1000
0100
,
0010
0000
0001
0000
1000
0010
0100
0000
,
0010
0000
1000
0000
0001
0010
0100
0000
,
1000
0001
0010
0100
,
1000
0001
0100
0010
,
1000
1000
0001
0001
,
0010
0000
0100
0000
1000
0001
0100
0010
,
0100
0001
0010
0110
,
1000
0000
0010
0000
0100
0001
1000
0100
,
0010
0001
1000
1001
,
0010
0100
0001
0101
,
0001
0010
0100
1000
,
0001
0100
0010
1000
,
0001
0000
0000
0011
0000
0000
0000
1100
,
0000
0000
0000
1001
0000
0000
0010
0000
,
0100
0000
0001
1000
0000
0100
1000
0000
,
0001
0100
0010
0100
,
0001
0000
1000
0100
0000
1000
0010
0000
,
0100
0001
0010
0100
,
1000
1000
0001
0001
,
0100
0010
0220
0330
,
0100
0001
0010
0100
,
1000
0010
0100
0001
,
1000
0100
1000
0000
0010
0000
0100
0000
,
0001
0010
0100
1000
,
0001
0000
0001
0000
0100
0001
0100
0000
,
0001
0000
0001
0000
1000
0010
1000
0000
,
0001
0000
0001
0000
0010
0100
0010
0000
,
0110
0110
1001
0000
,
0100
1000
0010
0100
,
0001
0000
0100
0000
0010
1000
0010
0000
,
1000
0001
0010
0100
,
1000
0000
0010
0000
0100
0001
0100
0000
,
0010
0010
1000
0001
,
0010
0000
0010
0000
0100
1000
0001
0000
,
0100
0100
0010
0010
,
0110
0110
1000
0001
,
0010
0100
1000
0001
,
0100
0000
0010
0000
0100
0000
0001
1000
,
0100
0010
0100
1000
,
0010
0100
0001
0010
,
0100
1000
2200
3300
,
1000
0001
2002
3003
,
0001
0001
0100
0100
,
0010
1000
0001
0010
,
0220
0000
0000
0000
,
0000
0000
0000
0000
,
0330
0000
0000
0000
;

//---------------dance-single - ----------------
#NOTES:
     dance-single:
     :
     Challenge:
     11:
     0.918607,1.234223,0.605416,0.128422,0.944815,701.000000,635.000000,66.000000,14.000000,0.000000,0.000000,0.918607,1.234223,0.605416,0.128422,0.944815,701.000000,635.000000,66.000000,14.000000,0.000000,0.000000:
0000
0000
0000
0000
,
0000
0000
0000
0000
,
2001
0000
0000
0000
0001
0000
0000
0000
0001
0000
0000
0000
3001
0000
1000
0100
1000
0000
1100
0000
0000
0000
0000
0000
0001
0000
1000
0010
1000
0000
0000
0000
,
0102
0000
0000
0000
0100
0000
0000
0000
0100
0000
0000
0000
0103
0000
0010
0000
0100
0000
1001
0000
0000
0000
0001
0000
1000
0010
0100
0000
0001
0000
1000
0001
,
1000
0100
0001
0100
1100
0000
1000
0001
0100
0010
0100
0001
0011
0000
1100
0000
,
1001
0000
0100
0000
0010
0000
1010
0000
0001
0000
0010
0000
1100
0000
0001
0100
0001
0000
0010
0000
1000
0000
0010
0000
0001
0000
0001
0000
0100
0000
0010
0000
,
1000
0000
0010
0100
0001
0000
1000
0100
0010
0000
0001
0010
0100
0000
1000
0001
,
1000
0000
0010
0100
0001
0000
0100
0010
1000
0000
0001
0010
0100
0000
1000
0000
,
0010
0000
0001
0000
1000
0000
0100
0001
0010
0000
0000
0000
1100
0000
0000
0000
,
0001
0000
0000
0000
0010
0000
0000
0000
0100
0000
0000
0000
0001
0000
0000
0000
0100
0000
0000
0000
1000
0000
0000
0000
0010
0000
0000
0100
0000
0000
0001
0000
0000
1000
0000
0000
0100
0000
0000
0010
0000
0000
0001
0000
0000
0100
0000
0000
,
0010
0000
1000
0001
0010
0000
0000
0100
1000
0000
0000
0001
0100
0000
0010
0100
,
0001
0000
0010
0001
0010
0000
0010
1000
0010
0000
1000
0100
1000
0001
0100
0001
,
1000
0000
0000
0000
0001
0010
0100
1000
0010
0000
0000
0000
0101
0000
0000
0000
,
0010
1000
0001
0010
1000
0001
0100
1000
0001
0100
1000
0100
,
0001
0010
0100
1000
0010
0100
1001
0000
0000
0001
0010
1000
,
0010
0100
1000
0010
0010
0001
0100
0010
0100
0001
0010
0100
,
0001
0100
1000
0110
0000
0000
0100
0001
0010
1000
0010
0001
,
0101
1100
1001
0110
,
0010
0100
0001
1000
0001
0010
0100
1000
0010
0100
0010
1000
,
0001
0000
0010
0001
1000
0000
0010
0100
0001
0000
0100
0010
1000
0000
0001
0010
,
0100
0000
1000
0010
0100
0000
0001
0100
0010
0000
0000
0000
0110
0000
0100
0001
,
1000
0000
0010
0000
0100
0000
0001
1000
0100
0000
0000
0000
0110
0000
0000
0000
,
0010
0000
0001
0100
0010
0100
0001
1000
0100
1000
0010
0100
0001
0000
0010
0100
,
1000
0000
0001
0100
1000
0000
0000
0000
1100
0000
0000
0100
0001
0000
0000
0010
,
1000
0000
0010
0001
1000
0000
0000
0000
1010
0000
0010
0100
0001
0000
1000
0010
,
0200
0000
0000
0000
0301
0010
1000
0010
0002
0000
0000
0000
2003
0000
0000
0000
,
3020
0000
0000
0000
1030
0010
0100
0001
1000
0000
0000
0000
1001
0000
0000
0000
,
0110
0000
0001
0010
0100
0000
1000
0001
0100
0000
0010
0100
0001
0000
1000
0010
,
0100
0000
0001
0010
0100
0000
1000
0001
0100
0000
0000
0000
0110
0000
0100
0001
,
0010
0000
1000
0010
0001
0000
0100
0000
0010
0000
1000
0100
0001
0000
0000
0000
,
1001
0000
1000
0010
0000
0001
0100
1000
0100
0000
0001
0010
0001
1000
0010
1000
,
0001
0000
0000
0000
1100
0000
1000
0010
0001
0000
0000
0000
1001
0000
1000
0100
,
0001
0000
0000
0001
1000
0000
0100
1000
0010
0000
0010
0001
1000
0000
0100
0000
,
1000
0000
0001
0010
1000
0000
1000
0010
0001
0000
0001
0100
1000
0000
1000
0100
,
0001
0000
0000
0000
0001
1000
0000
0000
0110
0000
0000
0000
1000
0001
0100
0000
,
0001
0100
1000
0011
0000
0010
1000
0101
,
0000
0000
0001
0000
0010
0000
1100
0000
0000
0000
1000
0001
1000
0100
0000
0000
,
0011
0000
0001
0010
0001
1000
0100
0000
1000
0001
0100
0010
1000
0001
0000
0001
,
0010
0000
0100
0000
0010
1000
0001
0000
0200
0000
0000
0000
0310
0000
0000
0000
,
1000
0010
0001
0010
1000
0000
0102
0000
0000
0000
1003
0000
0100
0001
1000
0000
,
1000
0000
0000
0010
0000
0000
1000
0000
0000
0010
0000
0000
0001
0000
0000
0100
0000
0000
0001
0000
0000
0100
0000
0000
0010
0000
0000
0000
1000
0000
0000
0000
0001
0000
0000
0000
0010
0000
0000
0000
0000
0000
0000
0000
0000
0000
0000
0000
,
0001
0100
0001
0100
1000
0100
1000
0001
1000
0100
0010
0100
,
0101
0000
0000
0011
0000
0000
1010
0000
1200
0000
0000
0000
0001
0000
0000
0000
,
0301
0000
0100
0000
1000
0000
0100
0000
0101
0000
0000
1001
0000
0000
1100
0000
,
0001
0010
0100
1000
0001
0100
0010
0100
,
0101
0000
0101
0000
1001
0000
0000
0000
1000
0000
0100
0000
0001
0000
0100
0010
,
0001
0010
0100
1000
0010
0100
0001
1000
,
0110
0010
0100
0001
1000
0100
0010
0001
,
1000
0000
0010
0000
1000
0000
0001
0100
0001
0010
0000
0100
1000
0000
0001
0000
,
0100
0000
0010
1000
0100
0000
0010
0000
0001
1000
0010
0000
0100
0000
0001
0100
,
0010
0000
1001
0000
0100
0000
0011
0000
0001
0010
0001
0010
1000
0010
1000
0010
,
0001
0000
0100
0000
1000
0000
0100
0000
0001
0000
0010
0000
0100
0000
0010
0001
,
1000
0000
0010
0100
0000
0001
0100
0000
0010
1000
0001
1000
0010
0100
0001
0010
,
0100
0000
1000
0000
0010
0000
0001
0000
0010
0000
1000
0000
0100
0000
0010
0001
,
1000
0010
0100
0001
0100
0010
1000
0001
,
0011
0001
1000
1001
1000
0010
0110
0100
,
0101
0000
0010
0000
1000
0000
0001
0010
0100
0000
0000
1100
0000
0000
1001
0000
,
0001
0100
0001
0100
1000
0100
1000
0100
0001
0010
0000
0000
1100
0000
1000
0001
,
1000
0010
1000
0010
0001
0010
0001
0010
1000
0100
0000
0000
1001
0000
0000
0000
,
0001
0010
1100
1000
0010
0100
0101
0010
,
1000
0000
0001
0000
0110
0000
0001
0000
1000
0000
0010
0000
0100
0001
1000
0000
,
0100
1000
0011
0001
0100
0010
1001
0100
,
0010
0000
0000
0000
0000
0000
0100
0000
0000
0000
0000
0000
0101
0000
0000
0000
0000
0000
0001
0000
0000
1000
0000
0000
0010
0000
0000
0000
0001
0000
0000
0000
1000
0000
0000
0000
0100
0000
0000
0000
0001
0000
0000
0000
0010
0000
0000
0000
,
0100
0000
1000
0000
0010
0000
1000
0000
1001
0000
0001
0000
0100
0000
0001
0010
,
0001
1000
0010
0100
0101
0001
0010
0100
,
1000
0010
0002
0000
0023
0000
0230
0000
,
1300
0100
0001
0010
1100
0000
0101
0000
,
0220
0000
0000
0000
,
0000
0000
0000
0000
,
0330
0000
0000
0000
;

//---------------dance-double - ----------------
#NOTES:
     dance-double:
     :
     Hard:
     10:
     0.781012,0.904454,0.467821,0.146767,0.784289,596.000000,545.000000,51.000000,16.000000,0.000000,0.000000,0.781012,0.904454,0.467821,0.146767,0.784289,596.000000,545.000000,51.000000,16.000000,0.000000,0.000000:
00000000
00000000
00000000
00000000
,
00000000
00000000
00000000
00000000
,
00012000
00000000
01000000
00000000
01000000
00000000
01003000
00000000
01100000
01100000
00000000
00000000
00000000
00000000
00000000
00000000
,
00021000
00000000
00000100
00000000
00000100
00000000
00030100
00000000
00000110
00000110
00000000
00000000
00000000
00000000
00002000
00000000
,
00003001
00000000
00000100
00001000
00010000
00000000
00011000
00000000
00100000
10000000
00010000
00000000
00100000
00010000
10000000
01000000
,
00010000
00000000
00001000
00010100
00000000
00000010
00001001
00000000
00000010
00000001
00000100
00000010
00001000
00000100
00010000
00001000
,
01000000
00000000
00000000
00100000
10000000
00000000
00000000
01000000
00010000
00000000
00000000
00001000
00100000
00000000
00001000
00010000
,
00000100
00000000
00000000
00000010
00000001
00000000
00000000
00000100
00001000
00000000
00000000
00010000
00000010
00000000
00010000
00001000
,
01000000
00000000
00000000
00010000
00001000
00000000
00000000
00000010
00000100
00000000
00000000
00000000
00011000
00000000
00000000
00000000
,
00010000
00000000
00000000
00000000
00100000
00000000
00000000
00000000
10000000
00000000
00000000
00000000
00010000
00000000
00000000
00000000
10000000
00000000
00000000
00000000
01000000
00000000
00000000
00000000
00100000
00000000
00000000
00000000
00001000
00000000
00000000
00000000
00010000
00000000
00000000
00000000
00000100
00000000
00000000
00001000
00000000
00000000
00000100
00000000
00000000
00001000
00000000
00000000
,
00000010
00000000
00000000
00000100
00000001
00000000
00000000
00000010
00001000
00000000
00000000
00010000
00000100
00000000
00010000
00001000
,
00100000
00000000
00000000
01000000
10000000
00000000
00000000
00100000
00010000
00000000
00000000
00001000
01000000
00000000
00001000
00010000
,
00000010
00000000
00000000
00000000
00001000
00000100
00000010
00000001
00001000
00000000
00000000
00000000
00000110
00000000
00000000
00000000
,
00000001
00000010
00000100
00001000
00000000
00000000
00010000
00100000
01000000
10000000
00000000
00000000
,
00010000
01000000
00100000
10000000
00010000
10000000
01000000
00000000
00000000
00010000
00001000
00000100
,
00000001
00001000
00000010
00000100
00000000
00000000
00000001
00000100
00000010
00010000
00001000
01000000
,
00010000
10000000
00100000
01000000
00000000
00000000
00001000
00010000
00000100
00010000
00001000
00000010
,
00000001
00000000
00000000
00000101
00000000
00000000
00001000
00000010
00010000
00001000
00000000
00000000
,
00100000
00010000
10000000
01000000
00000000
00000000
10000000
00100000
00010000
00001000
00000010
00000001
,
00001000
00000000
00000000
00001000
00000001
00000000
00000000
00000001
00000100
00000000
00000000
00000100
00001000
00000000
00000000
00001000
,
00010000
00000000
00000000
00010000
01000000
00000000
00000000
01000000
10000000
00000000
00010000
01000000
00010000
00000000
10000000
01000000
,
10000000
00000000
00000000
10000000
00100000
00000000
00000000
00100000
00010000
00000000
00000000
00010000
00000100
00000000
00000000
00000100
,
00000010
00000000
00000001
00001000
00000001
00000000
00001000
00000100
00001000
00000000
00000100
00010000
00000100
00000000
00010000
00001000
,
00010000
00000000
00000000
00010000
00100000
00000000
00000000
00100000
10000000
00000000
00000000
10000000
01000000
00000000
00000000
01000000
,
00010000
00000000
00000000
00010000
00001000
00000000
00000000
00001000
00000010
00000000
00000000
00000010
00000001
00001000
00000100
00000010
,
00000200
00000000
00000000
00000000
00010300
00001000
01000000
00001000
00020000
00000000
00000000
00000000
02030000
00000000
00000000
00000000
,
23000000
00000000
00000000
00000000
30100000
01000000
00100000
01000000
00100000
00000000
00000000
00000000
10010000
00000000
00000000
00000000
,
00010000
00000000
00000000
00010000
10000000
00000000
00000000
10000000
01000000
00000000
00000000
01000000
00010000
00000000
00000000
00010000
,
00001000
00000000
00000000
00001000
00000100
00000000
00000000
00000100
00000001
00000000
00001000
00000100
00001000
00000000
00000001
00000100
,
00000001
00000000
00000000
00000001
00000010
00000000
00000000
00000010
00001000
00000000
00000000
00001000
01000000
00000000
00000000
00000000
,
00100000
00000000
10000000
00010000
10000000
00000000
00100000
01000000
00100000
00000000
00010000
00001000
00010000
00000000
00000010
00000100
,
00000010
00000000
00000000
00000010
00001000
00000000
00000001
00000100
00000010
00000000
00000000
00000010
00010000
00000000
00001000
01000000
,
00010000
00000000
00000000
00010000
10000000
00000000
01000000
00010000
00001000
00000000
00000000
00000000
00011000
00000000
00000000
00000000
,
00000100
00000000
00000001
00000010
00000001
00000000
00001000
00000010
00001000
00000000
00000100
00010000
00000100
00000000
00010000
00001000
,
00010000
00000000
00000000
00000000
00100000
10000000
01000000
00100000
00010000
00000000
00000000
00000000
10010000
00000000
00000000
00000000
,
01000000
00010000
00001000
00000110
00000000
00001000
00010000
01100000
,
00000000
00000000
00010000
00000000
00001000
00000000
00000010
00000000
00000001
00000100
00000001
00000100
00000010
00001000
00000010
00000000
,
00001010
00001000
00000100
00010100
00010000
00001000
01001000
01000000
,
00010000
10010000
00000000
00000000
01100000
00000000
20000000
00000000
,
30100000
10000000
00100000
10000000
01000000
00000000
00120000
00000000
00000000
00000000
01030000
00000000
00100000
00000000
00010000
00000000
,
00001000
00000100
00000001
00001000
00000001
00000100
00000010
00001000
00000100
00010000
00000000
00000000
,
00001000
00010000
01000000
10000000
00000000
00000000
00100000
00010000
00001000
00000010
00000001
00000100
,
00000110
00000000
00000000
00001010
00000000
00000000
00000101
00000000
00000110
00000000
00000000
00000000
00001001
00000000
00000000
00000000
,
00000001
00000000
00000100
00000000
00001000
00000000
00010000
00000000
01000000
00000000
10000000
00100000
10000000
00000000
00010000
00000000
,
01000000
00000000
00001000
00000000
00010000
00000000
00000100
00000000
00000010
00000001
00000010
00000000
00000100
00001000
00000100
00000000
,
00000010
00000001
00000100
00001000
00000001
00000010
00001000
00000100
,
00010000
00001000
00100000
00010000
10000000
01000000
00010000
00000000
,
00001000
00001100
00000000
00000101
00000000
00000011
00000000
00001010
,
00001000
00000000
00011000
00000000
00000000
00000000
01010000
00000000
00000000
00000000
11000000
00000000
10000000
01000000
00100000
00010000
,
10000000
01000000
00010000
00001000
00000100
00000001
00001000
00000010
,
00010000
00000000
00010000
00000000
00001000
00000000
00001000
00000000
01000000
00010000
01000000
00010000
10000000
01000000
10000000
01000000
,
00100000
00000000
00001000
00000000
00010000
00000000
01000000
00000000
00010000
00000000
00001000
00000000
00000100
00000000
00000001
00000010
,
00000001
00000000
00000000
00000101
00000000
00000000
00001010
00000000
00001000
00000100
00001000
00000000
00000001
00000100
00000001
00000100
,
00000010
00000000
00010000
00000000
00001000
00000000
00000100
00000000
00001000
00000000
00010000
00000000
01000000
00000000
10000000
00010000
,
10000000
00100000
00010000
00001000
00000010
00001000
00010000
00000000
,
00200000
00000000
10000000
00000000
01000000
01000000
01000000
00000000
,
00320000
00000000
00000000
00000000
00000100
00000000
00000000
00000000
00030010
00000000
00000000
00001010
00000000
00000000
00001001
00000000
,
00000010
00000000
00000001
00000000
00001000
00000001
00000100
00000010
00001000
00000000
00000000
00000000
00010010
00000000
00000000
00000000
,
00010000
00001000
00010000
00001000
01000000
00000000
00000000
00000000
00010000
00100000
00010000
00000000
10000000
00000000
00000000
00000000
,
01000000
00010000
00011000
00000000
00000100
00001000
00011000
00000000
,
00100000
00010000
00011000
00000000
00000010
00001000
00011000
00000000
,
00100000
10000000
01010000
00000000
00100000
00001000
00010100
00000000
,
00000010
00000000
00000000
00000001
00000000
00000000
00000100
00000000
00000000
00001000
00000000
00000000
00010000
00000000
00100000
00000000
10000000
00000000
00010000
00000000
01000000
00000000
10000000
00000000
,
01000000
00010000
00100000
00001000
00011000
00010000
00000010
00000100
,
00000001
00000000
00001000
00000000
00000010
00000000
00010000
00000000
00011000
00000000
00000000
00000000
00001000
01000000
00001000
01000000
,
00010000
10000000
00200000
00000000
00320000
00000000
00032000
00000000
,
00003100
00000001
00000010
00000000
00000110
00000000
00010100
00000000
,
00022000
00000000
00000000
00000000
,
00033000
00000000
00000000
00000000
;

//---------------dance-double - ----------------
#NOTES:
     dance-double:
     :
     Challenge:
     11:
     0.887157,1.153959,0.403610,0.165113,0.958575,677.000000,633.000000,44.000000,18.000000,0.000000,0.000000,0.887157,1.153959,0.403610,0.165113,0.958575,677.000000,633.000000,44.000000,18.000000,0.000000,0.000000:
00000000
00000000
00000000
00000000
,
00000000
00000000
00000000
00000000
,
00021000
00000000
00000010
00000000
00000010
00000000
00030010
00001000
00000001
00001001
00000000
00000000
00000010
00001000
00010000
00000000
,
00012000
00000000
00000000
00000000
00100000
00000000
00000000
00000000
00100000
00000000
00000000
00000000
00103000
00000000
00010000
00000000
10000000
00000000
01000000
00000000
00000000
00000000
00010000
00000000
00001000
00000000
00000100
00000000
00000001
00000100
00000001
00000100
,
00000010
00010000
00001000
01000000
00010000
00000000
10010000
00000000
01000000
00100000
00001000
00010000
00000100
00000000
00000110
00000000
,
00001001
00000000
00000100
00000000
00000010
00000000
00010010
00000000
00010000
00000000
00001000
00000000
01000000
00010000
01000000
00010000
10000000
00000000
00100000
00000000
01000000
00000000
00010000
00000000
00001000
00000000
00000010
00000000
00000100
00000000
00000001
00000000
,
00001000
00000000
00000010
00000100
00000010
00000000
00010000
00001000
00010000
00000000
01000000
00100000
01000000
00100000
00010000
10000000
,
00010000
00000000
00100000
01000000
00100000
00000000
00001000
00010000
00001000
00000000
00000100
00000010
00000100
00000010
00001000
00000001
,
00001000
00000000
00000000
00001000
00000001
00000000
00000000
00000001
00000010
00000000
00000000
00000010
00001000
00000000
00000000
00001000
,
00010000
00000000
00000000
00000000
01000000
00000000
00000000
00000000
10000000
00000000
00000000
00000000
00100000
00000000
00000000
00000000
10000000
00000000
00000000
00000000
01000000
00000000
00000000
00000000
00010000
00000000
00000000
00001000
00000000
00000000
00100000
00000000
00000000
00001000
00000000
00000000
00010000
00000000
00000000
00000010
00000000
00000000
00000100
00000000
00000000
00000001
00000000
00000000
,
00001000
00000000
00000100
00000010
00000100
00000000
00010000
00001000
00010000
00000000
00100000
01000000
00100000
01000000
00010000
10000000
,
00010000
00000000
01000000
00100000
01000000
00000000
00001000
00010000
00001000
00000000
00000010
00000100
00000010
00000100
00001000
00000001
,
00001000
00000000
00000000
00000000
00000001
00000010
00000100
00001000
00000001
00000000
00000000
00000000
00001010
00000000
00000000
00000000
,
00000001
00000010
00000100
00001000
00000010
00000100
00001000
00010000
00100000
01000000
00010000
00100000
,
01000000
10000000
00100000
00010000
00001000
00000100
00000001
00000000
00000000
00001000
00000001
00000010
,
00001000
00010000
01000000
10000000
00100000
00100000
00010000
01000000
01000000
10000000
00100000
00010000
,
00001000
00000100
00000001
00001000
00000000
00000000
00000001
00000010
00001000
00010000
01000000
10000000
,
10100000
00000000
00000000
01010000
00000000
00000000
10000000
00100000
01000000
00010000
00000000
00000000
,
00001000
00000010
00000100
00000001
00000010
00000010
00001000
00000100
00000100
00000001
00000010
00000100
,
00001000
00000000
00000010
00001000
00000001
00000000
00000010
00000001
00000100
00000000
00001000
00010000
00000100
00010000
00001000
01000000
,
00010000
00000000
00100000
00010000
10000000
00000000
00100000
10000000
01000000
00000000
00010000
00001000
01000000
00001000
00010000
00000100
,
00001000
00000000
00000010
00000000
00000100
00000000
00000001
00001000
00000100
00000000
00000000
00000000
00000110
00000000
00000000
00000000
,
00000001
00000100
00000001
00000100
00000010
00001000
00000010
00001000
00000100
00010000
00000100
00010000
00001000
00100000
00001000
00100000
,
00010000
00000000
01000000
00010000
10000000
00000000
01000000
10000000
00100000
00000000
00010000
00001000
00100000
00001000
00010000
00000010
,
00001000
00000000
00000100
00001000
00000001
00000000
00000100
00000001
00000010
00000000
00001000
00010000
00000010
00010000
00001000
00100000
,
00020000
00000000
00000000
00000000
10030000
00100000
01000000
00010000
20000000
00000000
00000000
00000000
32000000
00000000
00000000
00000000
,
03020000
00000000
00000000
00000000
00030010
00001000
00000010
00001000
00000001
00000000
00000000
00000000
00001001
00000000
00000000
00000000
,
00001000
00000000
00000100
00001000
00000001
00000000
00000100
00000001
00000010
00000000
00001000
00010000
00000010
00010000
00001000
00100000
,
00010000
00000000
01000000
00010000
10000000
00000000
01000000
10000000
00100000
00000000
00010000
00001000
00100000
00001000
00010000
00000010
,
00001000
00000100
00000010
00000001
00001000
00000100
00010000
00000000
,
00011000
00000000
00001000
00010000
00100000
00000000
00010000
00100000
01000000
00000000
00100000
01000000
10000000
01000000
00010000
00100000
,
00010000
00000000
00000000
00000000
11000000
00000000
10000000
00100000
00010000
00000000
00000000
00000000
00011000
00000000
00001000
00000100
,
00000001
00000000
00000000
00000000
00000011
00000000
00000001
00000010
00001000
00000000
00010000
00000000
01000000
00000000
00000000
00000000
,
10010000
00000000
10000000
01000000
00010000
00000000
00001000
00000100
00000001
00000000
00000001
00000010
00001000
00000000
00010000
00100000
,
10000000
00000000
00000000
00000000
01000000
00100000
00000000
00000000
00011000
00000000
00000000
00000000
00000100
00000010
00000000
00000000
,
00001100
00001000
00000100
00000011
00000000
00000010
00001000
00011000
,
00000000
00100000
00010000
00011000
00000000
01000000
10010000
00000000
,
10100000
00000000
10000000
00000000
01000000
00000000
00110000
00000000
00001000
00010000
00001000
00000000
00010000
00000010
00000000
00000010
,
00001000
00000000
00000100
00001000
00000002
00000000
00000000
00000000
00000203
00000000
00000000
00000000
00002300
00000000
00000000
00000000
,
00103000
00010000
00100000
00010000
10000000
00000000
10010000
00000000
00000000
00000000
10000000
00000000
01000000
00100000
00010000
00000000
,
00001000
00000000
00000000
00000100
00000000
00000000
00001000
00000000
00000000
00000001
00000000
00000000
00000100
00000000
00000000
00000001
00000000
00000000
00001000
00000000
00000000
00000010
00000000
00000000
00000100
00000000
00000000
00000000
00000001
00000000
00000000
00000000
00000010
00000000
00000000
00000000
00001000
00000000
00000000
00000000
00000000
00000000
00000000
00000000
00000000
00000000
00000000
00000000
,
00010000
00100000
10000000
00010000
10000000
01000000
00100000
00010000
01000000
00100000
10000000
00010000
,
00110000
00000000
00000000
11000000
00000000
00000000
01100000
00000000
10010000
00000000
00000000
00000000
00100000
00000000
00000000
00000000
,
00011000
00000000
00010000
00000000
00001000
00000000
00000100
00000000
00000001
00000000
00000010
00000001
00000000
00000000
00000100
00000000
,
00001000
00000000
00010000
00000000
00100000
01000000
00100000
00000000
10000000
00000000
01000000
00000000
00010000
00000000
01000000
00000000
,
00100000
00000000
00001000
00000000
00010000
00000100
00010000
00000000
00000100
00001000
00000100
00000000
00000010
00000001
00000010
00000000
,
00000001
00000000
00001000
00000000
00000100
00010000
00000100
00000000
00010000
00001000
00010000
00000000
00100000
01000000
00100000
01000000
,
00020000
00100000
10000000
01000000
,
00032000
00000010
00000001
00000100
,
00013000
00100000
10000000
00100000
00010000
01000000
10000000
01000000
,
00020000
00000000
00000000
00000000
00032000
00000000
00000000
00000000
00003010
00000100
00000010
00000100
00000001
00001000
00000100
00000010
,
00000001
00000000
00000100
00000000
00001000
00000000
00010000
00000000
01000000
00000000
10000000
00000000
00010000
00000000
00100000
00010000
,
10000000
00000000
00100000
01000000
00000000
00010000
00100000
00000000
00001000
00010000
00000100
00000000
00000010
00000001
00001000
00000010
,
00000100
00000000
00000001
00000000
00000010
00000000
00001000
00000000
00010000
00000000
00000100
00000000
00000010
00000000
00001000
00010000
,
01000000
10000000
00100000
00010000
00001000
01000000
00100000
00000000
,
10100000
10000000
01000000
00010000
00001000
00000100
00000001
00000000
,
00000011
00000000
00000001
00000000
00000100
00000000
00001000
00000000
00010000
00000000
00000000
01000000
00000000
00000000
10000000
00000000
,
00010000
00100000
00010000
00100000
00001000
00100000
00001000
00010000
00000010
00000000
00000000
00000000
00000110
00000000
00000000
00000000
,
00001000
00000010
00001000
00000010
00010000
00000010
00010000
00000000
00001000
01000000
00100000
00000000
10010000
00000000
00000000
00000000
,
10000000
00100000
01010000
00010000
00100000
00001000
00011000
00000100
,
00000001
00001000
00000110
00001000
00000001
00000100
00001000
00000100
,
00000001
00000010
00001100
00001000
00000010
00010000
00011000
01000000
,
10000000
00000000
00000000
00010000
00000000
00000000
01100000
00000000
00000000
00010000
00000000
00000000
10000000
00000000
00100000
00000000
00010000
00000000
00001000
00000000
00000000
00000000
00000000
00000000
,
00000100
00000000
00000001
00000000
00000010
00000000
00000001
00000000
00001001
00000000
00001000
00000000
00000100
00000000
00010000
00001000
,
00010000
00000000
01000000
00000000
10000000
00000000
00100000
00000000
10100000
00000000
10000000
00000000
01000000
00100000
00001000
00010000
,
00000100
00001000
00000002
00000000
00000023
00000000
00002030
00000000
,
00013000
01000000
10000000
00100000
00010000
00000000
00001000
00000000
,
00022000
00000000
00000000
00000000
,
00033000
00000000
00000000
00000000
;

//---------------dance-double - ----------------
#NOTES:
     dance-double:
     :
     Medium:
     8:
     0.533342,0.530197,0.311881,0.256843,0.036692,407.000000,373.000000,34.000000,28.000000,0.000000,0.000000,0.533342,0.530197,0.311881,0.256843,0.036692,407.000000,373.000000,34.000000,28.000000,0.000000,0.000000:
00000000
00000000
00000000
00000000
,
00000000
00000000
00000000
00000000
,
00100000
00000000
01000000
00000000
00100000
00000000
01000000
00000000
00001000
00010000
00000000
00000000
00000000
00000000
00000000
00000000
,
00000010
00000000
00000100
00000000
00000010
00000000
00000100
00000000
00001000
00010000
00000000
00000000
00000000
00000000
01100000
00000000
,
10000000
00100000
01100000
01000000
00002000
00000000
00023000
00000000
,
00030100
00000010
00000001
00001000
00000002
00000023
00000230
00002300
,
00003100
00010000
00001000
00000000
01000000
00000000
00010000
00100000
,
01000000
10000000
00010000
00000000
01000000
00100000
00010000
00001000
,
00000100
00000000
00000001
00001000
00000010
00000000
00010000
00000000
,
00001000
01000000
00010000
00100000
01000000
10000000
00100000
00000000
,
01000000
00001000
00010000
00000000
00000100
00000000
00001000
00000010
,
00000100
00000001
00001000
00000000
00000100
00000010
00001000
00010000
,
01000000
01100000
00110000
11000000
,
10000000
01000000
00100000
00010000
00001000
00000100
00000010
00000001
,
00002000
00003010
00010010
00020000
,
00031000
01001000
10010000
00020000
,
00130000
00101000
00002000
00013000
,
00010100
00001100
00000001
00001010
,
00000100
00011000
01000000
10010000
,
10000000
01000000
00100000
00000000
00001000
00010000
01000000
00010000
,
00001000
00010000
00000100
00000000
00000010
00000001
00001000
00000001
,
00000200
00000000
00001300
00010000
00200000
00000000
20300000
00000000
,
30010000
10000000
01000000
00100000
00001000
00010000
00000100
00001000
,
00000001
00000100
00000010
00000000
00010000
00001000
00000100
00001000
,
00010000
00001000
02000000
00000000
03200000
00000000
10300000
01000000
,
00010000
00000000
00001000
00000100
00000001
00000000
00000010
00000000
,
00001001
00000000
00000100
00010000
00001000
00000000
00100000
00000000
,
00010000
10000000
01000000
00000000
00010000
00001000
00100000
00001000
,
00010000
00000000
00000010
00001000
00000001
00000000
00000100
00000000
,
00001000
00010000
00000010
00001000
00000001
00000100
00001000
00000000
,
00010000
01000000
10000000
00010000
01000000
00100000
10000000
00000000
,
00010000
00000000
10000000
01000000
00010000
00000000
01000000
00010000
,
00001000
00000000
00010000
00001000
00000100
00000000
00000001
00000000
,
00000010
00000001
00001000
00000010
00010000
00001000
00100000
00000000
,
01010000
00100000
11000000
00010000
,
10000000
01000000
00100000
00002000
00000000
00013000
00000010
00000200
,
00000000
00000301
00000010
00000100
00000000
00010000
00001000
00000000
,
00011000
00000000
00000000
01010000
00000000
00000000
10100000
00000000
,
00000000
10010000
00000000
00000000
02000000
00000000
03002000
00000000
,
00013000
00000100
00010000
00011000
00000000
00000100
00000001
00001000
,
00000010
00010000
00000100
00001000
00000010
00000000
00011000
00000000
,
00100000
00010000
01000000
00001000
00100000
00000000
10010000
00000000
,
10000000
00000000
00000000
01000000
00000000
00000000
00010000
00000000
00001000
00000000
00000000
00000000
00011000
00000000
00000000
00000000
,
00010000
00000000
00000010
00000000
00001000
00000000
00000001
00000000
00000100
00000000
00000000
00000001
00000000
00000000
00000010
00000000
,
00001000
00000000
00010000
00000000
01000000
10000000
00010000
10000000
,
01000000
00010000
00001000
00000000
00100000
00000000
00010000
10000000
,
01000000
00000000
00010000
00001000
00000100
00000000
00001001
00000000
,
00000010
00000001
00001000
00000010
00010000
00001000
01000000
00000000
,
00100000
10000000
00010000
10000000
00100000
01000000
00010000
00000000
,
10000000
01000000
00010000
00000000
00001000
00000100
00000001
00000000
,
00000010
00000000
00000001
00000000
00000100
00000010
00010000
00001000
,
02000000
00010000
10000000
03010000
,
10000000
00000000
00000000
00100000
00000000
00000000
01000000
00000000
00010000
00000000
00100000
00000000
00001000
00000000
00010000
00000000
,
00000010
00000100
00000001
00000000
00000010
00001000
00010000
00000000
,
00001000
00100000
00010000
00000000
10000000
01000000
00010000
01000000
,
10000000
00000000
00100000
00000000
00010000
00000000
00001000
00000100
,
00000001
00000000
00000000
00000000
00000010
00000000
00000000
00000000
00001000
00000000
00000000
00010000
00000000
00000000
00001000
00000000
,
01000000
00000000
00000000
00100000
10000000
00000000
10010000
00000000
,
22000000
00000000
33000000
00010000
,
00001000
00000000
00011000
00000000
00000010
00000100
00000010
00000000
,
00010000
00000000
00011000
00000000
00100000
01000000
00100000
00000000
,
10000000
00000000
11000000
00000000
01000000
00010000
00001000
00000000
,
00000100
00000000
00000000
00000101
00000000
00000000
00000001
00001000
00000001
00001000
00000000
00000000
,
00000200
00000000
00010300
00001000
01000000
00010000
10000000
00100000
,
02000000
00000000
03001000
00010000
00000100
00000000
00000110
00000000
,
00000001
00000100
00002000
00000000
00023000
00000000
01030000
10000000
,
00010000
10000000
00100000
00010000
00001000
00000000
00010000
00000000
,
00022000
00000000
00000000
00000000
,
00033000
00000000
00000000
00000000
;

//---------------dance-double - ----------------
#NOTES:
     dance-double:
     :
     Easy:
     5:
     0.361677,0.499009,0.256843,0.210978,0.018346,276.000000,248.000000,28.000000,23.000000,0.000000,0.000000,0.361677,0.499009,0.256843,0.210978,0.018346,276.000000,248.000000,28.000000,23.000000,0.000000,0.000000:
// measure 0
00000000
00000000
00000000
00000000
,  // measure 1
00000000
00000000
00000000
00000000
,  // measure 2
00022000
00000000
00000000
00000000
00033000
00000000
00000000
00000000
00010000
00001000
00000000
00000000
00000000
00000000
00000000
00000000
,  // measure 3
00022000
00000000
00000000
00000000
00033000
00000000
00000000
00000000
00001000
00010000
00000000
00000000
00000000
00000000
00000000
00000000
,  // measure 4
00000010
00000100
00000110
00000000
00000001
00001000
00001001
00000000
,  // measure 5
00000001
00000000
00000000
00000010
00000000
00000000
00000100
00000000
00010000
00000000
00001000
00000000
01000000
00000000
00100000
00000000
,  // measure 6
10000000
00010000
10000000
00000000
00100000
00000000
01000000
00000000
,  // measure 7
00001000
00010000
00001000
00000000
00010000
00000000
00000100
00000000
,  // measure 8
00001000
00001000
00000001
00000001
,  // measure 9
00000200
00000000
00000310
00001000
,  // measure 10
00000001
00001000
00000001
00000000
00000010
00000000
00000100
00000000
,  // measure 11
00010000
00001000
00010000
00000000
00001000
00000000
01000000
00000000
,  // measure 12
00010000
00000000
10000000
01000000
10000000
00000000
00100000
00000000
,  // measure 13
00020000
00000000
00000000
00030000
,  // measure 14
00001000
00001000
00011000
00000010
,  // measure 15
00000010
00000110
00000001
00001000
,  // measure 16
00001000
00001100
00000100
00000100
,  // measure 17
00010000
00001000
00100000
01000000
,  // measure 18
10000000
01000000
00100000
00010000
,  // measure 19
10000000
00010000
10000000
00000000
01000000
00000000
00100000
00000000
,  // measure 20
00001000
00010000
00001000
00000000
00010000
00000000
00000010
00000000
,  // measure 21
00002000
00000000
00003001
00000010
,  // measure 22
00000100
00001000
00000100
00000010
,  // measure 23
00000001
00001000
00000001
00000000
00000100
00000000
00000010
00000000
,  // measure 24
00010000
00001000
00010000
00000000
00001000
00000000
00100000
00010000
,  // measure 25
10000000
00000000
00100000
10000000
00010000
00000000
01000000
00000000
,  // measure 26
00001000
00010000
00011000
00000000
,  // measure 27
00000010
00001000
00000010
00000000
00000100
00000000
00000001
00000000
,  // measure 28
00001000
00000100
00010000
00001000
,  // measure 29
00200000
00000000
00000000
00320000
00000000
00000000
01030000
00000000
,  // measure 30
00100000
10000000
01000000
00010000
,  // measure 31
00011000
00000000
00001100
00000000
,  // measure 32
00000101
00000000
00001001
00000000
,  // measure 33
00000001
00000010
00000100
00001000
,  // measure 34
00010000
00100000
01000000
10000000
,  // measure 35
00010000
00000000
00000000
00110000
00000000
00000000
00000000
11000000
,  // measure 36
00000000
00000000
00000000
10010000
00000000
00000000
00000000
00000000
,  // measure 37
00110000
00000000
00000000
00101000
00000000
00000000
00011000
00000000
,  // measure 38
00000000
00010100
00000000
00000000
00000100
00000000
00000010
00000000
,  // measure 39
00000001
00000100
00000001
00000100
00000000
00000010
00001000
00000000
,  // measure 40
00000100
00010000
00002000
00003000
,  // measure 41
01000000
00001000
00010000
00100000
,  // measure 42
10000000
00000000
00000000
10000000
00000000
00000000
10000000
00000000
00020000
00000000
00000000
00000000
00030000
00000000
00000000
00000000
,  // measure 43
00100000
00001000
00010000
00000010
,  // measure 44
00002000
00003000
00000001
00000100
,  // measure 45
00000010
00001000
00000010
00000000
00010000
00000000
00001000
00000000
,  // measure 46
02000000
00000000
00000000
03100000
,  // measure 47
10000000
00000000
10000000
00000000
00010000
01000000
00010000
00000000
,  // measure 48
00100000
00000000
00100000
00000000
00001000
00010000
00001000
00000000
,  // measure 49
00000100
00000000
00000100
00000000
00000001
00001000
00000001
00000000
,  // measure 50
00002002
00000000
00000000
00003003
,  // measure 51
00000100
00010000
00001000
00100000
,  // measure 52
00020000
00030000
10000000
10000000
,  // measure 53
02000000
00000000
03000000
00000000
,  // measure 54
00020000
00000000
00030000
00000000
,  // measure 55
00001000
00000100
00000001
00000100
,  // measure 56
00001000
00010000
01000000
10000000
,  // measure 57
02000000
00000000
03000000
00010000
00001000
00000000
00000100
00000000
,  // measure 58
00000002
00000000
00000000
00001003
,  // measure 59
00000100
00010100
00010000
00011000
,  // measure 60
00001000
01001000
01000000
01010000
,  // measure 61
00010000
10010000
10000000
11000000
,  // measure 62
00100000
00110000
10010000
00000000
,  // measure 63
10000000
01000000
00020000
00030000
,  // measure 64
00001000
00000100
00000002
00000003
,  // measure 65
00001000
00000001
00000100
00000000
00000010
00000000
00010000
00000000
,  // measure 66
00001000
01000000
00010000
00000000
00100000
00000000
01000000
00000000
,  // measure 67
00200000
00000000
00000000
00000000
,  // measure 68
00300000
00000000
00000000
00000000
;
