#TITLE:m1dy Festival;
#SUBTITLE:;
#ARTIST:m1dy;
#TITLETRANSLIT:;
#SUBTITLETRANSLIT:;
#ARTISTTRANSLIT:;
#GENRE:;
#CREDIT:;
#BANNER:m1dy Festival.png;
#BACKGROUND:m1dy Festival-bg.png;
#LYRICSPATH:;
#CDTITLE:;
#MUSIC:m1dy Festival.ogg;
#OFFSET:-0.220000;
#SAMPLESTART:17.407000;
#SAMPLELENGTH:14.999985;
#SELECTABLE:YES;
#DISPLAYBPM:*;
#BPMS:0.000000=112.500000
,14.000000=225.001007
,79.000000=450.018005
,207.000000=225.000000
,264.000000=112.500000
,266.000000=225.000000
,296.000000=450.000000
,352.000000=225.000000
,355.000000=450.000000
,420.000000=112.500000
,448.500000=225.000000
,449.000000=450.000000
;
#STOPS:14.000000=0.860000,
79.000000=0.940000,
142.000000=0.140000,
235.000000=0.760000,
294.000000=0.540000,
355.000000=0.130000,
434.250000=0.800000,
449.000000=0.800000
;
#BGCHANGES:0.000=m1dy Festival.avi=1.000=1=0=0=StretchNoLoop==CrossFade==,
99999=-nosongbg-=1.000=0=0=0 // don't automatically add -songbackground-
;
#KEYSOUNDS:;
#ATTACKS:;

//---------------dance-single - ----------------
#NOTES:
     dance-single:
     :
     Challenge:
     11:
     1.138252,2.259268,0.313108,0.313108,0.350186,967.000000,929.000000,38.000000,38.000000,0.000000,0.000000,1.138252,2.259268,0.313108,0.313108,0.350186,967.000000,929.000000,38.000000,38.000000,0.000000,0.000000:
0000
0000
0000
0000
,
0000
0000
0000
0000
,
0000
0000
0000
0000
,
0000
0000
0000
0000
1001
0000
1000
0100
,
0010
0000
0001
1000
0010
0000
0100
0001
1000
0000
0100
0000
0010
0000
0001
0000
,
1000
0010
1000
0001
0100
0000
0010
0000
2000
0000
3000
0000
0210
0000
0000
0000
,
0301
0000
1000
0010
0100
0000
0001
1000
0100
0000
0010
0000
0001
0000
1000
0000
,
0010
0000
1000
0001
0100
0000
0010
0000
1000
0000
0100
0000
2001
0000
0000
0000
,
3010
0000
0100
0001
1000
0000
0010
0100
0001
0000
1000
0000
0100
0000
1000
0000
,
0001
0100
0010
1000
0001
0000
0010
0000
0200
0000
0300
0000
1002
0000
0000
0000
,
0103
0000
0000
0010
2000
0000
0000
0000
3001
0000
0100
0000
0010
1000
0010
0000
,
0100
0000
0001
0010
0100
0000
1000
0000
0020
0000
0000
0000
0130
0000
0001
0000
,
1000
0000
0010
0100
0001
0000
1000
0100
0010
0000
0001
0000
0100
0000
0010
0000
,
1000
0100
0010
0001
1000
0000
0001
0000
0100
0000
0010
0000
1000
0000
0100
0000
,
0010
0000
0001
0010
0100
0000
1000
0100
0010
0000
0001
0000
0100
0000
0010
0000
,
1000
0010
0100
0001
1000
0000
0010
0000
0100
0000
0001
0000
1000
0000
0100
0000
,
0010
0000
0001
0100
0010
0000
1000
0010
0100
0000
0001
0000
0100
0000
0010
0000
,
1000
0001
0010
0100
1000
0000
0010
0000
0100
0000
0001
0000
0100
0000
0010
0000
,
1000
0000
0010
0100
0001
0000
1000
0100
0010
0000
0001
0000
0100
0000
0010
0000
,
1000
0000
0001
0100
0020
0000
2030
0000
3002
0000
0003
0000
0110
0000
0000
0000
,
1000
0100
0010
0001
1000
0000
0010
0000
,
0100
0000
0001
0000
1000
0000
0100
0010
,
0001
0000
0100
0010
1000
0000
0001
0000
,
1000
0100
0010
0001
,
0100
0010
1000
0001
0100
0000
0010
0000
,
1000
0000
0001
0100
0010
0000
1000
0010
,
0100
0000
0001
0010
0100
1000
0001
0000
,
0100
0010
1000
0000
0002
0000
0003
0000
,
0100
0010
1000
0001
0010
0000
0100
0000
,
1000
0000
0001
0000
0100
0000
0010
1000
,
0001
0000
0010
0100
1000
0000
0001
0000
,
0100
0010
1000
0001
,
0010
0100
1000
0001
0100
0000
0010
0000
,
1000
0000
0100
0010
0001
0000
1000
0010
,
0100
0000
0000
0000
0000
0000
0001
0000
0000
0010
0000
0000
0100
0000
0000
1000
0000
0000
0001
0000
0100
0000
0001
0000
,
0100
0010
1000
0000
0002
0000
0103
0010
,
1000
0100
0010
0001
0100
0010
1000
0001
,
0010
0001
1000
0100
0010
0001
0100
0010
,
1000
0010
0100
0001
0010
0100
1000
0001
,
1000
0010
0100
0001
0100
0010
1000
0100
,
0010
0001
1000
0010
1000
0001
0010
0001
,
1000
0100
0010
0001
0100
0010
1000
0001
,
0010
0100
1000
0010
0100
0001
0010
0100
,
1000
0010
1000
0001
0200
0300
0010
1000
,
0100
0010
0001
1000
0010
0100
0001
0010
,
0001
1000
0100
0010
0001
0100
0010
1000
,
0001
0010
0100
1000
0001
0010
0001
1000
,
0100
0010
0001
1000
0100
1000
0010
0100
,
0001
0100
0010
1000
0100
0010
0001
0100
,
0010
1000
0001
0100
0001
1000
0010
1000
,
0100
0010
0001
0000
0100
0000
0001
1000
,
0100
0010
0001
0100
0010
1000
1001
0000
,
1100
0011
0110
0101
,
1010
0110
0011
1010
,
1001
0110
0101
1010
,
0110
0000
1100
1000
1001
0001
0011
0000
,
0110
0101
0110
1100
,
0110
1001
1100
1001
,
0011
0110
0101
1200
,
0301
0000
1000
0000
0100
0000
0010
0000
0001
0000
0100
0000
0010
0000
1000
0100
,
0010
0000
0001
0000
1000
0000
0100
0000
1000
0000
0001
0000
0100
0000
0010
0100
,
0001
0000
1000
0000
0010
0000
0100
0000
0001
0000
0100
0000
0010
0000
0001
1000
,
0100
0000
0010
0000
0001
0000
0100
0001
1000
0000
0100
1000
0001
0000
1000
0000
,
0001
0000
0100
0000
0010
0000
0100
0000
1000
0000
0010
0000
1000
0000
0100
0001
,
1000
0000
0100
0000
0010
0000
0100
0000
0010
0000
0001
0000
1000
0000
0001
0100
,
0010
1000
0100
0010
0001
0100
0020
0030
,
2002
0000
3003
0000
0002
0013
0100
1000
,
0001
0000
0100
0000
0010
0000
1000
0001
0010
0000
0100
0000
1000
0000
0100
0000
,
1000
0000
0001
0000
0100
0000
0010
1000
0001
0000
0010
0000
0100
0000
0010
0000
,
0001
0000
0100
0000
0010
0000
1000
0100
0010
0000
0001
0000
1000
0000
0010
1000
,
0100
0000
0010
0001
0100
0000
0001
0000
1000
0000
0010
0000
0100
0000
0001
0000
,
1000
0000
0100
0000
1000
0000
0100
1000
0010
0000
1000
0000
0001
0000
0100
0000
,
0010
0000
1000
0000
0001
0000
0100
1000
0001
0000
0100
0000
0010
0000
0001
0000
,
1000
0100
1000
0010
0200
0000
0300
0000
,
1000
0100
0010
0001
,
0100
0000
0010
1000
0001
0000
0010
0100
,
1000
0100
1000
0001
,
0100
0000
0010
1000
0010
0000
0100
0001
,
1000
0100
0010
0001
,
0100
0000
0010
1000
0100
0000
0010
0001
,
0100
0000
0010
0000
1000
0000
0100
0010
,
0001
0000
0100
0010
1000
0000
0002
0000
,
1003
0010
0100
0001
,
1000
0000
0010
0100
0001
0000
0010
0100
,
1000
0100
1000
0001
,
0100
0000
0010
1000
0100
0000
0010
0001
,
1000
0100
0010
0001
,
0100
0000
0010
1000
0001
0000
0100
0010
,
1000
0000
0001
0000
1000
0100
0020
0000
0031
0000
0200
0000
0310
0000
0000
0000
,
1000
0010
1000
0001
,
0010
0000
0100
1000
0001
0000
0010
0100
,
1000
0100
1000
0001
,
0100
0000
0010
1000
0010
0000
0100
0001
,
1000
0100
0010
0001
,
0100
0000
0010
1000
0100
0000
0010
0001
,
0100
0000
0010
0000
1000
0000
0100
0010
,
0001
0000
0100
0010
1000
0000
0020
0000
,
1030
0001
0100
0001
,
1000
0000
0010
0100
0001
0000
0010
0100
,
1000
0100
1000
0001
,
0100
0000
0010
1000
0100
0000
0010
0001
,
1000
0100
0010
0001
,
0100
0000
0010
1000
0001
0000
0100
0010
,
1000
0000
0001
0010
0100
0000
1000
0100
,
0010
0002
0103
0010
,
1000
0000
0100
0000
0010
0000
0001
0000
0100
0000
0010
0000
1000
0000
0001
0100
0010
0000
1000
0000
0100
0000
1000
0000
0001
0000
0100
0000
0010
0000
0100
0001
,
1000
0000
0100
0000
0010
0000
0001
0000
0100
0000
0010
0000
1000
0000
0001
0100
0010
0000
1000
0000
0100
0000
0010
0001
1000
0000
0010
0100
0001
0000
1000
0000
,
0010
0000
0100
0000
0001
0000
1000
0000
0100
0000
1000
0000
0010
0000
0100
0001
1000
0000
0010
0000
0100
0000
0010
0000
1000
0000
0001
0000
0010
0000
0001
1000
,
0010
0000
0100
0000
0001
0000
1000
0000
0100
0000
1000
0000
0010
0000
0100
0000
2002
0000
0000
3003
0000
0000
0000
0000
0000
0000
0000
0000
0000
0000
0000
0000
,
0000
0000
0000
0000
,
0000
0000
0000
0000
,
0000
0000
0000
0000
,
0000
2002
3003
0000
1000
0100
1000
0001
,
0010
0000
0100
0000
1000
0000
0010
0100
,
0001
1000
0100
0010
0001
0000
0100
0010
,
1000
0000
0001
0000
1000
0000
0001
0000
0000
0100
0000
0000
0010
0000
0000
0000
0000
0000
2000
0000
0000
3000
0000
0000
,
0001
0000
0100
0000
0010
1000
0100
1000
,
0001
0000
0100
0000
0010
0000
1000
0100
,
0010
0000
0001
1000
0010
0000
0100
0001
,
1000
0100
0010
0001
0100
0010
2000
3000
,
0002
0000
0003
0000
1000
0100
0010
0001
,
0010
0100
1000
0010
,
0100
0000
0001
1000
0001
0000
1000
0010
,
0100
0001
1000
0000
0100
0000
0010
0000
,
0001
0100
0010
0000
1000
0100
0010
0001
,
1000
0000
0010
0000
0100
0000
0001
1000
,
0010
0000
0100
0001
1000
0000
0100
0000
,
0010
0001
1000
0010
1000
0001
0100
0000
,
0020
0000
0030
0000
1000
0001
0100
0010
,
1000
0000
0001
0000
0100
0000
0010
1000
,
0100
1000
0001
0100
0010
0000
1000
0100
,
0010
0001
0100
0010
1000
0000
0002
0003
,
0200
0000
0300
0000
0010
1000
0001
0100
,
0001
0000
1000
0000
0010
0000
0100
0001
,
0010
0100
1000
0001
0100
0000
0010
0100
,
0001
0010
0001
1000
0010
0100
0001
0000
,
2000
0000
3000
0000
0100
0010
0001
1000
,
0010
0000
0100
0000
0001
0000
1000
0001
,
0010
0100
1000
0001
0100
0000
0010
0001
,
0100
0010
1000
0100
0010
0000
0001
0000
,
2000
0000
3000
0000
0100
0010
0001
1000
,
0010
0000
0100
0000
0001
0000
1000
0100
,
1000
0010
0100
0001
1000
0000
0010
0100
,
0001
0000
0000
1000
0000
0000
0010
0000
0100
0000
0010
0000
0100
0000
0000
0001
0000
0000
1000
0000
0000
0000
0000
0000
,
2002
0000
0000
0000
0000
3003
0000
0000
0000
0000
0000
0000
0000
0000
0000
0000
;

//---------------dance-single - ----------------
#NOTES:
     dance-single:
     :
     Beginner:
     5:
     0.301337,0.594287,0.041198,0.049438,0.000000,256.000000,251.000000,5.000000,6.000000,0.000000,0.000000,0.301337,0.594287,0.041198,0.049438,0.000000,256.000000,251.000000,5.000000,6.000000,0.000000,0.000000:
0000
0000
0000
0000
,
0000
0000
0000
0000
,
0000
0000
0000
0000
,
0000
0000
0000
0001
,
0000
1000
0000
0010
,
0000
1000
0000
0001
,
0000
0010
0000
0100
,
0000
0100
0000
1000
,
0000
0001
0000
1000
,
0000
0010
0000
0100
,
0000
0100
0000
0200
,
0000
0000
0300
0001
,
0000
1000
0000
0100
,
0000
0010
0000
1000
,
0000
0001
0000
0100
,
0000
0010
0000
0001
,
0000
1000
0000
0100
,
0000
0001
0000
1000
,
0000
0010
0000
0100
,
0000
0002
0000
1003
,
0100
0000
1000
0000
,
0010
0000
1000
0000
,
0001
0000
0100
0000
,
0010
0000
0000
0000
,
1000
0000
0100
0000
,
0010
0000
0001
0000
,
0100
0000
0010
0000
,
1001
0000
0000
0000
,
0100
0000
1000
0000
,
0001
0000
0100
0000
,
0010
0000
1000
0000
,
0100
0000
0000
0000
,
1000
0000
0001
0000
,
0010
0000
0100
0000
,
1000
0000
0001
0000
,
0100
0000
0000
0010
,
0000
1000
0000
0010
,
0000
1000
0000
0001
,
0000
1000
0000
0001
,
0000
1000
0000
0100
,
0000
0001
0000
0100
,
0000
0001
0000
0010
,
0000
0001
0000
0010
,
0000
0001
0000
1000
,
0000
0100
0000
0010
,
0000
0001
0000
1000
,
0000
0010
0000
0100
,
0000
0001
0000
1000
,
0000
0100
0000
1000
,
0000
0001
0000
0010
,
0000
0100
0000
1000
,
0000
0010
0000
0100
,
0000
0100
0000
0100
,
0000
0100
0000
0100
,
0000
0100
0000
0001
,
0000
1000
0001
1000
,
0000
1000
0000
1000
,
0000
1000
0000
1000
,
0000
1000
0000
0010
,
0100
0000
0000
0000
,
1000
0000
0000
0000
,
0001
0000
0000
0000
,
0010
0000
0000
0000
,
0001
0000
0001
0000
,
1000
0000
1000
0000
,
0010
0000
0010
0000
,
0200
0300
0001
0000
,
0001
0000
1000
1000
,
1000
0000
0010
0000
,
0010
0000
0100
0100
,
0100
0000
0010
0010
,
0010
0000
0001
0001
,
0001
0000
1000
1000
,
1000
0000
1001
0000
,
1000
0000
0000
0000
,
0001
0000
0000
0000
,
1000
0000
0000
0000
,
0001
0000
0000
0000
,
0010
0000
0000
0000
,
0100
0000
0000
0000
,
1000
0000
0100
0000
,
0010
0000
0001
0000
,
1000
0000
0000
0000
,
1000
0000
0000
0000
,
0010
0000
0000
0000
,
0010
0000
0000
0000
,
0100
0000
0000
0000
,
0100
0000
0000
0000
,
0010
0000
0000
0000
,
0001
0000
1000
0000
,
0010
0000
0100
0000
,
0001
0000
1000
0000
,
0100
0000
1000
0000
,
0001
0000
0010
0000
,
0100
0000
1000
0000
,
0010
0000
0010
0000
,
0100
0000
0100
0000
,
0001
0000
1000
0000
,
0010
0000
0100
0000
,
0001
0000
0010
0000
,
0100
0000
1000
0000
,
0001
0000
1000
0000
,
0010
0000
0100
0000
,
0001
0000
1000
0000
,
0100
0000
0010
0000
,
0001
1000
0010
0100
,
0001
1000
0010
1001
,
0100
0010
0001
1000
,
0010
0200
0301
0000
,
0000
0000
0000
0000
,
0000
0000
0000
0000
,
0000
0000
0000
0000
,
0000
0000
0001
0000
,
1000
0000
0010
0000
,
0100
0000
0001
0000
,
1000
0000
0100
0000
,
0000
0000
0010
0000
,
0001
0000
1000
0000
,
0010
0000
0100
0000
,
0001
0000
1001
0000
,
0000
0000
0100
0000
,
1000
0000
0010
0000
,
0100
0000
0001
0000
,
0010
0000
0100
0000
,
0000
0000
0010
0000
,
0001
0000
1000
0000
,
0010
0000
0100
0000
,
0001
0000
1000
0000
,
0000
0000
0100
0000
,
0000
0000
0000
0000
,
0000
0000
0010
0000
,
1000
0000
0001
0000
,
0010
0000
0100
0000
,
0000
0000
0000
0000
,
0000
0000
0010
0000
,
0001
0000
1000
0000
,
0010
0000
0100
0000
,
0000
0000
0000
0000
,
0000
0000
0001
0000
,
0100
0000
1000
0000
,
0010
0000
0001
0000
,
0000
0000
0000
0000
,
0000
0000
1000
0000
,
0001
0000
0010
0000
,
0220
0330
0000
0000
;

//---------------dance-single - ----------------
#NOTES:
     dance-single:
     :
     Easy:
     7:
     0.557944,0.891430,0.115355,0.123595,0.000000,474.000000,460.000000,14.000000,15.000000,0.000000,0.000000,0.557944,0.891430,0.115355,0.123595,0.000000,474.000000,460.000000,14.000000,15.000000,0.000000,0.000000:
0000
0000
0000
0000
,
0000
0000
0000
0000
,
0000
0000
0000
0000
,
0000
0000
1001
0100
,
0001
0000
1000
0000
0100
0000
0010
0100
,
0010
0100
0010
0001
0010
0000
0100
0000
,
0001
0000
1000
0000
0010
0000
1000
0010
,
1000
0001
0100
0001
0100
0000
0010
0000
,
1000
0000
0100
0000
0001
0000
0100
0010
,
0100
0010
1000
0001
1000
0000
1100
0000
,
0000
0000
0101
0000
0000
0000
0010
0100
,
0010
0000
1000
1000
1000
0000
0100
0000
,
0010
0000
0001
0000
1000
0000
0010
1000
,
0010
1000
0001
1000
0001
0000
0010
0000
,
0100
0000
1000
0000
0001
0000
0100
0001
,
0100
0001
1000
0001
1000
0000
0010
0000
,
0100
0000
0001
0000
1000
0000
0100
0010
,
0100
0010
0001
0010
0001
0000
1000
0000
,
0010
0000
0100
0000
0001
0000
1000
0100
,
1000
0100
1000
0001
1000
0000
1001
0000
,
0010
0100
0001
1000
,
0010
0000
0100
0000
,
0001
1000
0100
1000
,
0001
0100
0001
0000
,
1000
0100
0010
0100
,
0010
0000
0001
0000
,
1000
0010
1000
0000
,
1001
0000
0000
0000
,
0010
0100
0001
1000
,
0010
0000
0100
0000
,
0010
0001
0010
0001
,
1000
0100
1000
0000
,
0001
0100
0010
1000
,
0001
0000
0001
0000
,
1000
0100
1000
0000
,
1001
0000
0000
0010
,
1000
0010
1000
0010
,
1000
0010
1000
0010
,
1000
0010
1000
0010
,
1000
0010
0000
0001
,
0010
0001
0010
0001
,
0010
0001
0010
0001
,
0010
0001
0010
0001
,
0010
0001
0000
0100
,
0010
0100
0010
0100
,
0010
0100
0010
0100
,
0010
0100
0010
0100
,
0010
0100
0000
1000
,
0001
1000
0001
1000
,
0001
1000
0001
1000
,
0001
1000
0001
1000
,
0001
1000
0000
0010
,
0010
0010
0010
0010
,
0010
0010
0010
0010
,
0010
0010
0010
0010
,
0010
1010
0101
0100
,
0100
0100
0100
0100
,
0100
0100
0100
0100
,
0100
0100
0100
0110
,
0001
1000
0100
1000
,
0001
0100
0010
1000
,
0001
0010
0001
0010
,
0100
1000
0100
1000
,
0001
0001
0001
0001
,
1000
1000
1000
1000
,
0010
0010
0010
0010
,
0200
0300
0001
1000
,
0100
0000
1000
0010
,
1000
0000
0100
0010
,
0001
0000
0100
0010
,
0100
0000
0001
0100
,
0010
1000
0001
0010
,
0100
1000
0010
1000
,
0001
0100
0010
0000
,
0001
0000
1000
0000
,
0010
0000
0100
0000
,
0001
0000
1000
0000
,
0100
0000
1000
0000
,
0001
0000
0100
0000
,
0010
0000
0100
0000
,
0001
0010
0001
0000
,
1000
0100
1000
0000
,
0010
0000
1000
0000
,
0001
0000
0100
0000
,
0010
0000
1000
0000
,
0100
0000
0001
0000
,
1000
0010
1000
0001
,
0010
0001
1000
0000
,
1000
0001
1000
0002
0000
0003
0000
0000
,
0001
1000
0100
0000
,
1000
0001
0100
0000
,
0001
1000
0010
0000
,
1000
0001
0010
0000
,
0100
1000
0001
0000
,
1000
0010
0100
0000
,
0001
0010
0100
0000
,
1000
0001
1000
0000
,
0010
0100
0001
0000
,
1000
0010
1000
0000
,
0100
0010
0001
0000
,
0001
0010
0001
0000
,
0100
0010
1000
0000
,
0010
1000
0001
0000
,
0100
1000
0001
1000
,
0010
0100
0001
0000
,
1001
0001
1000
0000
0010
0100
0001
0000
,
1000
0100
1000
0000
0020
0032
2003
3020
,
0130
0001
1000
0000
0100
1000
0001
0000
,
0001
0000
0000
0000
0010
0000
0000
0000
0100
0000
0000
0000
1000
0000
0000
0000
0002
0000
0000
0003
0000
0000
0000
0000
0000
0000
0000
0000
0000
0000
0000
0000
,
0000
0000
0000
0000
,
0000
0000
0000
0000
,
0000
0000
0000
0000
,
0000
2002
3003
0000
0010
0000
0000
0000
,
1000
0000
0001
0000
,
0100
0000
0010
1000
,
0010
1000
0001
1000
,
0001
0000
0010
0000
,
0100
0000
1000
0000
,
0001
0000
0100
0001
,
0100
0000
1001
0000
,
0000
0000
0010
1000
,
0001
0000
0010
0001
,
1000
0000
0100
1000
,
0001
0100
0001
1000
,
0010
0000
1000
0100
,
1000
0000
0001
0010
,
0001
0000
1000
0010
,
0100
0000
1001
0000
,
0000
0000
0020
0000
,
0000
0000
0000
0030
,
0000
0000
1000
0100
,
1000
0100
1000
0100
,
1000
0000
0020
0000
,
0000
0000
0000
0000
,
0030
0000
0001
0100
,
0001
0100
0001
0100
,
0001
0000
0020
0000
,
0000
0000
0000
0030
,
0000
0000
0010
1000
,
0010
1000
0010
1000
,
0010
0000
0020
0000
,
0000
0000
0000
0030
,
0000
0000
0001
0010
,
0100
1000
0001
0000
,
2002
3003
0000
0000
;

//---------------dance-single - ----------------
#NOTES:
     dance-single:
     :
     Hard:
     11:
     0.942854,1.961146,0.214232,0.230711,0.160674,801.000000,775.000000,26.000000,28.000000,0.000000,0.000000,0.942854,1.961146,0.214232,0.230711,0.160674,801.000000,775.000000,26.000000,28.000000,0.000000,0.000000:
// measure 0
0000
0000
0000
0000
,  // measure 1
0000
0000
0000
0000
,  // measure 2
0000
0000
0000
0000
,  // measure 3
0000
0000
0000
0000
1001
0000
0010
1000
,  // measure 4
0100
0000
0000
0010
0001
0000
0000
0000
1000
0000
0100
0000
1000
0000
0010
0000
,  // measure 5
0100
0000
0001
0100
0001
0000
1000
0000
0010
0000
0000
0000
1100
0000
0000
0000
,  // measure 6
0101
0000
0000
0010
1000
0000
0000
0000
0100
0000
0010
0000
0001
0000
1000
0000
,  // measure 7
0100
0000
0010
0100
0010
0000
0100
0000
1000
0000
0010
0000
0110
0000
0000
0000
,  // measure 8
0101
0000
0000
1000
0100
0000
0000
0000
0001
0000
0100
0000
0010
0000
1000
0000
,  // measure 9
0100
0000
0010
0001
0010
0000
0100
0000
1000
0000
0000
0000
1100
0000
0000
0000
,  // measure 10
0001
0000
0101
0000
1000
0010
0100
0000
,  // measure 11
0010
0000
0020
0230
0310
0000
1100
0000
,  // measure 12
0101
0000
0000
1000
0010
0000
0000
0000
1000
0000
0100
0000
0010
0000
0001
0000
,  // measure 13
1000
0000
0100
1000
0100
0000
1000
0000
0010
0000
1000
0000
1100
0000
0000
0000
,  // measure 14
1001
0000
0000
0100
0010
0000
0000
0000
0001
0000
1000
0000
0100
0000
0010
0000
,  // measure 15
0001
0000
1000
0001
1000
0000
0010
0000
1000
0000
0001
0000
0011
0000
0000
0000
,  // measure 16
0101
0000
0000
0100
1000
0000
0000
0000
0001
0000
1000
0000
0100
0000
0010
0000
,  // measure 17
0001
0000
1000
0010
1000
0000
0100
0000
1000
0000
0000
0000
0011
0000
0000
0000
,  // measure 18
1100
0000
0000
0001
0010
0000
0000
0000
0100
0000
1000
0000
0010
0000
0100
0000
,  // measure 19
0001
0000
1000
0100
0010
0000
0100
0000
0002
0000
0000
0000
1003
0000
0000
0000
,  // measure 20
0010
0100
0010
0100
0010
0000
1000
0000
,  // measure 21
0100
0000
0001
0000
0100
0000
0010
1000
,  // measure 22
0100
0000
1000
0000
0001
0010
0001
0010
,  // measure 23
0001
1000
0001
0000
,  // measure 24
0010
1000
0010
1000
0010
0000
1000
0000
,  // measure 25
0100
0000
0010
0000
0001
0000
0100
0010
,  // measure 26
0100
0000
0001
0000
1000
0100
1000
0100
,  // measure 27
1000
0001
0200
0300
,  // measure 28
0010
0100
0001
1000
0010
0000
1000
0000
,  // measure 29
0100
0000
1000
0000
0001
0000
0010
0100
,  // measure 30
0010
0000
0001
0000
0100
0010
0100
0010
,  // measure 31
0100
0001
1000
0000
,  // measure 32
0001
1000
0010
1000
0001
0000
1000
0000
,  // measure 33
0100
0000
1000
0000
0001
0000
1000
0001
,  // measure 34
0010
0000
0001
0000
0100
0001
0100
0001
,  // measure 35
0100
0000
0010
0000
0100
0000
1000
0010
,  // measure 36
1000
0000
0001
0010
0001
0000
0100
0010
,  // measure 37
0100
0000
1000
0001
1000
0000
0001
0100
,  // measure 38
0001
0000
1000
0100
1000
0000
0010
0100
,  // measure 39
0010
0000
2000
0000
3000
0000
0001
0010
,  // measure 40
0001
0010
0001
0000
1000
0000
0010
1000
,  // measure 41
0010
1000
0010
0000
0100
0000
0001
0100
,  // measure 42
0001
0100
0001
0000
1000
0000
0010
0000
,  // measure 43
0100
0000
0002
0000
0003
0000
0010
1000
,  // measure 44
0010
1000
0010
1000
0010
0000
0100
0001
,  // measure 45
0100
0001
0100
0001
0100
0000
0010
0001
,  // measure 46
0010
0001
0010
0001
0010
0000
0100
1000
,  // measure 47
0100
1000
0100
1000
0100
0000
0001
1000
,  // measure 48
0001
1000
0001
1000
0001
1000
0010
0100
,  // measure 49
0010
0100
0010
0100
0010
0000
0001
0100
,  // measure 50
0010
0000
1000
0100
0010
0000
1000
0001
,  // measure 51
0010
0000
0001
1000
0010
0000
1000
0000
,  // measure 52
1000
0100
0001
0100
,  // measure 53
0010
1000
0001
1000
,  // measure 54
0100
1000
0010
0001
,  // measure 55
0100
0000
0001
0010
1000
0100
0001
0000
,  // measure 56
0010
1000
0010
0100
,  // measure 57
0001
0100
0001
1000
,  // measure 58
0100
1000
0002
1003
,  // measure 59
0001
0100
0010
1000
0100
1000
0001
1000
,  // measure 60
0100
0010
0001
1000
0010
0100
0001
0100
,  // measure 61
0010
0100
0001
0010
0100
1000
0001
0100
,  // measure 62
0010
0100
0010
0100
0001
1000
0001
1000
,  // measure 63
0100
0010
0001
1000
0010
1000
0100
1000
,  // measure 64
0010
0100
0001
0010
0001
0100
0001
0010
,  // measure 65
0100
1000
0001
0100
0010
1000
0100
0001
,  // measure 66
0020
0000
0030
0000
0010
1000
0100
0000
,  // measure 67
0001
0100
0010
1000
0100
0010
0001
0000
,  // measure 68
1000
0100
1000
0001
0100
0010
1000
0000
,  // measure 69
1000
0010
0100
0001
0010
0001
0010
0001
,  // measure 70
1000
0100
1000
0001
0100
0010
1000
0000
,  // measure 71
1000
0100
1000
0010
1000
0001
0100
0000
,  // measure 72
0010
0100
0001
0010
0100
0010
0001
1000
,  // measure 73
0010
0100
0001
1000
0200
0000
0300
0000
,  // measure 74
0001
1000
0010
1000
,  // measure 75
0100
0000
0010
0000
0001
0000
1000
0001
,  // measure 76
1000
0010
0100
0001
,  // measure 77
1000
0000
0100
0000
0010
0000
0100
0010
,  // measure 78
0100
0010
0001
1000
,  // measure 79
0010
0000
0100
0000
0001
0000
1000
0100
,  // measure 80
1000
0000
0100
0000
0010
0000
0001
0010
,  // measure 81
0001
0010
0100
1000
,  // measure 82
0010
1000
0001
0100
,  // measure 83
0010
0000
0100
0000
0001
0000
1000
0100
,  // measure 84
1000
0001
0010
0100
,  // measure 85
1000
0000
0010
0000
1000
0000
0001
0100
,  // measure 86
0001
0100
0010
1000
,  // measure 87
0001
0010
0100
1000
,  // measure 88
0001
0000
1000
0000
0001
1000
0002
0000
0000
0000
1000
0000
0003
0000
0000
0000
,  // measure 89
0010
1000
0100
0010
,  // measure 90
0001
0000
1000
0000
0010
0000
0100
0001
,  // measure 91
0100
0010
1000
0100
,  // measure 92
0010
0000
0001
0000
1000
0000
0100
1000
,  // measure 93
0100
1000
0010
0100
,  // measure 94
0001
0000
1000
0000
0100
0000
0010
0100
,  // measure 95
0010
0000
0001
0000
1000
0000
0010
1000
,  // measure 96
0010
0000
1000
0001
0010
0000
0100
0000
,  // measure 97
1000
0010
0100
0001
,  // measure 98
1000
0000
0100
0000
1000
0000
0001
0100
,  // measure 99
0001
0100
0010
1000
,  // measure 100
0100
0000
0010
0000
0001
0000
1000
0100
,  // measure 101
1000
0010
1000
0001
,  // measure 102
0010
0000
0100
0000
1000
0000
0001
0100
,  // measure 103
0001
0000
1000
0010
1000
0000
0100
0000
,  // measure 104
0010
0000
0001
0000
0100
0010
0100
0010
,  // measure 105
1000
0001
1000
0100
1000
0010
1000
0001
0010
1000
0010
0100
0010
0001
0010
1000
,  // measure 106
0001
0100
0001
0010
0001
1000
0001
0100
1100
0000
0101
0000
1010
0000
0011
0000
,  // measure 107
1000
0100
0010
0001
1000
0010
0100
0001
1000
0001
0100
0010
0001
1000
0100
1000
,  // measure 108
0010
0000
0100
0000
0001
0000
0010
0000
0100
0000
1000
0000
0001
0000
1000
0000
0020
0000
0000
0030
0000
0000
0000
0000
0000
0000
0000
0000
0000
0000
0000
0000
,  // measure 109
0000
0000
0000
0000
,  // measure 110
0000
0000
0000
0000
,  // measure 111
0000
0000
0000
0000
,  // measure 112
0000
0220
0330
0000
1000
0001
1000
0001
,  // measure 113
1000
0010
0100
0001
,  // measure 114
1000
0000
0001
0010
0001
0000
0100
0000
,  // measure 115
1000
0100
1000
0100
1000
0000
0010
0000
,  // measure 116
0200
0000
0300
0000
0010
0100
0010
0100
,  // measure 117
0010
0001
1000
0001
,  // measure 118
0010
0000
0100
1000
0100
0000
0010
0000
,  // measure 119
0001
1000
0001
1000
0001
0000
0010
0000
,  // measure 120
0220
0000
0330
0000
0001
0100
0001
0100
,  // measure 121
0001
0000
1000
0010
1000
0000
0010
0100
,  // measure 122
0010
0000
0001
1000
0001
0000
0100
0000
,  // measure 123
0010
1000
0100
1000
0010
0000
0001
0000
,  // measure 124
2000
0000
3000
0000
0001
0010
0001
0010
,  // measure 125
0001
0000
0010
0100
0010
0000
1000
0100
,  // measure 126
1000
0000
0001
1000
0001
0000
0010
0000
,  // measure 127
1000
0100
0010
0001
1000
0000
0001
0000
,  // measure 128
0200
0300
0202
0000
,  // measure 129
0000
0303
0000
0000
,  // measure 130
0000
0000
0001
1000
0010
1000
0010
1000
,  // measure 131
0010
1000
0010
0100
0010
0100
0010
0100
,  // measure 132
0001
0000
2200
0000
,  // measure 133
0000
3300
0000
0000
,  // measure 134
0000
0000
1000
0001
0100
0001
0100
0001
,  // measure 135
0100
0001
0100
0010
0100
0010
0100
0010
,  // measure 136
1000
0000
0022
0000
,  // measure 137
0000
0033
0000
0000
,  // measure 138
0000
0000
1000
0001
0010
0001
0010
0001
,  // measure 139
0010
0001
0010
0001
0100
0001
0100
0001
,  // measure 140
1000
0000
2020
0000
,  // measure 141
0000
3030
0000
0000
,  // measure 142
0000
0000
0001
1000
0010
0100
0010
0100
,  // measure 143
0010
0000
1000
0001
1000
0001
1000
0000
,  // measure 144
0220
0330
0000
0000
;

//---------------dance-single - ----------------
#NOTES:
     dance-single:
     :
     Medium:
     9:
     0.728623,1.426288,0.329587,0.173033,0.041198,619.000000,579.000000,40.000000,21.000000,0.000000,0.000000,0.728623,1.426288,0.329587,0.173033,0.041198,619.000000,579.000000,40.000000,21.000000,0.000000,0.000000:
0000
0000
0000
0000
,
0000
0000
0000
0000
,
0000
0000
0000
0000
,
0000
0000
1001
2100
,
0010
0000
0000
0001
3100
0000
0000
0000
0100
0000
0001
0000
1000
0000
0010
0000
,
1000
0100
0010
0001
1000
0000
0010
0100
,
0001
0000
0010
0000
1000
0100
0010
0100
,
0010
0100
1000
0001
1000
0000
0120
0000
,
1030
0000
0000
0001
0100
0000
0000
0000
0100
0000
1000
0000
0001
0000
1000
0000
,
0100
0010
0001
1000
0010
0000
0101
0000
,
0010
1000
1100
0000
0001
0010
0100
0010
,
0001
0000
1000
0001
1000
0000
1010
0000
,
0101
0000
1010
0000
0001
0010
0100
1000
,
0001
1000
0010
1000
0100
0000
0011
0000
,
1100
0000
0011
0000
0100
1000
0001
1000
,
0001
1000
0010
0100
0001
0000
0110
0000
,
1001
0000
0110
0000
0001
1000
0100
0010
,
0001
1000
0100
1000
0001
0000
1001
0000
,
0110
0000
1001
0000
0010
0100
0001
1000
,
0010
1000
0001
0010
0100
0000
1001
0000
,
0010
1000
0001
0010
,
0100
1000
0010
0100
,
0001
1000
0100
1000
,
0001
0100
0010
0000
,
0010
1000
0001
0010
,
0100
1000
0010
1000
,
0001
0100
0010
0100
,
0002
0000
0000
0003
,
1000
0100
0010
0001
,
1000
0010
1000
0001
,
0100
0010
0100
0001
,
0010
0100
1000
0000
,
1000
0001
1000
0010
,
0100
0001
1000
0010
,
1000
0001
0010
1000
,
0100
1000
0001
0010
,
0010
1000
1000
0001
,
0001
0100
0100
0010
,
0010
1000
1000
0100
,
0100
1000
1000
0001
,
0001
0010
0010
0100
,
0100
1000
1000
0001
,
0001
0100
0100
0010
,
1000
0001
0000
0010
,
0010
1000
1000
0001
,
0001
0100
0100
0010
,
0010
1000
1000
0100
,
0100
0010
0010
0001
,
1000
0100
1000
0001
,
1000
0010
0100
0001
,
0010
0100
1000
0001
,
0100
0010
1000
0100
,
0001
1000
0010
1000
,
0010
0100
0001
0010
,
0001
1000
0100
1000
,
0001
0110
1001
0001
,
0010
1000
0010
0100
,
0001
1000
0010
0100
,
0001
1000
0020
0130
,
0001
1000
0010
0000
0001
0100
0001
0000
,
1000
0001
0010
0000
1000
0010
1000
0000
,
0001
0100
0010
0000
1000
0100
0010
0000
,
0001
1000
0001
1000
0010
1000
0010
0000
,
1100
0101
1100
0101
,
1010
0011
1010
0011
,
0100
0001
1000
0010
,
0200
0300
0010
1000
,
0100
0000
0001
0100
0010
0000
1000
0000
,
0100
0000
0001
1000
0100
0000
0010
0000
,
0001
0000
1000
0010
1000
0001
0010
0001
,
1000
0100
0010
0001
1000
0000
1000
0000
,
1000
0000
0010
0100
0001
0000
0001
0000
,
0001
0000
1000
0100
0001
0000
0001
0100
,
1000
0010
1000
0001
0010
0000
0000
0000
,
0001
1000
0010
1000
,
0100
0010
0001
0000
,
0100
0010
1000
0100
,
1000
0010
1000
0000
,
0010
0001
0100
0001
,
0010
0001
0100
0000
,
1000
0100
0001
0100
,
1000
0010
0001
0010
,
1000
0100
0010
0001
,
1000
0010
0100
0000
,
0001
0100
0010
1000
,
0100
1000
0001
0000
,
0100
0010
0100
0001
,
0010
0001
1000
0000
,
0001
1000
0001
2000
0000
0001
3000
0000
,
0001
1000
0010
1000
,
0100
0010
0001
0100
,
0010
1000
0100
1000
,
0010
0100
0001
0010
,
0100
1000
0001
0100
,
0010
0100
0001
1000
,
1100
0000
0101
0000
,
1010
0000
0011
0000
,
0010
1000
0100
0010
,
0001
1000
0010
1000
,
0100
0010
0001
0100
,
0010
0100
0001
0010
,
0100
0100
1000
1000
,
0010
0010
0001
0001
,
0100
1000
0010
1000
,
0001
0010
1000
0100
,
0001
0000
1000
0000
0010
0000
0100
0001
0100
0000
0010
0000
0001
0000
1000
0100
,
1000
0000
0010
0000
0100
0000
0001
0010
0001
0000
1000
0010
1000
0000
1001
0000
,
0010
0000
0100
0000
0001
0000
1000
0100
0010
0000
0001
0000
1000
0000
0001
0100
,
0010
0000
0000
0000
1000
0000
0010
0000
0100
0000
0001
0000
0010
0000
0000
0000
0200
0000
0000
0300
0000
0000
0000
0000
0000
0000
0000
0000
0000
0000
0000
0000
,
0000
0000
0000
0000
,
0000
0000
0000
0000
,
0000
0000
0000
0000
,
0000
2002
3003
0000
0010
0000
1000
0000
,
0001
0100
0010
1000
,
0100
1000
0001
0010
,
0100
1000
0001
0100
,
0010
0000
0010
1000
,
0001
1000
0010
0100
,
0001
1000
0100
0010
,
0001
1000
0220
0000
,
0000
0330
0001
0100
,
0010
1000
0100
1000
,
0001
1000
0010
0100
,
0001
0010
0100
1000
,
0001
0000
0001
0100
,
0010
1000
0001
1000
,
0100
1000
0010
1000
,
0001
0010
0100
1000
,
0001
0000
2020
0000
,
0000
0000
3030
0000
,
0000
0100
0001
0001
,
1000
1000
0010
0010
,
0100
0000
0202
0000
,
0000
0000
0303
0000
,
0000
0100
1000
1000
,
0010
0010
1000
1000
,
0001
0000
2002
0000
,
0000
0000
3003
0000
,
0000
0100
0010
0010
,
0001
0001
1000
1000
,
0010
0000
0220
0000
,
0000
0000
0330
0000
,
0000
0000
1000
0000
0100
0010
0100
0000
,
0001
0000
0010
0100
0010
0000
1000
0000
,
2002
3003
0000
0000
;

//---------------dance-double - ----------------
#NOTES:
     dance-double:
     :
     Hard:
     11:
     0.920489,2.020575,0.304868,0.189513,0.144194,782.000000,745.000000,37.000000,23.000000,0.000000,0.000000,0.920489,2.020575,0.304868,0.189513,0.144194,782.000000,745.000000,37.000000,23.000000,0.000000,0.000000:
00000000
00000000
00000000
00000000
,
00000000
00000000
00000000
00000000
,
00000000
00000000
00000000
00000000
,
00000000
00000000
00001001
00000010
,
00000100
00000000
00000000
00001000
00000001
00000000
00000000
00000000
00000100
00000000
00000010
00000000
00010000
00000000
00001000
00000000
,
01000000
00000000
00010000
01000000
00010000
00000000
10000000
00000000
00100000
00000000
00000000
00000000
10010000
00000000
00000000
00000000
,
01000000
00000000
00000000
00010000
10000000
00000000
00000000
00000000
01000000
00000000
00100000
00000000
00001000
00000000
00010000
00000000
,
00000100
00000000
00001000
00000100
00001000
00000000
00000001
00000000
00000010
00000000
00000000
00000000
00001001
00000000
00001000
00000000
,
00000001
00000100
00001000
00000000
00010000
01000000
10000000
00100000
,
00100000
00000000
10000000
00010000
10000000
00000000
01000000
00000000
00010000
00000000
00000000
00000000
00011000
00000000
00000000
00000000
,
00000000
00000000
00000000
00000000
00001010
00000000
00000000
00000000
00000000
00000000
00000000
00000000
00000001
00001000
00000001
00000000
,
00000100
00000000
00000010
00010000
00002000
00000000
00000000
00000000
00003000
00000000
00000000
00000000
00011000
00000000
00000000
00000000
,
01010000
00000000
11000000
00000000
10010000
00000000
10000000
01000000
,
00010000
00001000
00100000
01000000
00010000
00000000
00011000
00000000
,
00001100
00000000
00000101
00000000
00001001
00000000
00000001
00000100
,
00001000
00000000
00010000
00000100
00010000
00000000
00001000
00000000
00000010
00000000
00001000
00000000
00011000
00000000
00000000
00000000
,
00110000
00000000
10100000
00000000
10010000
00000000
10000000
00100000
,
00010000
00001000
01000000
00100000
00010000
00000000
00011000
00000000
,
00001010
00000000
00000011
00000000
00001001
00000000
00000100
00000001
,
00001000
00000000
00000010
00000000
00001000
00000000
00000010
00000000
00001000
00000000
00000000
00000000
00000100
00000000
00000000
00000000
00010000
00000000
00000000
00000000
00000000
00000000
00000000
00000000
00022000
00033000
00000000
00000000
00000000
00000000
00000000
00000000
,
00100000
01000000
00100000
01000000
00100000
00000000
10000000
00000000
,
01000000
00010000
00001000
00000100
,
00000001
00000000
00000010
00000001
00000010
00000000
00000100
00000000
,
00010000
00000000
00001000
00000000
00000000
00000000
00000010
00000100
,
00000010
00000100
00000010
00000000
00000001
00000000
00000100
00000000
,
00001000
00010000
01000000
10000000
,
00010000
00000000
00100000
00010000
00100000
00000000
01000000
10000000
,
01000000
00010000
00002000
00003000
,
00000100
00000001
00000100
00000001
00000100
00000000
00000010
00000000
,
00001000
00000000
00000100
00000000
00010000
00001000
00010000
00001000
,
00010000
00000000
00001000
00100000
00010000
00000000
10000000
00010000
,
10000000
01000000
00010000
00000000
,
01000000
10000000
01000000
10000000
01000000
00000000
00100000
00000000
,
00010000
00000000
01000000
00000000
00001000
00010000
00001000
00010000
,
00001000
00000000
00010000
00000010
00001000
00000000
00000001
00000100
,
00000010
00000000
00001000
00000000
00001001
00000000
00000001
00000010
,
00000001
00000000
00001000
00000010
00001000
00000000
00000100
00010000
,
00000100
00000000
00010000
00001000
00010000
00000000
00001000
00100000
,
00001000
00000000
01000000
00010000
01000000
00000000
00100000
10000000
,
00100000
00000000
10000000
00000000
00010000
00000000
10000000
01000000
,
10000000
01000000
10000000
00000000
00100000
00000000
01000000
00010000
,
01000000
00000000
00001000
00010000
00001000
00010000
00001000
00000000
,
00000100
00000000
00000001
00001000
00000001
00000000
00001000
00000100
,
00001000
00000000
00000010
00000000
00010000
00000000
00001000
01000000
,
00001000
00000000
01000000
00010000
01000000
00000000
00010000
10000000
,
00010000
00000000
10000000
01000000
10000000
00000000
01000000
00010000
,
01000000
00000000
00010000
00001000
00010000
00000000
00001000
00000100
,
00001000
00000100
00000010
00000100
00000010
00000000
00000100
00000001
,
00000100
00000000
00000001
00001000
00000001
00001000
00000001
00000000
,
00001000
00000000
00000100
00010000
00000100
00000000
00010000
00001000
,
00100000
00001000
00100000
00000000
00010000
00000000
10000000
01000000
,
10000000
01000000
10000000
01000000
10000000
01000000
10000000
00000000
,
00010000
01000000
10000000
01000000
,
00100000
00010000
00001000
00000100
,
00000001
00000010
00001000
00000010
,
00000100
00000000
00010000
00001000
00000010
00000100
00010000
00000000
,
00100000
10000000
00100000
01000000
,
00010000
01000000
00001000
00010000
,
00000100
00001000
00000001
00001001
,
00001000
00000100
00000010
00000001
00000100
00000001
00001000
00000100
,
00010000
00001000
01000000
00010000
10000000
00010000
00100000
01000000
,
10000000
00100000
01000000
00001000
00100000
00010000
10000000
01000000
,
00010000
00001000
00000100
00000001
00001000
00000010
00000100
00000001
,
00000100
00000010
00010000
00001000
00100000
00010000
10000000
01000000
,
00100000
01000000
10000000
00010000
00100000
00001000
00010000
00000100
,
00000010
00000001
00000100
00001000
00010000
01000000
10000000
00100000
,
00020000
00000000
00000000
00000000
00031000
00000100
00000001
00000000
,
00000010
00000001
00000100
00001000
00010000
00000000
00100000
00010000
,
00001000
01000000
00100000
01000000
00010000
00000000
10000000
00100000
,
10000000
00010000
00100000
00001000
00010000
00000010
00001000
00000001
,
00000010
00000100
00010000
00001000
00010000
01000000
10000000
00000000
,
00100000
10000000
01000000
00010000
00001000
00000000
00000010
00001000
,
00010000
00000100
00000010
00000100
00001000
00000000
00000001
00000010
,
00000001
00001000
00000010
00010000
00002000
00000000
00003000
00000000
,
00100000
00010000
10000000
00010000
,
01000000
00000000
00001000
00000000
00010000
00000000
00000010
00000100
,
00000010
00001000
00000001
00001000
,
00000100
00000000
00010000
00000000
00001000
00000000
01000000
00100000
,
01000000
00010000
10000000
00010000
,
00100000
00000000
00001000
00000000
00010000
00000000
00000100
00000010
,
00000100
00001000
00000001
00001000
,
00000010
00010000
00001000
01000000
,
00010000
10000000
01000000
00100000
,
00001000
00000000
00010000
00000000
00000100
00000000
00001000
00000010
,
00001000
00000001
00000100
00000010
,
00010000
00000000
00001000
00000000
01000000
00000000
00010000
00100000
,
00010000
10000000
01000000
00010000
,
00001000
00000100
00000001
00001000
,
00000100
00000000
00010000
00000000
00001000
00010000
00002000
00000000
00000000
00000000
00020000
00000000
00033000
00000000
00000000
00000000
,
00100000
10000000
00010000
10000000
,
01000000
00000000
00010000
00000000
00001000
00000000
00000010
00000100
,
00000010
00000001
00001000
00000001
,
00000100
00000000
00001000
00000000
00010000
00000000
01000000
00100000
,
01000000
10000000
00010000
10000000
,
00100000
00000000
00010000
00000000
00001000
00000000
00000100
00000010
,
00000100
00000001
00001000
00000001
,
00000010
00001000
00010000
00100000
,
10000000
10000000
00010000
00010000
,
01000000
01000000
00001000
00001000
,
00010000
00010000
00000100
00000100
,
00000010
00000010
00000001
00000001
,
00000100
00000100
00001000
00001000
,
00010000
00010000
01000000
01000000
,
10000000
00000000
00010000
00100000
00010000
00000000
10000000
00000000
,
01000000
00010000
00001000
00000100
,
00000001
00001000
00000001
00000100
00000001
00001000
00000010
00010000
00000010
00001000
00000010
00010000
00001000
01000000
00001000
00010000
,
00001000
01000000
00010000
10000000
00010000
00100000
00010000
10000000
11000000
00000000
00110000
00000000
01100000
00000000
10010000
00000000
,
10000000
00010000
10000000
01000000
10000000
00010000
00100000
00001000
00100000
00010000
00100000
00001000
00010000
00000100
00010000
00001000
,
00010000
00000100
00001000
00000001
00001000
00000010
00001000
00000001
00001001
00000000
00000000
00000000
00000000
00000000
00000000
00000000
,
00000000
00000000
00000000
00000000
,
00000000
00000000
00000000
00000000
,
00000000
00000000
00000000
00000000
,
00000000
00000220
00000330
00000000
00000001
00001000
00000001
00001000
,
00000001
00001000
00000001
00000010
,
00000100
00000000
00010000
00001000
00010000
00000000
00001000
00000000
,
00100000
01000000
00100000
01000000
00100000
00000000
00010000
00000000
,
20000000
00000000
30000000
00000000
00010000
10000000
00010000
10000000
,
00010000
01000000
00001000
00010000
,
00000010
00001000
00000010
00001000
00000010
00000000
00000100
00000000
,
00000001
00000010
00000001
00000010
00000001
00000000
00000100
00000000
,
00002000
00000000
00003000
00000000
00010000
01000000
00010000
01000000
,
00010000
00000000
01000000
00000000
10000000
00100000
10000000
00000000
,
00010000
00100000
00010000
00100000
00001000
00000000
00010000
00000100
,
00010000
00000100
00000010
00000000
00001000
00000000
00010000
00000000
,
00022000
00000000
00033000
00000000
00001000
00000100
00001000
00000100
,
00001000
00000000
00000100
00000000
00000001
00000010
00000001
00000000
,
00001000
00000010
00001000
00000010
00010000
00000000
00001000
01000000
,
00001000
01000000
00100000
00000000
10000000
01000000
00100000
00000000
,
01100000
00000000
20020000
00000000
,
00000000
30030000
00000000
00000000
,
00000000
00000000
01000000
00001000
01000000
00000000
00001000
00010000
,
00001000
00010000
00001000
00000000
00010000
00000000
00000100
00000000
,
00000010
00000000
00002002
00000000
,
00000000
00003003
00000000
00000000
,
00000000
00000000
00000100
00010000
00000100
00000000
00010000
00001000
,
00010000
00001000
00100000
00001000
00100000
00001000
00100000
00000000
,
01100000
00000000
20020000
00000000
,
00000000
30030000
00000000
00000000
,
00000000
00000000
00100000
00001000
00100000
00000000
00001000
00010000
,
00001000
00010000
00001000
00000000
00010000
00000000
00000010
00000000
,
00000100
00000000
00002002
00000000
,
00000000
00003003
00000000
00000000
,
00000000
00000000
00000001
00000010
00000001
00000000
00001000
00000010
,
00001000
00000010
00010000
00000010
00010000
00001000
01000000
00001000
,
02000000
03000000
00000000
00000000
;

//---------------dance-double - ----------------
#NOTES:
     dance-double:
     :
     Medium:
     9:
     0.713321,1.307431,0.370785,0.156554,0.024719,606.000000,561.000000,45.000000,19.000000,0.000000,0.000000,0.713321,1.307431,0.370785,0.156554,0.024719,606.000000,561.000000,45.000000,19.000000,0.000000,0.000000:
00000000
00000000
00000000
00000000
,
00000000
00000000
00000000
00000000
,
00000000
00000000
00000000
00000000
,
00000000
00000000
00011000
02001000
,
00010000
00000000
13000000
00000000
01000000
00010000
00100000
00001000
,
00010000
00000100
00000010
00000001
00001000
00000000
00010200
00000000
,
00001000
00000000
00000301
00000000
00000100
00001000
00000010
00000100
,
00000010
00010000
00001000
01000000
00010000
00000000
00201000
00000000
,
00010000
00000000
10300000
00000000
00100000
00010000
01000000
00001000
,
00010000
00000010
00000100
00000001
00001000
00000000
00010010
00000000
,
00000000
00000000
00101000
00000000
00010000
00001000
00100000
00001000
,
01000000
00010000
20000000
00000000
30000000
00000000
11000000
00000000
,
01010000
00000000
00011000
00000000
00001100
00000000
00000100
00000001
,
00000010
00001000
00010000
00000100
00000010
00000000
00000101
00000000
,
00001100
00000000
00011000
00000000
01010000
00000000
01000000
10000000
,
00100000
01000000
00010000
10000000
01000000
00010000
00011000
00000000
,
00001100
00000000
00011000
00000000
01010000
00000000
00010000
00001000
,
00000010
00001000
00010000
00100000
00010000
00001000
00011000
00000000
,
00110000
00000000
00011000
00000000
00001010
00000000
00000010
00000001
,
00000100
00001000
00010000
01000000
10000000
00000000
10010000
00000000
,
00100000
10000000
00010000
00100000
,
00001000
00010000
00000010
00000100
,
00000001
00001000
00000010
00001000
,
00000001
00000100
00000001
00000000
,
00000010
00000001
00001000
00000010
,
00010000
00001000
00100000
01000000
,
10000000
00010000
00100000
00010000
,
20000000
00000000
00000000
30000000
,
00010000
01000000
00100000
10000000
,
01000000
00100000
01000000
10000000
,
00010000
00100000
00001000
00010000
,
00000010
00001000
00000001
00000000
,
00001000
00000100
00000010
00000001
,
00000100
00000010
00000100
00000001
,
00001000
00000010
00010000
00001000
,
00100000
00010000
10000000
00010000
,
00010000
10000000
10000000
01000000
,
01000000
00010000
00010000
00001000
,
00001000
00000010
00000010
00000001
,
00000001
00000100
00000100
00000010
,
00000010
00010000
00010000
00000100
,
00000100
00010000
00010000
01000000
,
01000000
10000000
10000000
00010000
,
10000000
01000000
00010000
00010000
,
00001000
00001000
00000010
00000010
,
00000100
00000100
00000001
00000001
,
00000100
00000100
00001000
00001000
,
00000010
00000010
00010000
00010000
,
00100000
00100000
10000000
10000000
,
00010000
00010000
00001000
00001000
,
00000001
00000001
00000100
00000010
,
00010000
00001000
01000000
00010000
,
10000000
00100000
10000000
00100000
,
01000000
00001000
00010000
00000100
,
00000010
00000001
00000100
00001000
,
00000100
00000010
00010000
00001000
,
00100000
00010000
10000000
01000000
,
00010000
00001000
00000100
00000001
,
00001000
00000010
00001000
00001001
,
00000001
00001000
00000100
00000000
00000010
00001000
00010000
00000000
,
00001000
00000100
00001000
00000000
00010000
01000000
00010000
00000000
,
01000000
10000000
00100000
00000000
10000000
01000000
00010000
00000000
,
00001000
00100000
00001000
00010000
00000100
00010000
00001000
00000100
,
00000001
00001000
00000010
00000000
00000100
00001000
00010000
00000000
,
00001000
00000010
00001000
00000000
00010000
00100000
00010000
00000000
,
00100000
10000000
01000000
00000000
10000000
00100000
00010000
00000000
,
00011000
00000000
00000100
00000001
,
00001000
00000000
00000010
00010000
00001000
00000000
00100000
00000000
,
00010000
00000000
01000000
00010000
10000000
00000000
01000000
00000000
,
00010000
00000000
00001000
00000010
00000001
00000000
00000010
00000000
,
00000100
00001000
00000001
00001000
,
00000100
00000000
00010000
00000010
00010000
00000000
00001000
00000000
,
01000000
00000000
00001000
00100000
00001000
00000000
00100000
00000000
,
00010000
10000000
10010000
00000000
,
00010000
10000000
01000000
00100000
,
00010000
01000000
00100000
00000000
,
00010000
00001000
00000100
00000010
,
00001000
00000100
00000010
00000000
,
00000001
00000100
00000010
00001000
,
00000100
00010000
00001000
00000000
,
00100000
00010000
10000000
00000000
,
00100000
10000000
01000000
00010000
,
00001000
00000100
00000001
00001000
,
00000001
00000010
00001000
00010000
,
00000100
00010000
00001000
01000000
,
00010000
00100000
01000000
10000000
,
00010000
10000000
01000000
00010000
,
00001000
00000100
00000001
00001000
,
00000002
00000000
00000000
00000000
00000003
00001001
00000000
00000000
,
00000010
00000001
00000010
00000100
,
00001000
00000010
00000100
00000010
,
00010000
00001000
01000000
00010000
,
10000000
01000000
00100000
01000000
,
10000000
00010000
00100000
00001000
,
00010000
00000100
00000010
00000001
,
00000100
00001000
00010000
01000000
,
10000000
00100000
01000000
00010000
,
10000000
01000000
00010000
00001000
,
00000100
00000001
00001000
00000000
,
00000001
00000100
00001000
00010000
,
01000000
10000000
00010000
00000000
,
11000000
00000000
01010000
00000000
,
00011000
00000000
00001100
00000000
,
00000101
00000001
00000010
00000100
,
00001000
00010000
00100000
01000000
,
10000000
00000000
00010000
00000000
01010000
00000000
00000000
01000000
00001000
00000000
00010000
00000000
00011000
00000000
00000000
00001000
,
00000100
00000000
00000001
00000000
00000101
00000000
00000000
00000100
00000010
00000000
00001000
00000000
00000110
00000000
00000100
00000000
,
00000001
00000000
00001000
00000000
00001100
00000000
00000000
00000100
00010000
00000000
00001000
00000000
00011000
00000000
00000000
00010000
,
01000000
00000000
10000000
00000000
11000000
00000000
00000000
01000000
00200000
00000000
00300000
00000000
00000000
00000000
00000000
00000000
,
00000000
00000000
00000000
00000000
,
00000000
00000000
00000000
00000000
,
00000000
00000000
00000000
00000000
,
00000000
00022000
00033000
00000000
00000010
00000000
00000001
00000000
,
00001000
00000100
00000010
00000001
,
00000100
00000001
00001000
00000100
,
00010000
00001000
01000000
00010000
,
10000000
00000000
00010000
10000000
,
01000000
00100000
00010000
01000000
,
00100000
01000000
00001000
00010000
,
00000100
00000010
00000001
00000100
,
00000010
00000000
00010000
00001000
,
00010000
00000100
00010000
00001000
,
01000000
00010000
10000000
01000000
,
00010000
00001000
00100000
00001000
,
00010000
00000000
00001000
00010000
,
00001000
01000000
00001000
00010000
,
00000100
00001000
00000001
00000100
,
00001000
00010000
00000010
00010000
,
00001000
00000000
00022000
00000000
,
00000000
00000000
00033000
00000000
,
00000000
00100000
10000000
01000000
,
00010000
00001000
00100000
00001000
,
00010000
00000000
00022000
00000000
,
00000000
00000000
00033000
00000000
,
00000000
00000010
00000001
00000100
,
00001000
00010000
00000010
00010000
,
00001000
00000000
00022000
00000000
,
00000000
00000000
00033000
00000000
,
00000000
01000000
10000000
00100000
,
00010000
00001000
01000000
00001000
,
00010000
00000000
00022000
00000000
,
00000000
00000000
00033000
00000000
,
00000000
00000100
00000001
00000010
,
00001000
00010000
00100000
10000000
,
20020000
30030000
00000000
00000000
;

//---------------dance-double - ----------------
#NOTES:
     dance-double:
     :
     Easy:
     7:
     0.514391,0.891430,0.107116,0.131835,0.000000,437.000000,424.000000,13.000000,16.000000,0.000000,0.000000,0.514391,0.891430,0.107116,0.131835,0.000000,437.000000,424.000000,13.000000,16.000000,0.000000,0.000000:
00000000
00000000
00000000
00000000
,
00000000
00000000
00000000
00000000
,
00000000
00000000
00000000
00000000
,
00000000
00000000
10010000
01000000
,
00010000
10000000
00100000
00010000
,
00001000
01000000
00001000
00010000
00000100
00000000
00000010
00000000
,
00000001
00000000
00001000
00000000
00000010
00000000
00000100
00000010
,
00010000
00001000
01000000
00000000
00010000
00000000
10000000
00000000
,
01000000
00000000
00010000
00000000
00001000
00100000
00001000
00000000
,
00010000
00000100
00010000
00000100
00000010
00000000
00000011
00000000
,
00000000
00000000
00001001
00000000
00000000
00000000
00000100
00010000
,
00001000
00100000
00002000
00000000
00003000
00000000
00011000
00000000
,
00010000
00000000
00001000
00000000
01000000
00000000
00010000
10000000
,
00100000
10000000
00010000
00000000
01000000
00000000
00011000
00000000
,
00001000
00000000
00010000
00000000
00000100
00000000
00001000
00000001
,
00000010
00000001
00001000
00000000
00000100
00000000
00011000
00000000
,
00010000
00000000
00001000
00000000
00100000
00000000
00010000
10000000
,
01000000
10000000
00010000
00000000
00100000
00000000
00011000
00000000
,
00001000
00000000
00010000
00000000
00000010
00000000
00001000
00000001
,
00000100
00000001
00001000
00000000
00000010
00000000
00001001
00000000
,
00000010
00000100
00000001
00001000
,
00000010
00000000
00010000
00000000
,
00001000
00000000
00100000
00010000
,
10000000
00010000
00100000
00000000
,
01000000
10000000
00010000
01000000
,
00100000
00000000
00010000
00000000
,
00001000
00000000
00000100
00000001
,
00001000
00000100
00000010
00000000
,
00000100
00000010
00000001
00001000
,
00000100
00000000
00010000
00000000
,
00001000
00000000
01000000
00010000
,
10000000
00010000
01000000
00000000
,
00100000
10000000
00010000
00100000
,
01000000
00000000
00010000
00000000
,
00001000
00000000
00000100
00000000
,
00001001
00000000
00000000
00000001
,
00000000
00000001
00000000
00000001
,
00000000
00000001
00000000
00001000
,
00000000
00001000
00000000
00001000
,
00000000
00001000
00000000
00010000
,
00000000
00010000
00000000
00010000
,
00000000
00010000
00000000
10000000
,
00000000
10000000
00000000
10000000
,
00100000
10000000
00100000
01000000
,
00000000
01000000
00000000
01000000
,
00000000
01000000
00000000
00001000
,
00000000
00001000
00000000
00001000
,
00000000
00001000
00000000
00010000
,
00000000
00010000
00000000
00010000
,
00000000
00010000
00000000
00000000
,
00000010
00001000
00000010
00001000
,
00000001
00000100
00000010
00001000
,
00001000
00001000
00001000
00001000
,
00001000
00001000
00001000
00000001
,
00000001
00000001
00000001
00000001
,
00000001
00000100
00001000
00010000
,
00010000
00010000
00010000
00010000
,
00010000
00010000
00001000
00001000
,
00001000
00001000
00001000
00011000
,
00100000
10000000
00010000
10000000
,
00100000
01000000
00001000
00010000
,
00000100
00001000
00000100
00001000
,
00000001
00000010
00000001
00000010
,
00000100
00001000
00000001
00001000
,
00000010
00010000
00001000
00100000
,
00010000
10000000
00100000
01000000
,
00020000
00030000
10000000
00010000
,
01000000
00000000
00010000
00100000
,
00001000
00000000
00010000
00001000
,
00000100
00000000
00000001
00001000
,
00000010
00000000
00000100
00000001
,
00001000
00000000
00000010
00010000
,
00001000
00000000
00100000
00010000
,
10000000
00100000
01000000
00000000
,
00010000
00000000
10000000
00000000
,
00100000
00000000
01000000
00000000
,
00001000
00000000
00010000
00000000
,
00000100
00000000
00001000
00000000
,
00000001
00000000
00000100
00000000
,
00000010
00000000
00010000
00000000
,
00001000
00000000
00001000
00000000
,
00010000
00000000
00010000
00000000
,
00100000
00000000
10000000
00000000
,
01000000
00000000
00100000
00000000
,
00001000
00000000
00010000
00000000
,
00000010
00000000
00001000
00000000
,
00000001
00000000
00000010
00000000
,
00000100
00000000
00010000
00000000
,
00001000
00010000
00001000
00020000
00000000
00030000
00000000
00000000
,
00000100
00001000
00000001
00000000
,
00000100
00000001
00001000
00000000
,
00000010
00010000
00001000
00000000
,
00100000
00010000
10000000
00000000
,
00100000
00010000
10000000
00000000
,
00010000
01000000
00001000
00000000
,
00010000
00000100
00001000
00000000
,
00000001
00001000
00000010
00000000
,
00000100
00000010
00010000
00000000
,
00001000
00100000
00001000
00000000
,
00010000
01000000
10000000
00000000
,
00100000
10000000
00010000
00000000
,
01000000
00001000
00010000
00000000
,
00000100
00001000
00000001
00000000
,
00000010
00000000
00000001
00000000
,
00000100
00000000
00001000
00000000
,
00011000
00010000
00001000
00000000
00100000
00010000
10000000
00000000
,
01000000
10000000
01000000
00000000
00200000
00302000
00023000
00030200
,
00001300
00000001
00000100
00000000
00000010
00000001
00000010
00000000
,
00000100
00010000
00001000
01000000
00020000
00030000
00000000
00000000
,
00000000
00000000
00000000
00000000
,
00000000
00000000
00000000
00000000
,
00000000
00000000
00000000
00000000
,
00000000
20020000
30030000
00000000
00100000
00000000
00000000
00000000
,
00001000
00000000
00010000
00000000
,
00000100
00000000
00000010
00000001
,
00000010
00000001
00001000
00000001
,
00001000
00000000
00000010
00000000
,
00010000
00000000
00001000
00000000
,
01000000
00000000
00100000
10000000
,
00100000
10000000
00010000
10000000
,
00010000
00000000
00100000
00001000
,
00010000
00000000
00000010
00010000
,
00001000
00000000
01000000
00001000
,
00010000
00000000
00000100
00010000
,
00001000
00000000
00000100
00000001
,
00000100
00000010
00001000
00000000
,
00000100
00010000
00001000
01000000
,
00010000
10000000
00100000
10000000
,
00010000
00000000
02000000
00000000
,
00000000
00000000
00000000
03000000
,
00000000
00000000
00001000
00010000
,
00001000
00010000
00001000
00010000
,
00001000
00000000
00000200
00000000
,
00000000
00000000
00000000
00000300
,
00000000
00000000
00000001
00001000
,
00000001
00000010
00000100
00000000
,
00010000
00000000
00000020
00000000
,
00000000
00000000
00000000
00000030
,
00000000
00000000
00010000
00001000
,
00010000
00001000
00010000
00001000
,
00010000
00000000
00200000
00000000
,
00000000
00000000
00000000
00300000
,
00000000
00000000
10000000
01000000
,
00100000
00010000
10000000
00000000
,
20020000
30030000
00000000
00000000
;

//---------------dance-double - ----------------
#NOTES:
     dance-double:
     :
     Challenge:
     11:
     1.128836,1.961146,0.370785,0.263670,0.300748,959.000000,914.000000,45.000000,32.000000,0.000000,0.000000,1.128836,1.961146,0.370785,0.263670,0.300748,959.000000,914.000000,45.000000,32.000000,0.000000,0.000000:
00000000
00000000
00000000
00000000
,
00000000
00000000
00000000
00000000
,
00000000
00000000
00000000
00000000
,
00000000
00000000
00000000
00000000
00011000
00000000
00001000
00000100
,
00000001
00000000
00000000
00000001
00000010
00000000
00000100
00000000
00010000
00000000
00001000
00100000
00001000
00000000
00010000
00000000
,
01000000
10000000
00100000
10000000
00100000
00000000
01000000
00000000
00002000
00000000
00003000
00000000
00011000
00000000
00000000
00000000
,
00010000
00000000
01000000
00000000
10000000
00000000
00000000
10000000
00100000
00000000
01000000
00000000
00001000
00000000
00010000
00000100
,
00010000
00000000
00000010
00001000
00000100
00000000
00000010
00000000
00001002
00000000
00000000
00000000
00000013
00000000
00000000
00000010
,
00000001
00000000
00000000
00000001
00000100
00000000
00000000
00000100
00001000
00000000
00010000
00000000
00100000
00000000
10000000
00000000
,
10000000
00000000
01000000
00100000
00010000
00000000
01000000
00000000
00100000
00000000
00000000
00000000
20010000
00000000
00000000
00000000
,
30100000
00000000
00000000
00100000
10000000
00000000
00000000
10000000
01000000
00000000
00010000
00000000
00001000
00000100
00000001
00000000
,
00000010
00000000
00000001
00000100
00000010
00000000
00000000
00000000
00002002
00000000
00003003
00000000
00000010
00000000
00000001
00000000
,
00001000
00000000
00000010
00000100
00001000
00000000
00010000
00000100
00001000
00000000
00000010
00000000
00010000
00000000
00001000
00000000
,
00100000
00010000
00100000
01000000
10000000
00000000
00010000
00000000
01000000
00000000
00000000
00000000
00100000
00000000
10000000
00000000
,
00010000
00000000
00100000
01000000
00010000
00000000
00001000
01000000
00010000
00000000
00100000
00000000
00001000
00000000
00010000
00000000
,
00000010
00001000
00000010
00000100
00000001
00000000
00001000
00000000
00000100
00000000
00000100
00000000
00000110
00000000
00000000
00000000
,
00000010
00000000
00000001
00000100
00000010
00000000
00001000
00000100
00000010
00000000
00001000
00000000
00010000
00000000
01000000
00000000
,
10000000
00010000
00100000
01000000
10000000
00000000
01000000
00000000
00100000
00000000
00010000
00000000
01010000
00000000
00000000
00000000
,
00100000
00000000
10000000
01000000
00100000
00000000
00010000
01000000
00100000
00000000
00010000
00000000
00001000
00000000
00000100
00000001
,
00001000
00000001
00000010
00000100
00002000
00000000
00003002
00000000
00000103
00000000
00000000
00000000
00001001
00000000
00000000
00000000
,
00000001
00000010
00000100
00001000
00000001
00000000
00000100
00000000
,
00000010
00000000
00010000
00001000
00100000
00001000
00010000
00001000
,
01000000
00000000
00010000
00000000
10000000
01000000
00100000
00010000
,
10000000
01000000
00010000
00001000
,
00000100
00000001
00000100
00000001
00000010
00000000
00000100
00000000
,
00001000
00000000
00000001
00000010
00000100
00010000
00000100
00010000
,
00001000
00000000
00100000
00010000
10000000
00010000
00100000
01000000
,
10000000
00010000
00100000
00000000
20020000
00000000
30030000
00000000
,
10000000
00100000
01000000
00010000
10000000
00000000
01000000
00000000
,
00100000
00000000
00001000
00010000
00000010
00010000
00001000
00010000
,
00000100
00000000
00001000
00000000
00000001
00000100
00000010
00001000
,
00000001
00000100
00001000
00010000
,
01000000
10000000
01000000
10000000
00100000
00000000
01000000
00000000
,
00010000
00000000
10000000
00100000
01000000
00001000
01000000
00001000
,
00010000
00000000
00000010
00001000
00000001
00001000
00000010
00000100
,
00001000
00000001
00000010
00000000
00002000
00003000
00010000
00001000
,
00100000
00001000
00010000
00000010
00001000
00000010
00010000
00001000
,
01000000
00010000
00100000
01000000
10000000
00100000
00010000
00001000
,
01000000
00001000
00010000
00000100
00001000
00000100
00010000
00001000
,
00000100
00000001
00001000
00000010
00001000
00000001
00000100
00000010
,
00010000
00001000
01000000
00001000
00010000
00000100
00010000
00001000
,
00100000
01000000
10000000
00100000
01000000
00010000
10000000
01000000
,
00010000
00001000
00100000
00001000
00010000
00000010
00001000
00000100
,
00000010
00000001
00000100
00000010
00020000
00030000
00001000
00010000
,
00000010
00010000
00001000
00100000
00010000
00100000
00001000
00010000
,
00000100
00001000
00000010
00000100
00000001
00000010
00001000
00010000
,
00000100
00010000
00001000
01000000
00010000
01000000
00001000
00010000
,
01000000
10000000
00010000
00100000
00010000
10000000
01000000
00100000
,
00001000
00010000
00000100
00010000
00001000
01000000
00001000
00010000
,
00000010
00000100
00000001
00000010
00000100
00001000
00000001
00000100
,
00001000
00010000
00000010
00010000
00001000
00100000
00010000
01000000
,
00100000
10000000
01000000
00100000
00001000
00000000
00011000
00000000
,
01010000
11000000
10100000
00110000
,
00011000
00001100
00000101
00000011
,
00001010
00011000
00110000
10100000
,
11000000
01010000
00011000
00001010
,
00000101
00010010
01001000
10010000
,
00101000
00010100
00000011
00001001
,
00011000
10010000
00011000
00001001
,
00000001
00000100
00000001
00000100
00001000
00000100
00001000
00010000
,
00001000
00010000
00001000
00010000
01000000
00010000
01000000
10000000
,
01000000
10000000
01000000
00010000
01000000
00010000
00001000
00010000
,
00001000
00000100
00000001
00000100
00000001
00000010
00000001
00000010
,
00001000
00000010
00001000
00010000
00001000
00010000
00100000
10000000
,
00100000
10000000
01000000
10000000
01000000
00010000
01000000
00010000
,
00001000
00000010
00001000
00000010
00000001
00000100
00000001
00000100
,
00002000
00003000
00000000
00000000
00010000
01000000
10000000
00010000
,
00100000
00000000
01000000
00000000
00010000
00000000
00001000
00100000
00001000
00000000
00000100
00000000
00000001
00000000
00001000
00000000
,
00000010
00000000
00000100
00000000
00001000
00000000
00010000
00000100
00010000
00000000
00100000
00000000
10000000
00000000
00010000
00000000
,
01000000
00000000
00100000
00000000
00010000
00000000
00001000
01000000
00001000
00000000
00000010
00000000
00000001
00000000
00001000
00000000
,
00000100
00000000
00000010
00000000
00001000
00000000
00010000
00000010
00010000
00000000
00001000
00000000
00100000
00000000
00001000
00000000
,
00000010
00000000
00001000
00000000
00010000
00000000
00001000
00010000
00001000
00000000
00010000
00000000
00000100
00000000
00010000
00000000
,
01000000
00000000
00010000
00000000
00001000
00000000
00010000
00001000
00010000
00000000
00100000
00000000
10000000
00000000
01000000
00000000
,
00010000
00001000
00000100
00000001
00002000
00000000
00003000
00000000
,
00000001
00000100
00000010
00001000
,
00000100
00000000
00010000
00000010
00001000
00000000
00000100
00010000
,
00001000
01000000
00100000
10000000
,
00010000
00000000
01000000
00001000
01000000
00000000
00001000
00010000
,
00000100
00001000
00000010
00000100
,
00000001
00000000
00000010
00000001
00001000
00000000
00000100
00010000
,
00001000
00100000
10000000
00010000
,
01000000
00000000
10000000
00100000
10000000
00000000
00010000
00000000
,
10000000
01000000
00100000
00010000
,
01000000
00000000
00001000
00100000
00010000
00000000
01000000
00001000
,
00010000
00000100
00000010
00000001
,
00001000
00000000
00000100
00010000
00000100
00000000
00010000
00001000
,
01000000
00010000
00100000
01000000
,
10000000
00000000
00100000
10000000
00010000
00000000
01000000
00001000
,
00010000
00000000
00000100
00000000
00010000
00001000
00000200
00000000
00000310
00000000
00000002
00000000
00000013
00000000
00000000
00000000
,
00001000
00000001
00001000
00000010
,
00010000
00001000
00000100
00000000
00001000
00010000
01000000
00000000
,
10000000
00100000
10000000
00010000
,
00100000
00001000
00010000
00000000
00000010
00010000
00001000
00000000
,
00000100
00000001
00000010
00000100
,
00001000
00000000
00000010
00001000
00000100
00000000
00010000
00001000
,
01000000
10000000
00010000
00100000
,
10000000
01000000
00010000
00001000
,
00000010
00000001
00001000
00000100
,
00010000
00001000
00000010
00000000
00001000
00010000
00100000
00000000
,
10000000
01000000
10000000
00010000
,
01000000
00001000
00010000
00000000
00000100
00010000
00001000
00000000
,
00000010
00000001
00000100
00000010
,
00001000
00000000
00000100
00001000
00000010
00000000
00010000
00001000
,
00100000
00000000
00010000
10000000
01000000
00000000
00010000
00001000
,
00000100
00000002
00001003
00000010
,
00000100
00000001
00000010
00010000
00001000
01000000
10000000
00010000
10000000
00100000
00001000
00010000
00000100
00000001
00000010
00000001
,
00001000
00000001
00000010
00010000
00001000
01000000
10000000
00010000
00100000
10000000
00010000
01000000
00010000
00001000
00000100
00000001
,
00001000
00000001
00000010
00000001
00001000
00000100
00001000
00010000
00100000
00010000
10000000
01000000
10000000
00010000
00100000
00010000
,
10000000
01000000
00100000
00010000
00001000
00000100
00000010
00000001
00002000
00000000
00003000
00000000
00000000
00000000
00000000
00000000
,
00000000
00000000
00000000
00000000
,
00000000
00000000
00000000
00000000
,
00000000
00000000
00000000
00000000
,
00000000
00002002
00003003
00000000
00000001
00000100
00000001
00000100
,
00000010
00000000
00001000
00000000
00000100
00000000
00010000
00001000
,
01000000
00010000
01000000
00100000
10000000
00000000
00010000
00100000
,
01000000
00000000
10000000
00000000
01000000
00000000
10000000
00000000
00000000
00010000
00000000
00000000
00100000
00000000
00000000
00000000
00000000
00000000
00010000
00000000
00000000
00000000
00000000
00000000
,
01000000
00000000
00100000
00000000
10000000
01000000
10000000
01000000
,
00100000
00000000
00010000
00000000
01000000
00000000
00001000
00010000
,
00000100
00001000
00000100
00000010
00000001
00000000
00001000
00000010
,
00000100
00000000
00000001
00000000
00000100
00000000
00000001
00000000
00000000
00001000
00000000
00000000
00000010
00000000
00000000
00000000
00000000
00000000
00001000
00000000
00000000
00000000
00000000
00000000
,
00000200
00000000
00000300
00000000
00000010
00000001
00000010
00000100
,
00001000
00000000
00000001
00000000
00000010
00000000
00001000
00010000
,
00000100
00010000
00001000
00000000
00100000
00000000
00010000
10000000
,
01000000
00100000
00010000
01000000
00100000
00000000
10000000
00000000
,
20020000
00000000
30030000
00000000
00100000
10000000
00100000
01000000
,
00010000
00000000
10000000
00000000
00100000
00000000
00010000
00001000
,
01000000
00001000
00010000
00000000
00000010
00000000
00001000
00000001
,
00000100
00000010
00001000
00000100
00000010
00000001
00001000
00000000
,
00002002
00000000
00003003
00000000
00000001
00000010
00000100
00010000
,
00001000
00000100
00001000
00010000
,
00100000
10000000
00010000
10000000
01000000
00000000
00010000
00001000
,
00010000
00000010
00001000
00000001
00000100
00000000
00000001
00000000
,
00002002
00000000
00003003
00000000
00001000
00000100
00000010
00000100
,
00010000
00000000
00001000
00000000
00100000
00000000
00010000
10000000
,
01000000
00100000
00010000
01000000
00100000
00000000
00010000
00001000
,
00010000
00000100
00000010
00000100
00001000
00000010
00000100
00000000
,
00002002
00000000
00003003
00000000
00000001
00000100
00000010
00010000
,
00001000
00000010
00001000
00010000
,
01000000
10000000
00010000
10000000
00100000
00000000
00010000
00001000
,
00010000
00000100
00001000
00000001
00000010
00000000
00000001
00000000
,
00002002
00000000
00003003
00000000
00001000
00000010
00000100
00000010
,
00010000
00000000
00001000
00000000
01000000
00000000
00010000
10000000
,
00100000
10000000
01000000
00010000
00001000
00100000
00001000
00010000
,
00000010
00000000
00000000
00010000
00000000
00000000
00000010
00000000
00000100
00000000
00000010
00000000
00000100
00000000
00000000
00000001
00000000
00000000
00001000
00000000
00000000
00000000
00000000
00000000
,
00002002
00003003
00000000
00000000
;
