#TITLE:europa(DDR edit);
#SUBTITLE:;
#ARTIST:DJ Vortivask;
#TITLETRANSLIT:;
#SUBTITLETRANSLIT:;
#ARTISTTRANSLIT:;
#GENRE:;
#CREDIT:;
#BANNER:europa(DDR edit).png;
#BACKGROUND:europa(DDR edit)-bg.png;
#LYRICSPATH:;
#CDTITLE:;
#MUSIC:europa(DDR edit).ogg;
#OFFSET:-3.480000;
#SAMPLESTART:65.200996;
#SAMPLELENGTH:15.000000;
#SELECTABLE:YES;
#BPMS:0.000000=140.000000
,32.000000=70.000000
,40.000000=140.000000
,88.000000=70.000000
,94.750000=140.000000
,125.000000=70.000000
,125.500000=140.000000
,158.000000=70.000000
,160.000000=140.000000
,164.000000=70.000000
,166.000000=140.000000
,170.000000=70.000000
,172.000000=140.000000
,176.000000=70.000000
,178.000000=140.000000
,182.000000=105.000000
,184.000000=78.750000
,186.000000=39.375000
,187.000000=105.000000
,188.375000=140.000000
;
#DISPLAYBPM:*;
#STOPS:94.750000=0.971000,
125.500000=0.214000
;
#BGCHANGES:;
#KEYSOUNDS:;
#ATTACKS:;

//---------------dance-single - ----------------
#NOTES:
     dance-single:
     :
     Beginner:
     2:
     0.135032,0.178388,0.009267,0.074135,0.000000,102.000000,101.000000,1.000000,8.000000,0.000000,0.000000,0.135032,0.178388,0.009267,0.074135,0.000000,102.000000,101.000000,1.000000,8.000000,0.000000,0.000000:
0000
0000
0000
0000
,
0000
0000
0000
0000
,
0001
0000
0001
0000
,
1000
0000
1000
0000
,
0001
0000
0001
0000
,
1000
0000
1000
0000
,
0100
0100
0100
0000
,
0010
0000
0010
0000
,
0002
0000
1003
0000
,
2000
0000
3001
0001
,
0100
0000
0100
0000
,
0010
0000
0010
0000
,
0100
0000
0001
0000
,
1000
0000
0100
0000
,
0010
0000
0010
0000
,
0100
0000
0100
0000
,
1000
0000
0001
0000
,
0100
0000
0010
0000
,
1000
1000
1000
0000
,
0001
0001
0001
0000
,
0100
0000
0010
0000
,
0100
0000
0001
0000
,
2000
0000
0000
0000
,
0000
0000
0000
3001
,
0001
0001
0000
1000
,
1000
1000
0000
0001
,
0000
1000
0000
0010
,
0000
0010
0000
0100
,
0100
0100
0000
0010
,
0010
0010
0000
1000
,
0000
0001
0000
1000
,
1000
0000
0001
0001
0010
0000
0000
0000
,
0010
0000
0100
0100
,
0100
0000
1000
0000
,
1000
0000
0001
0001
,
0001
0000
0100
0000
,
0001
0000
1000
0000
,
0010
0000
0100
0000
,
0001
0000
0010
0000
,
0100
0000
2000
0000
,
3001
0000
0001
0000
,
0002
0000
1003
0000
,
1000
0000
2000
0000
,
3001
0000
0001
0000
,
0002
0000
1003
0000
,
0010
0000
0200
0000
,
0000
0000
0000
0000
,
0300
0001
0000
0000
0000
1000
0000
0000
,
0000
1001
0000
0000
0000
0000
0000
0000
;

//---------------dance-single - ----------------
#NOTES:
     dance-single:
     :
     Challenge:
     10:
     0.667216,0.646656,0.324341,0.148270,0.713551,504.000000,469.000000,35.000000,16.000000,0.000000,0.000000,0.667216,0.646656,0.324341,0.148270,0.713551,504.000000,469.000000,35.000000,16.000000,0.000000,0.000000:
0000
0000
0000
0000
,
0000
0000
0000
0000
,
0001
0000
0000
0000
1000
0000
0010
0000
0100
0001
0010
0000
0100
1000
0001
1000
,
0010
0100
0001
0100
0010
1000
0100
0010
0001
0010
0100
1000
0010
0000
0000
0000
,
0110
0000
0000
0000
1001
0000
0000
0000
1000
0000
0001
0100
0010
0000
1000
0000
,
1100
0000
0000
0000
0001
0010
0100
0000
1000
0001
0100
0010
0100
0001
0000
0000
,
0010
0100
1000
0010
0100
0001
0010
0000
0010
0001
1000
0010
0100
0000
0000
0000
,
0100
0001
0100
0010
1000
0100
1000
0001
0010
0001
0100
0010
1000
0100
0001
0100
,
2000
0000
3002
0000
,
0203
0000
0000
0000
0000
0010
0000
0001
0010
0000
0000
0000
0010
0000
1000
0010
,
0301
0000
0010
1000
0100
0000
0010
0001
1000
0000
0010
0100
0001
0000
0001
0000
,
0100
0000
0001
0010
0100
0000
1000
0001
1000
0000
0010
0100
0001
0000
0001
0010
,
0100
1000
0100
1000
0001
0000
1000
0010
1000
0000
1000
0000
0001
0100
0001
0000
,
1000
0100
0010
0001
0010
0000
0001
0000
0200
0000
0000
0000
0000
0000
0000
0000
,
0310
0000
1000
0100
0001
0000
0001
0100
2000
0000
0000
3001
1000
0000
0001
0000
,
1000
0000
0001
0100
1000
0000
1000
0100
0002
0000
1003
0000
0010
0000
0010
0100
,
0001
0000
0001
1000
0010
0000
1000
0000
0001
0000
0100
0001
1000
0000
1000
0010
,
0001
0000
0010
0001
0010
0000
1000
0000
0001
0000
1000
0001
1000
0000
0001
0000
,
0101
0000
0001
0000
0020
0000
0000
0130
1000
0000
0100
0001
0100
0000
1000
0000
,
1010
0000
0010
0100
0001
0000
0010
0000
0210
0000
0000
0310
0001
0000
0100
0010
,
1000
0000
1000
0001
0010
0000
0010
0000
1000
0010
0001
0000
1000
0000
0010
0000
,
0110
0000
0000
0000
0000
0000
0000
0000
0000
0000
0000
0110
0000
0000
0000
0000
0000
0000
0001
0000
0000
0000
0000
0000
0020
0000
0000
0000
0000
0000
2030
0000
0000
0000
0000
0000
3200
0000
0000
0000
0000
0000
0301
0000
0000
0000
0000
0000
,
1001
0000
0000
0000
0001
0000
0100
0000
0001
0000
0000
0000
1000
0000
0000
0000
0010
0000
1000
0000
0010
0000
0000
0000
1000
0010
0100
0001
1000
0000
0001
0000
,
0010
0000
0100
1000
0100
0000
0010
0000
0001
0100
0001
0000
1002
0000
1000
0000
,
0103
0000
0001
0010
0100
0010
0001
0000
1000
0000
1000
0010
0100
0000
0100
0000
,
0001
0000
1000
0100
1000
0010
0100
0000
0001
0000
1000
0000
1020
0000
1000
0000
,
0130
0000
0001
0100
0010
0100
0001
0000
1000
0000
1000
0001
0010
0000
0010
0100
,
1000
0001
1000
0010
0100
0000
0001
0000
1000
0000
1000
0000
1200
0000
0010
0000
,
1300
0000
0010
0100
0010
1000
0100
0000
1000
0000
1000
0001
0010
0000
0010
0100
,
0010
0001
0100
0000
0010
0000
0100
0000
0001
1000
0001
0000
0010
0000
0100
1000
,
0001
0000
1000
0000
0010
0100
0001
0000
1000
0000
0001
0000
0011
0000
0000
1100
,
0000
1000
0010
0100
0001
1000
1001
0000
0201
0000
0001
0000
0310
0000
1000
0100
,
1000
0001
0100
0000
0010
0000
0010
0100
0001
0000
1000
0000
0100
1000
0010
0000
,
0100
0000
0001
0000
0010
0000
0010
0001
0100
0000
0010
0000
1000
0100
1000
0001
,
0010
0001
0100
0010
1000
0000
0100
0000
1000
0001
1000
0001
0100
0010
0100
0010
,
1000
0010
0100
0001
1000
0001
1000
0100
0010
0000
0001
0000
0100
0000
0001
0000
,
1000
0010
1000
0000
0001
0000
1000
0100
1000
0000
0010
0000
1000
0000
0100
0000
,
0010
0001
0010
0000
0001
0000
0100
0001
0100
0000
0010
1000
0001
0000
0010
0000
,
0010
0100
1000
0000
0001
0000
1000
0000
0010
1000
0010
0100
0001
0010
1000
0010
,
0001
0000
0000
0100
0000
0000
0010
0000
0000
1000
0000
0000
0100
0000
0000
0001
0000
0000
0100
0000
0000
0000
0000
0000
1100
0000
0000
0000
1100
0000
0000
0000
1100
0000
0000
0000
0000
0000
0000
0000
0000
0000
0000
0000
0000
0000
0000
0000
,
1010
0000
1000
0000
1001
0000
0001
0010
0000
0100
1000
0001
1000
0000
0010
0000
,
1010
0000
0000
0000
1010
0000
0000
0000
1010
0000
0000
0000
0000
0000
0000
0000
0000
0000
0000
0000
0000
0000
0000
0000
0110
0000
0000
0000
0000
0000
0001
0000
0000
0000
0000
0000
1001
0000
0000
0000
0000
0000
1000
0000
0000
0010
0000
0000
,
0000
0000
0000
0100
0000
0000
0001
0000
0000
1000
0000
0000
0100
0000
0000
0000
0000
0000
0010
0000
0000
0000
0000
0000
0011
0000
0000
0000
0011
0000
0000
0000
0011
0000
0000
0000
0000
0000
0000
0000
0000
0000
0000
0000
0000
0000
0000
0000
,
1001
0000
0010
0000
1010
0000
0100
0001
0000
0010
0100
1000
0001
0000
1000
0000
,
0101
0000
0000
0000
0101
0000
0000
0000
0101
0000
0000
0000
0000
0000
0000
0000
0000
0000
0000
0000
0000
0000
0000
0000
0001
0000
0000
0010
0000
0000
1000
0000
0000
0001
0000
0000
0100
0000
0000
1000
0000
0000
0001
0000
0000
0010
0000
0000
,
1000
0001
0100
1000
0001
0100
1000
0100
0002
0000
0000
0000
0000
0000
0000
0000
,
0000
0000
0000
0000
,
0003
0000
1000
0010
0001
1000
0100
0001
1000
0010
0001
1000
0100
0001
1000
0000
,
0000
1001
0000
0000
0000
0000
0000
0000
;

//---------------dance-single - ----------------
#NOTES:
     dance-single:
     :
     Easy:
     5:
     0.240939,0.267582,0.064868,0.083402,0.004633,182.000000,175.000000,7.000000,9.000000,0.000000,0.000000,0.240939,0.267582,0.064868,0.083402,0.004633,182.000000,175.000000,7.000000,9.000000,0.000000,0.000000:
0000
0000
0000
0000
,
0000
0000
0000
0000
,
1000
0000
0001
0001
,
1000
0001
1001
0000
,
0010
0000
0100
0100
,
0010
1000
0001
0000
,
1000
0001
1000
1001
,
0010
0010
0100
0010
,
0220
0000
0000
0000
,
0000
0030
1000
0010
,
0301
0001
1000
1000
,
0100
0100
0010
0010
,
0001
1000
0001
1000
,
0001
0010
0200
0000
,
1300
0000
1000
0000
0000
1000
0000
0000
,
0010
0000
0010
0000
0000
0010
0000
0000
,
0100
0000
0100
0000
0000
0100
0000
0000
,
0001
0000
0001
0000
0000
0001
0000
0000
,
1000
0000
0001
0000
0000
0010
0000
0010
,
0100
0000
1000
0000
0000
0001
0000
0001
,
0100
0000
0001
0000
0000
1000
0000
1000
,
0010
0100
0001
1000
,
1002
0000
1000
0000
1000
0000
0100
0100
,
1000
1000
1000
1003
,
0001
0000
1000
0100
1000
0000
0001
0000
,
0100
0000
0001
0010
0001
0000
1000
0000
,
0001
1000
1000
0010
,
0100
0001
1001
1000
,
0100
0000
1000
0010
1000
0000
0001
0000
,
1000
0000
0001
0100
0001
0000
0010
0000
,
0100
1000
0001
1000
,
0001
0000
0000
0000
0010
0100
0010
0000
0001
0000
0000
0000
0001
0000
0000
0000
,
1000
0010
0000
1000
0010
0000
0010
0000
,
0100
0001
0000
0100
0001
0000
0001
0000
,
1000
0100
0000
1000
0100
0000
0010
0000
,
0001
1000
1001
0001
,
0100
0010
0000
0100
0010
0000
1000
0000
,
0001
0010
0000
0001
0010
0000
0100
0000
,
1000
0001
0000
1000
0001
0000
1000
0000
,
0001
0100
0020
0000
,
1030
0001
1000
1000
,
0200
0000
0310
0001
,
0010
0010
0002
0000
,
1003
0010
0100
0100
,
0020
0000
1030
0100
,
0001
0100
2000
0000
,
0000
0000
0000
0000
,
3000
0001
0000
1000
0000
0010
0000
0100
,
0000
0110
0000
0000
0000
0000
0000
0000
;

//---------------dance-single - ----------------
#NOTES:
     dance-single:
     :
     Medium:
     6:
     0.378619,0.423671,0.231672,0.064868,0.037068,286.000000,261.000000,25.000000,7.000000,0.000000,0.000000,0.378619,0.423671,0.231672,0.064868,0.037068,286.000000,261.000000,25.000000,7.000000,0.000000,0.000000:
0000
0000
0000
0000
,
0000
0000
0000
0000
,
0001
0000
0100
0010
0100
0001
1000
0000
,
0100
0000
1000
0001
1000
0000
0110
0000
,
0101
0000
1100
0000
0001
0100
0001
0000
,
1000
0010
0100
0001
1000
0001
1000
0000
,
0100
0100
0010
0010
0100
1000
0001
0000
,
1000
0000
0001
0000
0100
0010
0100
0010
,
2000
0000
3200
0000
,
0320
0000
0032
1000
,
1003
0000
0100
0000
1000
0010
1000
0010
,
0100
0000
0001
0000
1000
0100
0001
0100
,
1000
0000
0001
0000
0010
0001
0010
0001
,
0100
0010
0220
0030
,
0301
0000
1000
0000
0001
0010
0001
0100
,
0010
0000
1000
0000
0100
1000
0001
0001
,
1000
0000
0010
0000
1000
0100
1000
0000
,
0010
0100
0001
0000
1000
0001
1000
0001
,
0010
0000
0100
0000
1000
0100
0000
0100
,
0010
0000
0001
0000
1000
0010
0000
0010
,
0100
0000
0001
0000
0100
0010
0000
0010
,
1000
0000
1001
0000
0001
0010
0100
1000
,
0001
0000
0100
0000
0100
0000
1000
0000
0100
0000
0100
0000
0001
1000
0001
1000
,
0001
0010
0010
1000
0010
0010
0001
0000
,
0011
0000
0100
1000
0001
1000
0010
0000
,
1010
0000
0100
0001
1000
0001
0010
0000
,
1100
0000
1000
0001
0100
0010
1000
0000
,
0101
0000
0010
0100
0001
1000
0100
0000
,
0110
0000
0010
0001
1000
0001
0100
0000
,
0110
0000
0010
1000
0001
1000
0001
0000
,
1001
0000
0000
0000
0001
0000
1000
0000
0001
0000
0000
0000
1001
0000
0000
1001
,
0000
0000
0000
0000
1000
0001
1000
0000
0010
0000
0000
0000
0100
0000
0000
0000
,
0001
1000
0001
0010
0001
0000
1000
0000
,
0100
1000
0001
0001
0100
0000
0010
0100
,
0001
0001
1000
0000
1000
0100
0010
0001
,
0010
0100
1000
0000
0001
0000
1000
0000
,
0001
0010
0100
0010
0001
0000
1000
0000
,
0010
1000
0100
0100
1000
0000
0010
1000
,
0001
0001
0100
0000
0010
0000
1000
0000
,
0001
0000
0000
0100
0000
0000
0001
0000
0000
0100
0000
0000
0001
0000
0000
0000
0101
0000
0000
0000
0000
0000
0000
0000
,
0101
0000
0110
0000
0010
1000
0001
1000
,
0010
0000
1010
0000
0000
0000
1010
0000
0000
1100
0000
0000
,
0001
0000
0000
0010
0000
0000
0100
0000
0000
1000
0000
0000
0100
0000
0000
0000
1100
0000
0000
0000
0000
0000
0000
0000
,
1100
0000
0110
0000
0001
1000
0010
0100
,
0001
0000
0000
0000
0011
0000
0000
0000
0000
0000
0000
0000
0001
0000
0000
0001
0000
0000
1000
0000
0000
1000
0000
0000
,
0001
0010
0100
1000
0002
0000
0000
0000
,
0000
0000
0000
0000
,
0003
1000
0001
1000
0001
0100
0010
1000
,
0000
1001
0000
0000
0000
0000
0000
0000
;

//---------------dance-single - ----------------
#NOTES:
     dance-single:
     :
     Hard:
     9:
     0.579843,0.624357,0.352142,0.101936,0.430911,438.000000,400.000000,38.000000,11.000000,0.000000,0.000000,0.579843,0.624357,0.352142,0.101936,0.430911,438.000000,400.000000,38.000000,11.000000,0.000000,0.000000:
0000
0000
0000
0000
,
0000
0000
0000
0000
,
1000
0000
0000
0000
0010
0000
0100
0000
0001
0010
0001
0000
1000
0000
0100
0000
,
0010
0000
0000
0000
0001
0000
0100
0000
0001
0010
0100
0000
1000
0000
0000
0000
,
0101
0000
0000
0000
1001
0000
0000
0000
1000
0000
0010
1000
0010
0000
0100
0000
,
0101
0000
0000
0000
0011
0000
0000
0000
0100
1000
0100
0000
1100
0000
0000
0000
,
0010
0001
0010
0000
0100
1000
0100
0000
0010
0000
0001
0000
1001
0000
0000
0000
,
1000
0000
0010
0000
0100
0000
0001
0000
1000
0100
1000
0100
0010
0001
0010
0001
,
2000
0000
3002
0000
,
0023
0000
0000
0000
0000
0100
0000
0000
0100
0000
0000
0000
0100
0000
0100
0000
,
0130
0000
1000
0000
0001
0000
1000
0000
0010
0000
0010
0000
0100
0001
0100
0000
,
0010
0000
1000
0000
0100
0000
0010
0000
0001
0000
0001
0000
0010
0000
0010
0100
,
1000
0000
0001
0000
0100
0000
0010
0000
0100
0000
0001
0000
1000
0001
1000
0000
,
0010
0000
0100
0001
0100
0000
0001
0000
0020
0000
0000
0000
0000
0000
0000
0000
,
0130
0000
1000
0000
0001
0000
1000
0010
1000
0000
0100
0000
0010
0000
0001
0000
,
0100
0000
0001
0000
1000
0000
0010
1000
0100
0000
0010
0000
0001
0000
0001
0010
,
0100
0000
1000
0000
0001
1000
0001
0000
1000
0000
0010
0000
0100
0000
0100
0000
,
0001
0000
0100
0010
0100
0000
0010
0000
1000
0000
0001
1000
0100
0000
0100
0000
,
2000
0000
0010
0000
3010
0000
0100
0001
0100
0000
0010
0000
1000
0000
1000
0000
,
0002
0000
0010
0000
0013
0000
0100
1000
0100
0000
0010
0000
0001
0000
0001
0100
,
0010
0000
1000
0000
0100
0000
1000
0000
0001
0000
0010
0100
0010
0000
0001
0000
,
1001
0000
0000
0000
0000
0000
0000
0000
0000
0000
0000
1001
0000
0000
0000
0000
0000
0000
0000
0000
0000
0000
0000
0000
0001
0000
0000
0000
0000
0000
0001
0000
0000
0000
0000
0000
1000
0000
0000
0000
0000
0000
1000
0000
0000
0000
0000
0000
,
0010
0000
0100
0001
0100
0000
0010
0000
1000
0000
0001
0000
1000
1000
0001
0001
,
0010
0000
0100
1000
0100
0000
0010
0001
1000
0000
0010
0000
0120
0000
0000
0000
,
0130
0000
0001
1000
0001
0000
1000
0000
0100
0000
0100
1000
0020
0000
0000
0000
,
0130
0000
0001
0000
0010
0000
0100
1000
0100
0000
1000
0000
0010
0000
1000
0010
,
1000
0000
0001
0000
0100
0001
0100
0000
0010
0000
0100
0001
0010
0000
0100
0000
,
1000
0000
1000
0000
0001
0000
0001
0010
0100
0000
1000
0000
1002
0000
0000
0000
,
1003
0000
0010
1000
0100
0000
0010
0000
0001
0000
0001
0000
0012
0000
0000
0000
,
1003
0000
0010
1000
0010
0000
1000
0000
0001
0100
0001
0000
1000
0000
0100
1000
,
0010
0000
0100
0000
0001
0010
0001
0000
1000
0000
0010
0000
0110
0000
0000
0110
,
0000
0000
0001
1000
0001
1000
1001
0000
0101
0000
0100
0000
0110
0000
0000
0010
,
1000
0000
0001
1000
0100
0000
0100
0000
1100
0000
0100
0000
0110
0000
0000
0010
,
0001
0000
1000
0001
1000
0000
0010
0000
0100
0000
0001
0010
0001
0000
0100
0000
,
0010
1000
0010
0000
0100
0000
0001
0000
1000
0000
0100
0000
0001
0000
0100
0000
,
1000
0000
0010
0100
0001
0000
0001
0000
0011
0000
0010
0000
0110
0000
0000
0100
,
1000
0000
0010
1000
0001
0000
0001
0000
1001
0000
1000
0000
1100
0000
0000
0100
,
0010
0000
0001
1000
0001
0000
0010
0000
0001
0000
1000
0100
1000
0000
0010
0000
,
0100
0001
0100
0000
0010
0000
1000
0000
0001
0000
0001
0000
1000
0000
1000
0000
,
0001
0000
0000
1000
0000
0000
0001
0000
0000
1000
0000
0000
0010
0000
0000
0100
0000
0000
0010
0000
0000
0000
0000
0000
1010
0000
0000
0000
1010
0000
0000
0000
1010
0000
0000
0000
0000
0000
0000
0000
0000
0000
0000
0000
0000
0000
0000
0000
,
1000
0000
1000
0000
1001
0000
0001
1000
0000
1000
0010
0100
0001
0000
1000
0000
,
1100
0000
0000
0000
1100
0000
0000
0000
1100
0000
0000
0000
0000
0000
0000
0000
0000
0000
0000
0000
0000
0000
0000
0000
0001
0000
0000
0000
0000
0000
0001
0000
0000
0000
0000
0000
1001
0000
0000
0000
0000
0000
1000
0000
0000
0010
0000
0000
,
0000
0000
0000
0010
0000
0000
0100
0000
0000
0001
0000
0000
1000
0000
0000
0000
0000
0000
0001
0000
0000
0000
0000
0000
0011
0000
0000
0000
0011
0000
0000
0000
0011
0000
0000
0000
0000
0000
0000
0000
0000
0000
0000
0000
0000
0000
0000
0000
,
0010
0000
0010
0000
0110
0000
0100
1000
0000
1000
0010
0100
0001
0000
0100
0000
,
0101
0000
0000
0000
0101
0000
0000
0000
0101
0000
0000
0000
0000
0000
0000
0000
0000
0000
0000
0000
0000
0000
0000
0000
0001
0000
0000
0100
0000
0000
0001
0000
0000
0100
0000
0000
0010
0000
0000
1000
0000
0000
0010
0000
0000
1000
0000
0000
,
0100
1000
0010
0100
0001
0010
0001
1000
0200
0000
0000
0000
0000
0000
0000
0000
,
0000
0000
0000
0000
,
0300
0000
1000
0100
1000
0010
1000
0010
0100
0001
0100
0010
1000
0100
0010
0000
,
0000
0110
0000
0000
0000
0000
0000
0000
;

//---------------dance-double - ----------------
#NOTES:
     dance-double:
     :
     Challenge:
     10:
     0.665893,0.646656,0.296541,0.074135,0.824754,503.000000,471.000000,32.000000,8.000000,0.000000,0.000000,0.665893,0.646656,0.296541,0.074135,0.824754,503.000000,471.000000,32.000000,8.000000,0.000000,0.000000:
00000000
00000000
00000000
00000000
,
00000000
00000000
00000000
00000000
,
00001000
00000000
00000000
00000000
00010000
00000000
00000100
00000000
00000010
00000001
00000100
00000000
00000010
00001000
00000001
00001000
,
00000100
00010000
00001000
00010000
00001000
01000000
00100000
10000000
00100000
01000000
00010000
10000000
00100000
00000000
00000000
00000000
,
01100000
00000000
00000000
00010000
10000000
00100000
00000000
00000000
10000000
00000000
01000000
00010000
00001000
00000000
00100000
00000000
,
00110000
00000000
00000000
00000000
00001000
00010000
00001000
00000000
00000100
00000001
00000100
00000010
00000100
00000001
00000000
00000000
,
00000010
00000100
00001000
00000001
00000100
00001000
00010000
00000000
00010000
00000100
00010000
00001000
01000000
00000000
00000000
00000000
,
00100000
10000000
00100000
01000000
00010000
01000000
00010000
00100000
00001000
00010000
01000000
10000000
00010000
00100000
01000000
10000000
,
00020000
00000000
00032000
00000000
,
00003200
00000000
00000000
00000000
00000000
00000010
00000000
00001000
00000010
00000000
00000000
00000000
00000010
00000000
00000001
00000010
,
00001300
00000000
00000010
00001000
00000100
00000000
00000010
00000001
00001000
00000010
00000000
00000010
00010000
00000000
00001000
00000000
,
00100000
00000000
00010000
00100000
01000000
00000000
10000000
00010000
10000000
01000000
00010000
00000000
00001000
00000000
00100000
00000000
,
00001000
00010000
00000100
00010000
00000100
00001000
00000010
00001000
00000010
00000100
00000000
00000100
00000001
00000000
00000010
00000000
,
00001000
00010000
00001000
00010000
00100000
00000000
10000000
01000000
00200000
00000000
00000000
00000000
00000000
00000000
00000000
00000000
,
00310000
00000000
10000000
01000000
00100000
00000000
00100000
00010000
01000000
00100000
00000000
00100000
00010000
00000000
00001000
00000000
,
00000100
00000000
00000001
00000000
00001000
00000000
00000001
00000000
00000100
00000010
00000000
00000000
00001000
00000001
00001000
00000001
,
00001000
00000000
00000001
00000100
00000010
00000000
00000010
00001000
00000100
00000010
00000000
00000010
00001000
00010000
00000000
00010000
,
00001000
00100000
00001000
00100000
00010000
00000000
10000000
01000000
00100000
00000000
00010000
00000000
01000000
00100000
01000000
00000000
,
00010000
00000000
10000000
00100000
01000000
00000000
01000000
00010000
00100000
01000000
00000000
01000000
00010000
00000000
00001000
00000000
,
00000010
00000000
00000001
00000000
00001000
00000000
00000001
00000000
00000010
00000100
00000000
00000000
00001000
00000001
00001000
00000001
,
00001000
00000000
00000001
00000010
00000100
00000000
00000100
00001000
00000010
00000100
00000000
00000100
00001000
00010000
00000000
00000000
,
01100000
00000000
10010000
00000000
00200000
20300000
32000000
03010000
,
00011000
00000000
00000000
00000000
00001000
00000000
00000100
00000000
00000000
00000000
00000100
00000000
00000001
00000000
00001000
00000000
00000001
00000000
00000000
00000000
00000010
00000000
00000100
00000000
00010000
00001000
00010000
00001000
00010000
00000000
00000000
00000000
,
00011000
00000000
00010000
01000000
00000000
01000000
10000000
00010000
10000000
00000000
00010000
00000000
10010000
00000000
10000000
00000000
,
01000000
00000000
00010000
00001000
00100000
00001000
00000000
00001000
00010000
00000000
00000100
00000000
00000010
00000000
00000001
00000100
,
00000010
00000000
00010000
00001000
00010000
00001000
01000000
00000000
00010000
00000000
10000000
00000000
00100000
00000000
10000000
00000000
,
01000000
00000000
00010000
00000000
00001000
00000010
00000000
00000010
00000100
00001000
00000000
00000000
00000001
00000100
00000001
00000100
,
00000001
00000000
00001000
00000100
00001000
00000100
00001000
00000000
00000010
00000000
00000000
00000000
00001001
00000000
00000001
00000000
,
00000100
00000000
00001000
00010000
00000010
00010000
00000000
00010000
00001000
00000000
01000000
00000000
00100000
00000000
10000000
01000000
,
00100000
00000000
00001000
00010000
00001000
00010000
00000100
00000000
00001000
00000000
00000001
00000000
00000010
00000000
00000001
00000000
,
00000100
00000000
00001000
00000000
00010000
00100000
00000000
00100000
01000000
00010000
00000000
00000000
10010000
00000000
00000000
00000000
,
01001000
00000000
00000000
00000000
00100000
00001000
00011000
00000000
00000101
00000000
00000001
00000000
00000010
00000000
00001000
00000000
,
00010000
00000100
00000000
00010000
00001000
00010000
00001000
00000000
00100000
00000000
00010000
01000000
00100000
00000000
10000000
00010000
,
10000000
00010000
10000000
00010000
01000000
00000000
00100000
00000000
00010000
00001000
00010000
00001000
00010000
00000000
00000100
00000000
,
00000010
00000001
00000000
00000000
00000001
00000100
00001000
00000000
00010000
01000000
10000000
00010000
10000000
00010000
01000000
00001000
,
01000000
00001000
00010000
00000100
00010000
00000100
00001000
00000100
00001000
00000000
00000010
00000000
00000100
00000000
00000001
00000000
,
00000010
00001000
00000000
00010000
00001000
00000100
00000000
00001000
00010000
00000000
01000000
00000000
10000000
00000000
00010000
01000000
,
00100000
10000000
00010000
00000000
10010000
00000000
00000000
00000000
00010000
00000000
00100000
00000000
01000000
00000000
10000000
00000000
,
00100000
00010000
00000000
00001000
00010000
01000000
00000000
00010000
00001000
00000010
00000001
00001000
00000001
00000100
00000010
00000100
,
00000010
00000000
00000000
00001000
00000000
00000000
00000100
00000000
00000000
00010000
00000000
00000000
00001000
00000000
00000000
00010000
00000000
00000000
00001000
00000000
00000000
00000000
00000000
00000000
00011000
00000000
00000000
00000000
00011000
00000000
00000000
00000000
00011000
00000000
00000000
00000000
00000000
00000000
00000000
00000000
00000000
00000000
00000000
00000000
00000000
00000000
00000000
00000000
,
10100000
00000000
10000000
00000000
10010000
00000000
01000000
00100000
00000000
01000000
00001000
01000000
00001000
00000000
00010000
00000000
,
00011000
00000000
00000000
00000000
00011000
00000000
00000000
00000000
00011000
00000000
00000000
00000000
00000000
00000000
00000000
00000000
00000000
00000000
00000000
00000000
00000000
00000000
00000000
00000000
00000011
00000000
00000000
00000000
00000000
00000000
00000001
00000000
00000000
00000000
00000000
00000000
00001001
00000000
00000000
00000000
00000000
00000000
00000100
00000000
00000000
00000010
00000000
00000000
,
00000000
00000000
00000000
00000100
00000000
00000000
00010000
00000000
00000000
00000100
00000000
00000000
00010000
00000000
00000000
00000000
00000000
00000000
00001000
00000000
00000000
00000000
00000000
00000000
00011000
00000000
00000000
00000000
00011000
00000000
00000000
00000000
00011000
00000000
00000000
00000000
00000000
00000000
00000000
00000000
00000000
00000000
00000000
00000000
00000000
00000000
00000000
00000000
,
11000000
00000000
10000000
00000000
10010000
00000000
00100000
01000000
00000000
00100000
00001000
00100000
00001000
00000000
00010000
00000000
,
00011000
00000000
00000000
00000000
00011000
00000000
00000000
00000000
00011000
00000000
00000000
00000000
00000000
00000000
00000000
00000000
00000000
00000000
00000000
00000000
00000000
00000000
00000000
00000000
00001000
00000000
00000000
00000010
00000000
00000000
00000001
00000000
00000000
00001000
00000000
00000000
00000001
00000000
00000000
00000100
00000000
00000000
00001000
00000000
00000000
00010000
00000000
00000000
,
00100000
10000000
00010000
10000000
01000000
00010000
00001000
00000010
00002000
00000000
00000000
00000000
00000000
00000000
00000000
00000000
,
00000000
00000000
00000000
00000000
,
00003000
00000000
00010000
00100000
10000000
00010000
10000000
01000000
00010000
00001000
00000010
00000001
00001000
00000001
00000100
00001000
,
00010000
00011000
00000000
00000000
00000000
00000000
00000000
00000000
;

//---------------dance-double - ----------------
#NOTES:
     dance-double:
     :
     Hard:
     9:
     0.556014,0.602059,0.259473,0.101936,0.495779,420.000000,392.000000,28.000000,11.000000,0.000000,0.000000,0.556014,0.602059,0.259473,0.101936,0.495779,420.000000,392.000000,28.000000,11.000000,0.000000,0.000000:
00000000
00000000
00000000
00000000
,
00000000
00000000
00000000
00000000
,
00010000
00000000
00000000
00000000
00001000
00000000
01000000
00000000
00010000
00100000
00010000
00000000
10000000
00000000
00000000
00000000
,
01000000
00000000
00010000
00000000
00001000
00000000
00000100
00000000
00000001
00001000
00000001
00000000
00000100
00000000
00000000
00000000
,
00000110
00000000
00000000
00000001
00001000
00000001
00000000
00000000
00000010
00000000
00000001
00000010
00000001
00000000
00000100
00000000
,
00001000
00000000
00000000
00000000
00010000
00000000
01000000
00000000
10000000
00010000
10000000
00010000
10000000
00000000
00000000
00000000
,
00100000
00000000
10000000
00000000
01000000
00100000
01000000
00000000
00010000
00000000
00001000
00000000
00011000
00000000
00000000
00000000
,
00000100
00000001
00000010
00001000
00010000
00100000
10000000
00010000
,
20000000
00000000
30020000
00000000
,
00230000
00000000
00000000
00000000
00000000
01000000
00000000
00000000
01000000
00000000
00000000
00000000
01000000
00000000
01000000
00000000
,
01300000
00000000
10000000
00000000
00100000
00000000
00010000
00000000
00000010
00000100
00000000
00000001
00000100
00000000
00000010
00000000
,
00001000
00000000
00000100
00000000
00000010
00000000
00001000
00000000
00010000
00000000
00100000
01000000
00100000
00000000
10000000
00000000
,
00010000
00000000
10000000
00000000
01000000
00000000
00010000
00000000
00000100
00000010
00000000
00000001
00000100
00000000
00000010
00000000
,
00010000
00000000
00000100
00001000
00000100
00000000
00010000
00000000
00001000
00000000
00200000
00000000
00000000
00000000
00300000
00000000
,
00010000
00000000
10000000
01000000
10000000
00000000
00010000
00000000
00100000
00001000
00000000
00001000
00010000
00000000
00000100
00000000
,
00000010
00000000
00000001
00000000
00000100
00000000
00001000
00000000
00010000
00000100
00000000
00000000
00000110
00000000
00000000
00000000
,
00001000
00000000
00000001
00000100
00000001
00000000
00001000
00000000
00000010
00010000
00000000
00000000
00001000
01000000
00000000
00000000
,
00100000
00000000
10000000
00010000
10000000
00000000
01000000
00000000
00010000
00001000
00010000
00001000
00010000
00000000
00000000
00000000
,
00002000
00000000
00000010
00000000
00003010
00000000
00000001
00000000
00001000
00000001
00000000
00000001
00000010
00000000
00000100
00000000
,
00020000
00000000
01000000
00000000
01030000
00000000
10000000
00000000
00100000
00010000
00000000
00000000
01001000
00000000
00000000
00000000
,
00020000
00000000
00100000
00000000
00130000
00000000
10000000
00000000
00010000
10000000
00000000
00000000
00100000
00010000
00000000
00000000
,
00011000
00000000
00001010
00000000
00000010
00000010
00000001
00000001
,
00001000
00000000
00000100
00010000
00000000
00010000
00001000
00200000
00000000
00310000
10000000
00010000
10000000
01000000
00100000
00000000
,
00010000
00000000
01000000
00001000
00000000
00001000
00010000
00000020
00000000
00001030
00000001
00000000
00002001
00000000
00000000
00000000
,
00003001
00000000
00000100
00000000
00001000
00010000
00000000
00000000
00000100
00000000
00000010
00000001
00000100
00000000
00001000
00000000
,
00010000
00000000
01000000
00000000
10000000
00000000
00100000
01000000
00100000
00000000
10000000
00000000
00010000
00000000
10000000
00100000
,
10000000
00000000
01000000
00000000
00010000
00001000
00000000
00000000
00000010
00000001
00000000
00000000
00001000
00000100
00001000
00000000
,
00000001
00000000
00000100
00000010
00000100
00000010
00000100
00000000
00000110
00000000
00000000
00000000
00000001
00000000
00000100
00000000
,
00001000
00000000
00010000
00000000
00100000
10000000
00000000
10000000
00010000
00000000
01000000
00000000
01100000
00000000
00000000
00000000
,
10000000
00000000
00010000
00100000
00010000
00000000
10000000
00000000
00010000
00000000
01000000
00100000
10000000
00000000
01000000
00000000
,
00010000
00000000
00001000
00000000
00000010
00000001
00000000
00000000
00001000
00000100
00000000
00000000
00011000
00000000
00000000
00000000
,
00010100
00000000
00000000
00000000
00001000
00100000
00010000
00000000
10000000
00000000
00010000
00000000
10000000
00000000
01000000
00100000
,
00010000
10000000
00000000
00010000
01000000
00000000
00001000
00000000
00010000
00000000
00000100
00000010
00000100
00000000
00001000
00000001
,
00001000
00000001
00001000
00000000
00000110
00000000
00000000
00000000
00000001
00000000
00001000
00000000
00000001
00000000
00000100
00000010
,
00001000
00000001
00000000
00000000
00000100
00001000
00000000
00000000
00010000
00000000
00001000
00100000
00001000
00100000
00010000
00100000
,
00010000
00000000
01000000
00100000
10000000
00000000
01000000
00000000
00010000
00000000
00001000
00000000
00000100
00000000
00000001
00000000
,
00001000
00000010
00000000
00000010
00000100
00000000
00000100
00000000
00000001
00000000
00000010
00000000
00001000
00000000
00010000
00000000
,
00100000
10000000
00010000
00000000
10000000
00100000
00010000
00001000
,
00000010
00000001
00000000
00000000
00000100
00000010
00000000
00000000
00010000
00000100
00010000
00000100
00010000
00000000
00001000
00100000
,
00001000
00000000
00000000
00100000
00000000
00000000
00001000
00000000
00000000
00000000
00000000
00000000
00010000
00000000
00000000
00001000
00000000
00000000
00010000
00000000
00000000
00000000
00000000
00000000
00011000
00000000
00000000
00000000
00011000
00000000
00000000
00000000
00011000
00000000
00000000
00000000
00000000
00000000
00000000
00000000
00000000
00000000
00000000
00000000
00000000
00000000
00000000
00000000
,
00100000
00000000
10000000
00000000
10010000
00000000
00010000
01000000
00000000
01000000
00100000
00000000
00010000
00000000
00001000
00000000
,
00011000
00000000
00000000
00000000
00011000
00000000
00000000
00000000
00011000
00000000
00000000
00000000
00000000
00000000
00000000
00000000
00000000
00000000
00000000
00000000
00000000
00000000
00000000
00000000
00000010
00000000
00000000
00000000
00000000
00000000
00000001
00000000
00000000
00000000
00000000
00000000
00001001
00000000
00000000
00000000
00000000
00000000
00001000
00000000
00000000
00000100
00000000
00000000
,
00000000
00000000
00000000
00000100
00000000
00000000
00000010
00000000
00000000
00000000
00000000
00000000
00001000
00000000
00000000
00000000
00000000
00000000
00010000
00000000
00000000
00000000
00000000
00000000
00011000
00000000
00000000
00000000
00011000
00000000
00000000
00000000
00011000
00000000
00000000
00000000
00000000
00000000
00000000
00000000
00000000
00000000
00000000
00000000
00000000
00000000
00000000
00000000
,
01000000
00000000
10000000
00000000
10010000
00000000
00010000
00100000
00000000
00100000
01000000
00000000
00010000
00000000
00001000
00000000
,
00011000
00000000
00000000
00000000
00011000
00000000
00000000
00000000
00011000
00000000
00000000
00000000
00000000
00000000
00000000
00000000
00000000
00000000
00000000
00000000
00000000
00000000
00000000
00000000
00000100
00000000
00000000
00000001
00000000
00000000
00000100
00000000
00000000
00000001
00000000
00000000
00001000
00000000
00000000
00000100
00000000
00000000
00001000
00000000
00000000
00000100
00000000
00000000
,
00000010
00000001
00001000
00000010
00001000
00000010
00010000
00001000
00020000
00000000
00000000
00000000
00000000
00000000
00000000
00000000
,
00000000
00000000
00000000
00000000
,
00030000
00000000
01000000
10000000
01000000
10000000
00010000
01000000
00010000
01000000
00100000
10000000
00010000
00100000
00010000
00100000
,
00001000
00011000
00000000
00000000
00000000
00000000
00000000
00000000
;

//---------------dance-double - ----------------
#NOTES:
     dance-double:
     :
     Medium:
     6:
     0.345523,0.356775,0.139003,0.148270,0.018534,261.000000,246.000000,15.000000,16.000000,0.000000,0.000000,0.345523,0.356775,0.139003,0.148270,0.018534,261.000000,246.000000,15.000000,16.000000,0.000000,0.000000:
00000000
00000000
00000000
00000000
,
00000000
00000000
00000000
00000000
,
10000000
00000000
01000000
00100000
01000000
00010000
00001000
00000000
,
00000100
00000000
00000001
00001000
00000001
00000000
00000110
00000000
,
00000101
00000000
00001010
00000000
00000001
00000100
00000001
00000000
,
00001000
00000010
00001000
00000100
00010000
00001000
01000000
00000000
,
00010000
10000000
00010000
10000000
01000000
00100000
00001000
00000000
,
00010000
00000100
00010000
00000100
00001000
00000010
00001000
00000000
,
00000002
00000000
00000023
00000000
,
00000230
00000000
00020300
00000000
,
00031000
00000000
00100000
00000000
00010000
10000000
00010000
10000000
,
01000000
00000000
00100000
00000000
00010000
10000000
01000000
00010000
,
00001000
00000000
00000100
00000000
00000001
00000000
00001000
00000010
,
00000100
00001000
00022000
00033000
,
00010000
00000000
00000010
00000000
00001000
00000001
00001000
00000001
,
00000100
00000000
00000010
00000000
00010000
00001000
00010000
01000000
,
10000000
00000000
00010000
00000000
10000000
01000000
10000000
01000000
,
00100000
00000000
00001000
00000000
00010000
00001000
00000010
00000000
,
00000001
00000000
00001000
00000000
00000100
00010000
00001000
00000000
,
00100000
00000000
00010000
10000000
01000000
00100000
01000000
00000000
,
10000000
00000000
00010000
00000000
01000000
00001000
00010000
00000000
,
00001000
00000000
00011000
00000000
00001000
00000100
00000001
00000010
,
00000200
00010000
00020300
00000000
00032000
00100000
00103000
00000000
,
02000000
00001000
03002000
00000000
00023000
00030020
00001030
00000000
,
00001001
00000000
00000010
00000001
00001000
00000001
00000100
00000000
,
00001000
00000000
00010000
01000000
10000000
00000000
00100000
00000000
,
10010000
00000000
00100000
10000000
00010000
10000000
01000000
00000000
,
00010000
00000000
00001000
00000100
00000001
00000000
00000010
00000000
,
00000110
00000000
00000100
00001000
00000001
00000000
00001000
00000000
,
00000100
00010000
00001000
01000000
00010000
00000000
10000000
00000000
,
01100000
00000000
01000000
00010000
10000000
00000000
01000000
00000000
,
00010000
00000000
00022000
00033000
00000100
00000000
00000001
00001000
,
00000001
00000010
00001000
00000000
00010000
00000000
00000100
00010000
,
00001000
00100000
00010000
00000000
10000000
01000000
00100000
00010000
,
10000000
00000000
00100000
00010000
00001000
00000000
00000010
00000000
,
00001000
00000000
00010000
00000000
01000000
00000000
10000000
00010000
,
10000000
00100000
00010000
00000000
00001000
00000000
01000000
00001000
,
00010000
00000010
00001000
00000000
00000001
00000100
00000010
00001000
,
00000001
00000010
00001000
00010000
,
00100000
00000000
00000000
10000000
00000000
00000000
00010000
00000000
01010000
00000000
00000000
00000000
,
10000000
01000000
00010000
00000000
00001000
00000100
00000001
00000000
,
00001000
00000000
00000000
00000000
00001100
00000000
00000000
00000000
00000000
00000000
00000000
00000000
00000001
00000000
00000000
00000010
00000000
00000000
00001000
00000000
00000000
00000000
00000000
00000000
,
00010000
00000000
00000000
00100000
00000000
00000000
10000000
00000000
00000000
00000000
00000000
00000000
00010000
00000000
00000000
00000000
00110000
00000000
00000000
00000000
00000000
00000000
00000000
00000000
,
10000000
00100000
00010000
00000000
00001000
00000010
00000001
00000000
,
00001000
00000000
00000000
00000000
00001010
00000000
00000000
00000000
00000000
00000000
00000000
00000000
00000010
00000000
00000000
00001000
00000000
00000000
00000010
00000000
00000000
00001000
00000000
00000000
,
00000100
00010000
00000100
00010000
00002000
00000000
00000000
00000000
,
00000000
00000000
00000000
00000000
,
00003000
00100000
00010000
00100000
00010000
01000000
00001000
01000000
,
00000000
01001000
00000000
00000000
00000000
00000000
00000000
00000000
;

//---------------dance-double - ----------------
#NOTES:
     dance-double:
     :
     Easy:
     4:
     0.223729,0.267582,0.129737,0.157537,0.000000,169.000000,155.000000,14.000000,17.000000,0.000000,0.000000,0.223729,0.267582,0.129737,0.157537,0.000000,169.000000,155.000000,14.000000,17.000000,0.000000,0.000000:
// measure 0
00000000
00000000
00000000
00000000
,  // measure 1
00000000
00000000
00000000
00000000
,  // measure 2
00000010
00000000
00001000
00001000
,  // measure 3
00000100
00010000
00011000
00000000
,  // measure 4
00100000
00000000
00010000
00010000
,  // measure 5
01000000
00001000
00011000
00000000
,  // measure 6
00000100
00000001
00000100
00000001
,  // measure 7
00000010
00000100
00010000
00001000
,  // measure 8
00200000
00000000
00000000
00000000
,  // measure 9
00000000
00000000
00000000
00000000
,  // measure 10
00310000
00010000
10000000
10000000
,  // measure 11
01000000
01000000
00010000
00010000
,  // measure 12
00001000
00001000
00000100
00000100
,  // measure 13
00000001
00000001
00002002
00003003
,  // measure 14
00001000
00001000
00000001
00000001
,  // measure 15
00000100
00000100
00001000
00001000
,  // measure 16
00010000
00010000
01000000
01000000
,  // measure 17
10000000
00010000
20020000
30030000
,  // measure 18
00100000
10000000
01000000
00010000
,  // measure 19
00001000
00000100
00000001
00001000
,  // measure 20
00000010
00001000
00000001
00000100
,  // measure 21
00001000
00010000
01000000
00010000
,  // measure 22
00022000
00000000
00000000
00000000
,  // measure 23
00030000
00000000
00000000
00103000
,  // measure 24
00100000
00010000
10000000
01000000
,  // measure 25
00010000
00001000
00000100
00000010
,  // measure 26
00000010
00001000
00000001
00000100
,  // measure 27
00001000
00010000
00011000
01000000
,  // measure 28
01000000
00010000
10000000
00100000
,  // measure 29
00010000
00001000
00000010
00000100
,  // measure 30
00000100
00001000
00000001
00000010
,  // measure 31
00001000
00020000
00031000
00100000
,  // measure 32
00010000
10000000
10100000
01000000
,  // measure 33
01100000
00001000
00010000
00000010
,  // measure 34
00001000
00000001
00000011
00000100
,  // measure 35
00000110
00010000
00022000
00033000
,  // measure 36
00100000
10000000
10010000
00010000
,  // measure 37
01000000
00001000
00022000
00033000
,  // measure 38
00000010
00000001
00001000
00001000
,  // measure 39
00000100
00010000
00002000
00000000
,  // measure 40
00103000
00010000
10000000
10000000
,  // measure 41
02000000
00000000
03100000
00010000
,  // measure 42
10000000
01000000
00020000
00000000
,  // measure 43
00030010
00001000
00000001
00000001
,  // measure 44
00000200
00000000
00000310
00001000
,  // measure 45
00000001
00000100
00002000
00000000
,  // measure 46
00000000
00000000
00000000
00000000
,  // measure 47
00003000
00010000
00000000
01000000
00000000
10000000
00000000
00100000
,  // measure 48
00000000
01100000
00000000
00000000
00000000
00000000
00000000
00000000
;
