#VERSION:0.83;
#TITLE:earth scape;
#SUBTITLE:;
#ARTIST:dj TAKA;
#TITLETRANSLIT:;
#SUBTITLETRANSLIT:;
#ARTISTTRANSLIT:;
#GENRE:;
#ORIGIN:;
#CREDIT:;
#BANNER:earth scape.png;
#BACKGROUND:earth scape-bg.png;
#PREVIEWVID:;
#JACKET:earth scape-jacket.png;
#CDIMAGE:;
#DISCIMAGE:;
#LYRICSPATH:;
#CDTITLE:;
#MUSIC:earth scape.ogg;
#OFFSET:-0.410000;
#SAMPLESTART:54.800003;
#SAMPLELENGTH:15.000000;
#SELECTABLE:YES;
#BPMS:0.000=94.000,
10.000=91.000,
11.000=88.000,
15.000=84.000,
16.000=90.000,
17.000=94.000,
23.000=89.000,
24.000=94.000,
30.000=91.000,
31.000=88.000,
32.000=94.000,
45.000=91.000,
46.000=89.000,
47.000=85.000,
48.000=94.000,
63.000=84.000,
64.000=94.000,
75.000=88.000,
76.000=90.000,
77.000=89.000,
78.000=88.000,
79.000=87.000,
80.000=80.000,
83.000=94.000,
146.000=91.000,
147.000=87.000,
148.000=93.000,
164.000=92.000,
168.000=90.000,
172.000=88.000,
173.000=84.000,
174.000=71.000,
175.000=45.000,
176.000=94.000;
#STOPS:;
#DELAYS:;
#WARPS:;
#TIMESIGNATURES:0.000=4=4;
#TICKCOUNTS:0.000=4;
#COMBOS:0.000=1;
#SPEEDS:0.000=1.000=0.000=0;
#SCROLLS:0.000=1.000;
#FAKES:;
#LABELS:0.000=Song Start;
#BGCHANGES:-1.900=earth scape.avi=1.000=1=0=0=StretchNoLoop==CrossFade==,
99999=-nosongbg-=1.000=0=0=0 // don't automatically add -songbackground-
;
#KEYSOUNDS:;
#ATTACKS:
;

//---------------dance-single - ----------------
#NOTEDATA:;
#CHARTNAME:;
#STEPSTYPE:dance-single;
#DESCRIPTION:;
#CHARTSTYLE:;
#DIFFICULTY:Hard;
#METER:5;
#RADARVALUES:0.246056,0.277675,0.000000,0.160971,0.024146,214.000000,214.000000,0.000000,20.000000,0.000000,0.000000,0.000000,0.000000,0.000000,0.246056,0.277675,0.000000,0.160971,0.024146,214.000000,214.000000,0.000000,20.000000,0.000000,0.000000,0.000000,0.000000,0.000000;
#CREDIT:;
#NOTES:
0000
0000
0000
0000
,
0000
0000
0000
0000
,
0000
0000
0000
0000
,
0000
0000
0000
0000
,
1000
0100
0010
0001
0000
1000
0001
0000
,
0001
0100
0010
1000
0000
1000
0010
0000
,
0100
0001
1000
0100
0000
1000
0001
0000
,
0010
0100
1000
0001
1000
0000
0010
0000
,
0100
0010
1000
0100
0000
0000
1000
0000
,
0001
0100
0010
0100
0000
0001
0010
0100
,
1000
0000
0000
0000
0100
0000
1000
0000
0001
0000
0000
1000
0000
0000
0010
0000
,
0100
0001
0100
0001
1000
0010
1000
0010
,
0100
0001
0010
0100
,
1000
0000
0000
0000
0001
0000
0100
0010
,
1000
0000
0100
0010
0001
0000
1000
0010
,
0100
0001
0000
0000
0000
0000
0010
0000
,
0002
0003
0020
0030
0200
0300
2000
3000
,
0200
0000
0300
2000
3000
0000
0001
0000
,
0100
0000
0000
0000
0010
0000
1000
0000
0001
0000
0000
0010
0000
0000
0100
0000
,
2000
0000
0000
3000
0001
0000
0100
0010
,
0200
0000
0000
0300
,
0001
0100
0001
1000
0000
0100
1000
0000
,
0001
0010
0001
1000
0000
0010
1000
0000
,
0100
0000
1000
0010
1000
0010
0100
0000
,
0002
0023
0230
2300
,
3001
0100
0001
0000
1000
0100
1000
0000
,
0001
0010
0001
0000
1000
0010
1000
0000
,
0001
0000
0100
0000
0010
1000
0001
1000
,
0010
0000
0010
0000
0100
0010
0100
0010
,
1000
0000
0001
0000
1000
0100
1000
0001
,
1000
0000
0001
0000
1000
0000
0001
0100
,
0010
0000
1000
0100
0010
0000
0001
0100
,
0001
0000
1000
0000
0000
0000
0000
0000
0010
0000
0100
0000
0000
0001
0000
0000
,
2000
3000
0200
0300
0020
0030
0002
0003
,
0020
0000
0030
0200
0000
0300
1000
0000
,
0010
0000
0000
0000
0100
0000
0001
0000
1000
0000
0000
0100
0000
0010
0000
0000
,
0001
0000
1000
0000
0001
1000
0001
1000
,
0010
0100
0001
1000
0000
0001
1000
0000
,
0001
0100
0010
1000
0000
0001
1000
0000
,
0100
1000
0010
0100
0000
0001
0100
0000
,
0010
1000
0001
0000
1000
0000
0001
0000
,
1000
0100
0010
0001
0000
0000
0000
0000
,
0001
0100
0010
1000
0000
0000
0001
0000
,
1000
0001
1000
0001
0100
0010
0100
0010
,
2000
0000
0000
0000
,
0000
0000
0002
0000
0000
0000
0000
0000
0000
0000
0000
0000
,
3003
0000
0000
0000
;

//---------------dance-single - ----------------
#NOTEDATA:;
#CHARTNAME:;
#STEPSTYPE:dance-single;
#DESCRIPTION:;
#CHARTSTYLE:;
#DIFFICULTY:Beginner;
#METER:1;
#RADARVALUES:0.039093,0.070827,0.000000,0.000000,0.000000,34.000000,34.000000,0.000000,0.000000,0.000000,0.000000,0.000000,0.000000,0.000000,0.039093,0.070827,0.000000,0.000000,0.000000,34.000000,34.000000,0.000000,0.000000,0.000000,0.000000,0.000000,0.000000,0.000000;
#CREDIT:;
#NOTES:
0000
0000
0000
0000
,
0000
0000
0000
0000
,
0000
0000
0000
0000
,
0000
0000
0000
0000
,
0001
0000
0000
0000
,
0000
0000
0000
0000
,
1000
0000
0000
0000
,
0000
0000
0000
0000
,
0010
0000
0000
0000
,
0000
0000
0000
0000
,
0100
0000
0000
0000
,
0100
0000
0000
0000
,
0010
0000
0000
0000
,
0000
0000
0000
0000
,
1000
0000
0000
0000
,
0000
0000
0000
0000
,
0001
0000
0000
0000
,
0000
0000
0000
0000
,
0010
0000
0000
0000
,
0100
0000
0000
0000
,
0010
0000
0000
0000
,
1000
0000
0000
0000
,
1000
0000
0000
0000
,
0001
0000
0000
0000
,
0001
0000
0000
0000
,
1000
0000
0000
0000
,
0001
0000
0000
0000
,
1000
0000
0000
0000
,
0001
0000
0000
0000
,
0100
0000
0000
0000
,
0010
0000
0000
0000
,
1000
0000
0000
0000
,
0001
0000
0000
0000
,
1000
0000
0000
0000
,
0010
0000
0000
0000
,
0100
0000
0000
0000
,
0001
0000
0000
0000
,
1000
0000
0000
0000
,
0000
0000
0000
0000
,
0001
0000
0000
0000
,
0000
0000
0000
0000
,
0100
0000
0000
0000
,
0100
0000
0000
0000
,
0010
0000
0010
0000
,
0010
0000
0000
0000
;

//---------------dance-single - ----------------
#NOTEDATA:;
#CHARTNAME:;
#STEPSTYPE:dance-single;
#DESCRIPTION:;
#CHARTSTYLE:;
#DIFFICULTY:Easy;
#METER:2;
#RADARVALUES:0.081635,0.111070,0.000000,0.120728,0.000000,71.000000,71.000000,0.000000,15.000000,0.000000,0.000000,0.000000,0.000000,0.000000,0.081635,0.111070,0.000000,0.120728,0.000000,71.000000,71.000000,0.000000,15.000000,0.000000,0.000000,0.000000,0.000000,0.000000;
#CREDIT:;
#NOTES:
0000
0000
0000
0000
,
0000
0000
0000
0000
,
0000
0000
0000
0000
,
0000
0000
0000
0000
,
1000
0000
0000
0000
,
1000
0000
0000
0000
,
0001
0000
0000
0000
,
0001
0000
0001
0000
,
1000
0000
0000
0000
,
0001
0000
0000
0000
,
1000
0000
0000
0000
,
0010
0000
0010
0000
,
0100
0000
0100
0000
,
0200
0300
0000
0000
,
0001
0000
0001
0000
,
1000
2000
3000
0000
,
0010
0000
0010
0000
,
0200
0300
0000
0001
,
0001
0000
1000
0000
,
0010
0000
0100
0000
,
0002
0000
0000
0003
,
2000
3000
0002
0003
,
0200
0300
0000
0010
,
0020
0030
2000
3000
,
0002
0003
1000
1000
,
1000
0000
0100
0000
,
0010
0000
0001
0000
,
0100
0000
0010
0000
,
1000
0000
0001
0001
,
1000
0000
0010
0000
,
0100
0000
0100
0000
,
0010
0000
0010
0000
,
0010
0000
0000
0100
,
0200
0300
0002
0003
,
2000
3000
0100
0000
,
0010
0000
0010
0000
,
0020
0000
0000
0030
,
0100
0000
0000
0000
,
0100
0000
0000
0000
,
0010
0000
0000
0000
,
0010
0000
0010
0000
,
0100
0000
0000
0000
,
0001
0000
0000
0000
,
1000
1000
0001
0001
,
0020
0000
0000
0000
,
0000
0000
0000
0000
,
0030
0000
0000
0000
;

//---------------dance-single - ----------------
#NOTEDATA:;
#CHARTNAME:;
#STEPSTYPE:dance-single;
#DESCRIPTION:;
#CHARTSTYLE:;
#DIFFICULTY:Medium;
#METER:4;
#RADARVALUES:0.186266,0.222140,0.000000,0.104631,0.000000,162.000000,162.000000,0.000000,13.000000,0.000000,0.000000,0.000000,0.000000,0.000000,0.186266,0.222140,0.000000,0.104631,0.000000,162.000000,162.000000,0.000000,13.000000,0.000000,0.000000,0.000000,0.000000,0.000000;
#CREDIT:;
#NOTES:
0000
0000
0000
0000
,
0000
0000
0000
0000
,
0000
0000
0000
0000
,
0000
0000
0000
0000
,
0001
0000
1000
0001
0000
0000
0100
0000
,
0010
0000
0100
0010
0000
0000
0000
0000
,
1000
0000
0100
1000
0000
0000
0000
0000
,
0001
0100
0010
0010
,
1000
0000
0100
1000
0000
0000
0001
0000
,
0100
0000
0010
0100
0000
0000
0001
0000
,
0010
0000
0100
1000
0100
0000
0010
0000
,
0002
0023
0230
2300
,
3001
0100
0010
1000
,
0100
0000
0000
0000
1000
0000
0001
0100
,
0001
0000
1000
0100
1000
0000
0010
0100
,
0010
0000
0000
0100
,
0010
1000
0001
0010
,
0100
0000
0000
1000
0000
0000
0100
0000
,
0010
0000
0001
1000
0001
0000
0100
0000
,
0020
0000
0030
0000
0100
0000
0001
1000
,
0002
0000
0000
0003
,
1000
0100
1000
0001
,
0100
0000
0010
0000
1000
0001
1000
0000
,
0100
0100
0010
0010
,
0100
0000
0010
0000
0001
1000
0001
0000
,
2000
3100
0020
0031
,
0200
0310
2000
3010
,
0100
0001
0010
0100
,
1000
0000
0010
0100
0010
0000
0100
0000
,
0001
0000
1000
0000
0100
1000
0100
0000
,
0020
0000
0032
0000
0103
0000
0010
1000
,
0010
0000
0100
0001
0100
0000
0010
0000
,
1000
0001
0000
0000
1000
0000
0001
0000
,
1000
0100
0010
0001
,
0100
0000
0000
0001
0000
0000
1000
0000
,
0010
0000
1000
0001
1000
0000
0100
0000
,
0010
0010
0100
0100
,
1000
0000
0001
1000
0000
0000
0000
0000
,
0010
0000
0100
0010
0000
0010
0100
0000
,
0001
0000
0100
0001
0000
0000
0000
0000
,
1000
0000
0100
1000
0100
0000
0010
0000
,
0001
0000
0010
0001
0000
0000
0000
0000
,
1000
0000
0010
1000
0000
0000
0000
0000
,
0010
0000
1000
0000
0001
1000
0001
0000
,
0200
0000
0000
0000
,
0000
0000
0000
0000
,
0300
0000
0000
0000
;

//---------------dance-single - ----------------
#NOTEDATA:;
#CHARTNAME:;
#STEPSTYPE:dance-single;
#DESCRIPTION:;
#CHARTSTYLE:;
#DIFFICULTY:Challenge;
#METER:7;
#RADARVALUES:0.334590,0.407257,0.169020,0.201214,0.124753,291.000000,270.000000,21.000000,25.000000,0.000000,0.000000,0.000000,0.000000,0.000000,0.334590,0.407257,0.169020,0.201214,0.124753,291.000000,270.000000,21.000000,25.000000,0.000000,0.000000,0.000000,0.000000,0.000000;
#CREDIT:;
#NOTES:
0000
0000
0000
0000
,
0000
0000
0000
0000
,
0000
0000
0000
0000
,
0000
0000
0000
0000
0000
0001
0010
0100
,
1000
0100
0010
0001
0000
0100
0010
1000
,
0010
0100
0001
1000
0000
0100
1000
0001
,
1000
0010
0100
0001
0000
0001
0100
0010
,
1000
0100
0001
0100
1000
0000
0001
0000
,
1000
0010
1000
0100
0000
0010
0001
0010
,
0100
1000
0001
1000
0000
0010
1000
0001
,
0101
0000
0000
0000
0010
0000
1000
0000
1010
0000
0000
0001
0000
0000
0100
0000
,
0110
0000
1001
0000
0001
0010
1000
0010
,
0002
2003
3020
0230
,
0301
0000
1000
0000
0100
0000
1000
0100
,
0001
0000
0001
0100
1000
0000
1000
0010
,
0100
0001
0000
0000
0100
0010
1000
0000
,
0002
0003
0020
0030
0200
0300
2000
3000
,
0200
0000
0300
2000
0000
3000
0010
0000
,
0101
0000
0000
0000
0001
0000
1000
0001
1000
0000
0000
0010
0000
0000
0100
0000
,
0120
0000
1030
0000
0001
1000
0001
1000
,
2002
0000
0000
0000
0000
0000
0000
0000
0000
0000
0000
0000
3003
0000
0001
1000
,
0001
0000
0100
0000
0010
0000
1000
0100
1000
0000
0001
0000
0101
0000
0000
0000
,
0001
0000
0010
0000
0100
0000
1000
0001
1000
0000
0010
0000
0100
0001
0100
0000
,
0010
0000
1000
0100
0010
0000
0001
0000
0100
0010
1000
0000
0100
0000
1000
0000
,
0001
0000
1000
0010
1000
0000
0001
0100
0001
0000
0010
0000
0100
1000
0000
0001
,
0100
0001
2000
3000
0002
0003
0200
0300
,
0020
0030
1000
0100
1000
0010
0100
0000
,
0001
0000
0100
0000
0010
0000
1000
0001
1000
0000
0100
0000
0010
0000
0000
0000
,
0011
0000
1100
0000
1001
0001
1000
0001
,
0101
0000
0000
0000
0010
0000
0000
0000
1000
0010
0100
0010
1000
0100
0010
0100
,
1000
0100
0000
0000
0000
0000
0000
0000
0100
0010
0000
0000
0000
0000
0000
0000
0010
0000
0000
0000
0001
0000
0000
0000
0100
0000
0000
0000
0010
0000
0000
0000
,
1010
0000
0100
0001
0011
0000
0100
1000
,
0001
0000
1000
0000
0100
0000
0000
0000
0010
0000
0001
1000
0001
1000
0000
0001
,
0200
0300
0020
0030
2000
3000
0002
0003
,
0200
0000
0300
0002
0000
0003
0100
0000
,
1010
0000
0000
0000
1000
0000
0001
0010
0100
0000
0000
1000
0000
0001
0000
0000
,
0101
0000
0000
0000
0110
0000
0000
0010
1000
0000
0100
0000
1000
0001
0010
0100
,
1000
0001
0100
0101
0000
0010
1000
0100
,
1000
0010
0100
0101
0000
0001
0010
0100
,
1000
0100
0010
0110
0000
0010
0001
1000
,
0001
0100
1000
0100
0001
0010
1000
0010
,
0001
0100
0010
1000
0000
0000
0000
0000
,
1000
0100
0010
0001
0000
0000
0000
0000
,
1000
0000
0010
0000
0001
0000
0010
0000
1000
0000
0001
0100
0001
0000
1000
0000
,
1001
0000
0001
0100
0020
0000
0000
0000
,
0000
0000
0200
0000
0000
0000
0000
0000
0000
0000
0000
0000
,
0330
0000
0000
0000
;

//---------------dance-double - ----------------
#NOTEDATA:;
#CHARTNAME:;
#STEPSTYPE:dance-double;
#DESCRIPTION:;
#CHARTSTYLE:;
#DIFFICULTY:Challenge;
#METER:7;
#RADARVALUES:0.327691,0.462792,0.096583,0.233408,0.128777,285.000000,273.000000,12.000000,29.000000,0.000000,0.000000,0.000000,0.000000,0.000000,0.327691,0.462792,0.096583,0.233408,0.128777,285.000000,273.000000,12.000000,29.000000,0.000000,0.000000,0.000000,0.000000,0.000000;
#CREDIT:;
#NOTES:
00000000
00000000
00000000
00000000
,
00000000
00000000
00000000
00000000
,
00000000
00000000
00000000
00000000
,
00000000
00000000
00000000
00000000
00000000
00000001
00000010
00000100
,
00001000
00000010
00000100
00000001
00000000
00001000
00000010
00001000
,
00000100
00000010
00000001
00001000
00000000
00000100
00010000
00000100
,
00010000
00001000
00100000
00001000
00000000
00001000
00100000
01000000
,
10000000
00100000
00010000
00100000
00000000
10000000
00010000
00000000
,
01000000
00100000
10000000
01000000
00000000
00100000
00010000
00100000
,
01000000
00100000
01000000
10000000
00000000
00100000
10000000
01000000
,
10000000
00000000
00000000
00000000
00010000
00000000
00100000
00000000
00001000
00000000
00000000
00010000
00000000
00000000
00001000
00000000
,
00001000
00100000
00100000
00001000
00001000
00000100
00000001
00000010
,
00000002
00002003
00003020
00000230
,
00000301
00000000
00001000
00000000
00000100
00000000
00000001
00000100
,
00001000
00000000
00001000
00000010
00000001
00000000
00000001
00000010
,
00001000
00000100
00000001
00000000
00000100
00010000
00001000
00000000
,
00020000
02030000
23000000
30200000
,
00320000
00000000
00000000
00230000
00000000
00300000
10000000
00000000
,
01000000
00000000
00000000
00000000
10000000
00000000
00010000
10000000
00010000
00000000
00000000
01000000
00000000
00000000
00010000
00000000
,
00200000
00000000
00301000
00000000
00010000
00000000
00001000
00010000
,
00002000
00000000
00000000
00000000
00000000
00000000
00000000
00000000
00000000
00000000
00000000
00000000
00003000
00000000
00000100
00000001
,
00002000
00000000
00003100
00000000
00000010
00000000
00000001
00000100
00000001
00000000
00001000
00000000
00000200
00000000
00000000
00000000
,
00020300
00000000
00001000
00000000
00031000
00000000
00100000
00001000
00100000
00000000
00001000
00000000
00010000
00000100
00010000
00000000
,
00000100
00000000
00001000
00000001
00000010
00000000
00001000
00000000
00000010
00000001
00001000
00000000
00000010
00000000
00001000
00000000
,
00000100
00000000
00010000
00000100
00010000
00000000
00001000
00100000
00001000
00000000
00010000
00000000
01000000
10000000
00000000
10000000
,
00010000
20000000
30020000
02030000
,
03020000
10030000
01000000
00200000
00000000
00310000
00001000
00000000
,
00010000
00000000
00100000
00000000
01000000
00000000
00010000
00001000
00010000
00000000
00000100
00000000
00000010
00000000
00000001
00000000
,
00000011
00000000
00001010
00000000
00010100
00010000
00011000
00000000
,
00102000
00000000
00000000
00103000
00010000
00100000
00010000
00100000
00010000
00000000
10000000
00100000
10000000
00100000
10000000
00100000
,
10000000
00010000
00000000
00000000
00000000
00000000
00000000
00000000
00010000
00100000
00000000
00000000
00000000
00000000
00000000
00000000
00101000
00000000
00000000
00000000
00000000
00000000
00000000
00000000
00001000
00000000
00000000
00000000
00100000
00000000
00000000
00000000
,
00010000
00000000
00001000
00000100
00000001
00000000
00000100
00000000
,
00001000
00000000
00000100
00010000
00000100
00000000
00010000
00000000
00001000
00010000
00001000
00100000
00000000
01100000
00000000
00000000
,
02000000
03200000
00320000
20030000
,
30200000
00000000
00000000
02300000
00000000
00000000
03010000
00000000
,
01010000
00000000
00000000
00000000
00010000
00000000
00100000
00001000
00100000
00000000
00000000
00001000
00000000
00010000
00000000
00000000
,
00011000
00000000
00000000
00000000
00001100
00000000
00000000
00000000
00000110
00000000
00000010
00000000
00000001
00000000
00000100
00000010
,
00001000
00000001
00000010
00000100
00000000
00000100
00000010
00000100
,
00010000
00001000
00010000
00100000
00000000
00100000
00010000
00100000
,
10000000
01000000
00100000
10000000
00000000
10000000
00100000
00010000
,
10000000
00010000
00100000
01000000
10000000
00100000
01000000
00010000
,
00100000
00001000
00010000
00000100
00000000
00000000
00000010
00000000
,
00000001
00000100
00000010
00001000
00000000
00000000
00000100
00000000
,
00000010
00000000
00000100
00000000
00001000
00000000
00010000
00000000
00100000
00000000
01000000
10000000
01000000
00000000
10000000
00000000
,
10010000
00000000
00010000
00100000
00002000
00000000
00000000
00000000
,
00000000
00000000
00020000
00000000
00000000
00000000
00000000
00000000
00000000
00000000
00000000
00000000
,
00033000
00000000
00000000
00000000
;

//---------------dance-double - ----------------
#NOTEDATA:;
#CHARTNAME:;
#STEPSTYPE:dance-double;
#DESCRIPTION:;
#CHARTSTYLE:;
#DIFFICULTY:Hard;
#METER:5;
#RADARVALUES:0.246056,0.277675,0.000000,0.160971,0.024146,214.000000,214.000000,0.000000,20.000000,0.000000,0.000000,0.000000,0.000000,0.000000,0.246056,0.277675,0.000000,0.160971,0.024146,214.000000,214.000000,0.000000,20.000000,0.000000,0.000000,0.000000,0.000000,0.000000;
#CREDIT:;
#NOTES:
00000000
00000000
00000000
00000000
,
00000000
00000000
00000000
00000000
,
00000000
00000000
00000000
00000000
,
00000000
00000000
00000000
00000000
,
10000000
01000000
00100000
00010000
00000000
00010000
01000000
00000000
,
00010000
00100000
01000000
10000000
00000000
10000000
00010000
00000000
,
00100000
00001000
00010000
00001000
00000000
00001000
00010000
00000000
,
00000100
00010000
00001000
00010000
00001000
00000000
00100000
00000000
,
00001000
00000100
00000010
00000001
00000000
00000010
00001000
00000000
,
00000001
00000010
00000100
00001000
00000000
00001000
00000100
00010000
,
00001000
00000000
00000000
00000000
00001000
00000000
01000000
00000000
00100000
00000000
00000000
10000000
00000000
00000000
00100000
00000000
,
00100000
01000000
01000000
00010000
00010000
10000000
01000000
00100000
,
00010000
00100000
01000000
10000000
,
00010000
00000000
00000000
00000000
10000000
00000000
01000000
00100000
,
00010000
00000000
01000000
00100000
00010000
00000000
00100000
01000000
,
00010000
00100000
00000000
00000000
00000000
00000000
00001000
00000000
,
00002000
00003200
00000302
00000023
,
00000230
00000000
00000000
00002300
00000000
00000000
00003100
00000000
,
00010000
00000000
00000000
00000000
00001000
00000000
00100000
00000000
00010000
00000000
00000000
00100000
00000000
00000000
00001000
00000000
,
00020000
00000000
00000000
00000000
00031000
00000000
00010000
00000100
,
00002000
00000000
00000000
00003000
,
00000100
00010000
00001000
00100000
00000000
00001000
00100000
00000000
,
01000000
10000000
00100000
10000000
00000000
00100000
10000000
00000000
,
01000000
00000000
00100000
00010000
00100000
00010000
01000000
00000000
,
00020000
00230000
00302000
00023000
,
00031000
00100000
00001000
00000000
00010000
00000100
00010000
00000000
,
00001000
00100000
00010000
00000000
00100000
00001000
00010000
00000000
,
00010000
00000100
00001000
00000000
00000100
00010000
00001000
00100000
,
00010000
00000000
00100000
00000000
00010000
00001000
00000100
00000000
,
00000001
00000000
00000010
00000000
00001000
00000001
00001000
00000001
,
00000010
00000000
00000001
00000000
00000100
00000000
00001000
00000100
,
00000001
00000000
00000001
00000010
00001000
00000000
00000001
00000100
,
00001000
00000000
00010000
00000000
00100000
00000000
10000000
00000000
00000000
00000000
00010000
00000000
00000000
10000000
00000000
00000000
,
00020000
00230000
02300000
23000000
,
30200000
00000000
00000000
02300000
00000000
00000000
03001000
00000000
,
00010000
00000000
00000000
00000000
00000000
00000000
00010000
00000000
00001000
00000000
00000000
00100000
00000000
01000000
00000000
00000000
,
00010000
00000000
00001000
00000000
00001000
00010000
00001000
00010000
,
00001000
00000100
00000010
00000001
00000000
00000001
00000010
00000000
,
00001000
00000100
00000010
00000001
00000000
00000001
00001000
00000000
,
00000001
00000010
00000100
00001000
00000000
00001000
00000100
00000000
,
00010000
00001000
00100000
00000000
00010000
00000000
10000000
00000000
,
00010000
00100000
01000000
10000000
00000000
00000000
00000000
00000000
,
10000000
01000000
00100000
00010000
00000000
00000000
00000000
00000000
,
10000000
00100000
01000000
00010000
01000000
00100000
10000000
01000000
,
20000000
00000000
00000000
00000000
,
00000000
00000000
00020000
00000000
00000000
00000000
00000000
00000000
00000000
00000000
00000000
00000000
,
30030000
00000000
00000000
00000000
;

//---------------dance-double - ----------------
#NOTEDATA:;
#CHARTNAME:;
#STEPSTYPE:dance-double;
#DESCRIPTION:;
#CHARTSTYLE:;
#DIFFICULTY:Medium;
#METER:3;
#RADARVALUES:0.179368,0.218116,0.008049,0.273651,0.004024,156.000000,155.000000,1.000000,34.000000,0.000000,0.000000,0.000000,0.000000,0.000000,0.179368,0.218116,0.008049,0.273651,0.004024,156.000000,155.000000,1.000000,34.000000,0.000000,0.000000,0.000000,0.000000,0.000000;
#CREDIT:;
#NOTES:
// measure 0
00000000
00000000
00000000
00000000
,  // measure 1
00000000
00000000
00000000
00000000
,  // measure 2
00000000
00000000
00000000
00000000
,  // measure 3
00000000
00000000
00000000
00000000
,  // measure 4
00001000
00000000
00000001
00001000
00000000
00000000
00000000
00000000
,  // measure 5
00000100
00000000
00010000
00000100
00000000
00000000
00000000
00000000
,  // measure 6
00010000
00000000
00001000
00010000
00000000
00000000
00010000
00000000
,  // measure 7
00001000
00000000
00000000
00010000
00000000
00000000
01000000
00000000
,  // measure 8
10000000
00000000
00010000
10000000
00000000
00000000
00000000
00000000
,  // measure 9
00001000
00000000
00100000
00001000
00000000
00100000
00000000
00000000
,  // measure 10
00010000
00000000
00000000
00010000
00010000
00000000
00100000
00000000
,  // measure 11
00002000
00003020
00000032
00000203
,  // measure 12
00001300
00000100
00000010
00001000
,  // measure 13
00000001
00000000
00000000
00000000
00001000
00000000
00000100
00001000
,  // measure 14
00000100
00000000
00010000
00001000
00010000
00000000
00001000
00100000
,  // measure 15
00001000
00100000
00000000
00000000
00000000
00000000
01000000
00000000
,  // measure 16
10000000
00100000
00010000
01000000
,  // measure 17
10000000
00000000
00000000
00010000
00000000
00000000
00100000
00000000
,  // measure 18
00010000
00000000
00000000
01000000
00010000
00000000
00100000
00000000
,  // measure 19
00020000
00000000
00000000
00000000
01030000
00000000
00001000
00010000
,  // measure 20
00002000
00000000
00000000
00003000
,  // measure 21
00000200
00000000
00000000
00000302
00000000
00000000
00000013
00000000
,  // measure 22
00000200
00000000
00000000
00020300
00000000
00000000
00031000
00000000
,  // measure 23
00200000
00001000
00010000
00302000
,  // measure 24
00023000
00000000
00000000
02030000
00000000
00000000
23000000
00000000
,  // measure 25
30000000
00020000
02030000
03200000
,  // measure 26
20300000
00000000
00000000
32000000
00000000
00000000
03100000
00000000
,  // measure 27
00020000
10000000
00230000
00010000
,  // measure 28
00301000
00000000
00001000
00000000
00000100
00000100
00000100
00000000
,  // measure 29
00000010
00000000
00000010
00000000
00001000
00000100
00001000
00000000
,  // measure 30
00000200
00000000
00020300
00000000
02030000
00000000
13000000
00100000
,  // measure 31
10000000
00000000
01000000
00010000
01000000
00000000
00100000
00010000
,  // measure 32
00100000
00000000
00000000
00000000
01000000
00000000
00000000
00000000
00100000
00000000
00010000
00000000
00000000
00010000
00000000
00000000
,  // measure 33
00100000
00002000
00003200
00000302
,  // measure 34
00001003
00000000
00000000
00000100
00000000
00000000
00000100
00000000
,  // measure 35
00001000
00000000
00000000
00000010
00000010
00000000
00000100
00000000
,  // measure 36
00000001
00000001
00001000
00001000
,  // measure 37
00002001
00000000
00000100
00003100
00000000
00000000
00000000
00000000
,  // measure 38
00020000
00000000
00001000
00031000
00000000
00001000
00100000
00000000
,  // measure 39
02000000
00000000
00100000
03100000
00000000
00000000
00010000
10000000
,  // measure 40
00100000
00000000
01000000
00010000
00000000
00010000
10000000
00000000
,  // measure 41
02000000
00000000
10000000
13000000
00000000
00000000
00000000
00000000
,  // measure 42
02000000
00000000
00100000
03100000
00000000
00000000
00000000
00000000
,  // measure 43
00010000
00000000
00100000
00000000
00001000
00010000
00001000
00000000
,  // measure 44
00020000
00000000
00000000
00000000
,  // measure 45
00000000
00000000
00030000
00000000
00000000
00000000
00000000
00000000
00000000
00000000
00000000
00000000
;

//---------------dance-double - ----------------
#NOTEDATA:;
#CHARTNAME:;
#STEPSTYPE:dance-double;
#DESCRIPTION:;
#CHARTSTYLE:;
#DIFFICULTY:Easy;
#METER:2;
#RADARVALUES:0.086234,0.127234,0.000000,0.185117,0.000000,75.000000,75.000000,0.000000,23.000000,0.000000,0.000000,0.000000,0.000000,0.000000,0.086234,0.127234,0.000000,0.185117,0.000000,75.000000,75.000000,0.000000,23.000000,0.000000,0.000000,0.000000,0.000000,0.000000;
#CREDIT:;
#NOTES:
// measure 0
00000000
00000000
00000000
00000000
,  // measure 1
00000000
00000000
00000000
00000000
,  // measure 2
00000000
00000000
00000000
00000000
,  // measure 3
00000000
00000000
00000000
00000000
,  // measure 4
10000000
00000000
00000000
00000000
,  // measure 5
00010000
00000000
00000000
00000000
,  // measure 6
00100000
00000000
00000000
00000000
,  // measure 7
00010000
00000000
00100000
00000000
,  // measure 8
00001000
00000000
00000000
00000000
,  // measure 9
00010000
00000000
00000000
00000000
,  // measure 10
00001000
00000000
00000000
00000000
,  // measure 11
00100000
00000000
00001000
00000000
,  // measure 12
00010000
00000000
00000100
00000000
,  // measure 13
00002000
00003000
00000000
00000000
,  // measure 14
00000100
00000000
00000010
00000000
,  // measure 15
00000001
00000000
00000000
00000000
,  // measure 16
00000010
00000000
00000100
00000000
,  // measure 17
00000010
00000000
00000001
00000000
,  // measure 18
00001000
00000000
00000100
00000000
,  // measure 19
00010000
00000000
00000000
00000000
,  // measure 20
00002000
00000000
00000000
00003000
,  // measure 21
00200000
00300000
00020000
00030000
,  // measure 22
02000000
03000000
00200000
00300000
,  // measure 23
20000000
30000000
02000000
03000000
,  // measure 24
00200000
00300000
00020000
00030000
,  // measure 25
00000000
00200000
02300000
23000000
,  // measure 26
30200000
00300000
02000000
03000000
,  // measure 27
00020000
00030000
00200000
00300000
,  // measure 28
00001000
00001000
00010000
00010000
,  // measure 29
00001000
00000000
00000100
00000000
,  // measure 30
00000001
00000001
00001000
00001000
,  // measure 31
00000010
00000000
00000100
00000000
,  // measure 32
00000001
00000001
00001000
00000000
,  // measure 33
00000100
00000000
00001000
00000000
,  // measure 34
00000010
00000000
00000001
00000000
,  // measure 35
00000010
00000000
00001000
00000000
,  // measure 36
00000100
00000100
00000100
00000000
,  // measure 37
00020000
00000000
00030000
00000000
,  // measure 38
00000200
00000000
00000300
00000000
,  // measure 39
00020000
00000000
00030000
00000000
,  // measure 40
00001000
00000000
00100000
00000000
,  // measure 41
00002000
00000000
00003000
00000000
,  // measure 42
00020000
00000000
00030000
00000000
,  // measure 43
00001000
00010000
00000100
00001000
,  // measure 44
00000020
00000000
00000000
00000000
,  // measure 45
00000000
00000000
00000030
00000000
00000000
00000000
00000000
00000000
00000000
00000000
00000000
00000000
;
