#TITLE:e-motion 2003 -romantic extra-;
#SUBTITLE:;
#ARTIST:e.o.s. Remixed by dj TAKA;
#TITLETRANSLIT:;
#SUBTITLETRANSLIT:;
#ARTISTTRANSLIT:;
#GENRE:TRANCE;
#CREDIT:;
#BANNER:e-motion 2003 -romantic extra-.png;
#BACKGROUND:e-motion 2003 -romantic extra--bg.png;
#LYRICSPATH:;
#CDTITLE:;
#MUSIC:e-motion 2003 -romantic extra-.ogg;
#OFFSET:-0.369000;
#SAMPLESTART:45.035000;
#SAMPLELENGTH:13.259999;
#SELECTABLE:YES;
#BPMS:0.000000=145.000000
;
#STOPS:
;
#BGCHANGES:-1.200=e-motion 2003 -romantic extra-.avi=1.000=1=0=0=StretchNoLoop==CrossFade==,
99999=-nosongbg-=1.000=0=0=0 // don't automatically add -songbackground-
;
#KEYSOUNDS:;
#ATTACKS:;

//---------------dance-single - ----------------
#NOTES:
     dance-single:
     :
     Hard:
     8:
     0.430571,0.474426,0.081862,0.230701,0.379541,405.000000,394.000000,11.000000,31.000000,0.000000,0.000000,0.430571,0.474426,0.081862,0.230701,0.379541,405.000000,394.000000,11.000000,31.000000,0.000000,0.000000:
0000
0000
0000
0000
,
0000
0000
0000
0000
,
0000
0000
0000
0000
,
0000
0000
0000
0000
,
0000
0000
0000
0000
,
0000
0000
0000
0000
,
0000
0000
0000
0000
,
0000
0000
0000
0100
,
0010
0000
0000
0000
1000
0000
0001
0000
0010
0000
0000
0100
0000
0000
1000
0000
,
0020
0000
0000
0230
0000
0000
0301
0000
,
1000
0100
0020
0000
0032
0000
0203
0000
,
1300
0000
0100
0000
0001
0000
1000
0000
0010
0000
0000
0001
0000
0000
0010
0000
,
1000
0001
0100
0010
0000
0000
1000
0000
,
0100
1000
0000
1000
0001
0010
0100
1000
,
0002
0000
0000
0100
0200
0000
0303
0000
,
0020
0000
0000
2030
0000
0000
0002
0000
,
3003
0000
0000
0000
,
0000
0000
0000
0000
,
1002
0000
0000
1000
0000
0000
1000
0000
1003
0000
0000
0001
0000
0000
0001
0000
,
2000
0000
0000
0010
0000
0000
0010
0000
3010
0000
0000
0100
0000
0000
0010
0000
,
0200
0000
0000
0001
0000
0000
0001
0000
0301
0000
0000
1000
0000
0000
0100
0000
,
0020
0000
0000
0001
0000
0000
0001
0000
0031
0000
0000
0100
0000
0000
0110
0000
,
0110
0000
0000
0100
0000
0000
0100
0000
0001
0000
0000
0001
0000
0000
0001
0000
,
0010
0000
0000
0010
0000
0000
0010
0000
1000
0000
0000
1000
0000
0000
1000
0000
,
0010
0000
0000
0010
0000
0000
0010
0000
0001
0000
0000
0001
0000
0000
0001
0000
,
0100
0000
0000
0100
0000
0000
0100
0000
1000
0000
0000
1000
0000
0000
1000
0000
,
0000
0000
0000
0000
,
0110
0000
0000
0001
0000
0000
1000
0000
0010
0000
0000
1000
0000
0000
0100
0000
,
0010
0000
0000
0100
0000
0000
1000
0000
0001
0000
0000
0100
0000
0000
0001
0000
,
0010
0000
0000
0001
0000
0000
1000
0000
0010
0000
0000
0100
0000
0000
0001
0000
,
1000
0000
0000
0100
0000
0000
1000
0000
0001
0000
0000
0100
0000
0000
0010
0000
,
1000
0000
0000
0001
0000
0000
0010
0000
0001
0000
0000
0100
0000
0000
0001
0000
,
1000
0000
0000
0100
0000
0000
1000
0000
0001
0000
0000
0010
0000
0000
0100
0000
,
1000
0000
0000
0010
0000
0000
0100
0000
0001
0000
0000
1000
0000
0000
0100
0000
,
0010
0000
0000
0010
0000
0000
0001
0000
1000
0000
0000
1000
0000
0000
0100
0000
,
0110
0000
0000
0010
0000
0000
0001
0000
1000
0000
0000
0100
0000
0000
0010
0000
,
1000
0000
0000
0010
0000
0000
0001
0000
0100
0000
0000
0010
0000
0000
0001
0000
,
0010
0000
0000
1000
0000
0000
0001
0000
0010
0000
0000
0100
0000
0000
0001
0000
,
0100
0000
0000
1000
0000
0000
0001
0000
0100
0000
0000
0010
0000
0000
0001
0000
,
0010
0000
0000
1000
0000
0000
0100
0000
0001
0000
0000
1000
0000
0000
0010
0000
,
0001
0000
0000
0100
0000
0000
1000
0000
0001
0000
0000
0010
0000
0000
1000
0000
,
0100
0000
0000
0010
0000
0000
1000
0000
0010
0000
0000
0001
0000
0000
1000
0000
,
0010
0000
0000
0001
0000
0000
1000
0000
0100
0000
0000
0001
0000
0000
1000
0000
,
1001
0000
0000
0000
0001
0000
0010
0000
0100
0000
0000
1000
0000
0000
0001
0000
,
0200
0000
0000
0320
0000
0000
0130
0000
,
0001
0000
0000
1000
0000
0000
0001
0000
0000
0000
0001
0000
0010
0000
0000
0000
0010
0000
0100
0000
0000
0000
0100
0000
,
1000
0000
0010
0000
1000
0000
0100
0000
0010
0000
0000
0001
0000
0000
0100
0000
,
0010
1000
0001
0100
0000
0000
0110
0000
,
0100
0010
0000
0010
1000
0001
0010
0001
,
2000
0000
0000
0100
3100
0000
0010
0001
,
0020
0000
0130
2000
0000
3001
0200
0000
,
0310
1000
0100
0001
0000
1000
0000
0000
,
0001
0100
1000
0010
0000
0001
0000
0001
,
0010
1000
0100
0000
0010
0001
0100
0010
,
1000
0010
0000
1000
0100
0000
1000
0000
,
0100
0010
0100
0001
0100
0010
0100
1000
,
0100
0010
0100
0001
0100
0010
0100
0010
,
0002
0000
0000
1000
2003
0000
0010
0010
,
3010
0100
0001
1000
0010
0100
0001
1000
,
1001
0000
0000
0001
0000
0000
1000
0000
0010
1000
0000
1000
0000
0000
0010
0000
,
0100
0001
0000
0001
0000
0000
1000
0000
0010
0100
0000
0100
0000
0000
0001
0000
,
1000
0001
0000
0001
0000
0000
1000
0000
0100
0000
0000
0010
0000
0000
0001
0000
,
0100
0010
0000
0010
0000
0000
1000
0000
0001
0000
0000
0001
0000
0000
0001
0000
,
1000
0000
0000
1000
0000
0000
0100
0000
0010
0001
0000
0001
0000
0000
0100
0000
,
0010
1000
0000
1000
0000
0000
0100
0000
0010
0001
0000
0001
0000
0000
1000
0000
,
0100
1000
0000
1000
0000
0000
0001
0000
0100
0000
0000
0100
0000
0000
0100
0000
,
0010
1000
0000
1000
0000
0000
0010
0000
1000
0000
0000
0001
0000
0000
1000
0000
,
2001
0000
0000
3100
0000
0000
1000
0000
0001
0010
0000
0001
0000
0000
1000
0000
,
0010
1000
0000
0010
0000
0000
0100
0000
0001
0010
0000
0001
0000
0000
1000
0000
,
0100
0010
0000
0100
0000
0000
1000
0000
0010
0000
0000
0100
0000
0000
0001
0000
,
0010
0100
0000
0010
0000
0000
0001
0000
0100
0000
0000
0010
0000
0000
0010
0000
,
0120
0000
0000
0100
0000
0000
0230
0000
0001
0000
0000
0001
0000
0000
0302
0000
,
0010
0000
0000
0010
0000
0000
0023
0000
1000
0000
0000
1000
0000
0000
2030
0000
,
0010
0000
0000
0010
0000
0000
3020
0000
0001
0000
0000
0001
0000
0000
0032
0000
,
0100
0000
0000
0100
0000
0000
0203
0000
0010
0000
0000
0010
0000
0000
0310
0000
,
1001
0000
0000
0000
;

//---------------dance-single - ----------------
#NOTES:
     dance-single:
     :
     Medium:
     5:
     0.253027,0.390703,0.052094,0.320005,0.003721,238.000000,231.000000,7.000000,43.000000,0.000000,0.000000,0.253027,0.390703,0.052094,0.320005,0.003721,238.000000,231.000000,7.000000,43.000000,0.000000,0.000000:
0000
0000
0000
0000
,
0000
0000
0000
0000
,
0000
0000
0000
0000
,
0000
0000
0000
0000
,
0000
0000
0000
0000
,
0000
0000
0000
0000
,
0000
0000
0000
0000
,
0000
0000
0000
0000
,
2000
0000
0000
0000
,
3010
0000
0000
0100
0000
0000
0001
0000
,
0200
0000
0000
0000
,
0301
0000
0000
0000
0010
0000
0000
0000
0100
0000
0000
1000
0000
0000
0001
0000
,
0020
0000
0000
0030
,
0002
0000
0000
0003
,
0200
0000
0000
0010
0320
0000
1030
0001
,
2000
3020
0230
0302
,
0003
0000
0000
0000
,
0000
0000
0000
0000
,
1002
0000
0000
0000
,
2003
0000
0000
0000
,
3020
0000
0000
0000
,
2030
0000
0000
0000
0000
0000
0000
3001
,
1002
0000
0203
0000
,
0320
0000
2030
3002
,
0023
0000
0000
0000
,
2030
0000
0200
0000
,
3300
0000
0000
0000
,
1001
1000
0001
0100
,
0010
0100
0001
1000
,
0100
0010
0100
1000
,
0001
0000
0010
0000
0100
0000
1000
0001
,
1000
0010
0100
0001
,
1000
0100
1000
0001
,
0010
0001
0100
0010
,
1000
0000
0001
0000
0100
0010
0100
0010
,
1000
0000
0010
0000
0100
0001
1000
0000
,
0100
0010
0001
0100
,
0001
0000
0010
0000
0100
1000
0001
0000
,
0100
0010
1000
0001
,
0010
0000
0001
0000
1000
0001
1000
0000
,
0010
0000
0100
0000
0001
1000
0001
0000
,
0010
0000
0100
0000
1000
0001
1000
0000
,
0010
0000
0100
0000
0001
1000
0001
0000
,
1001
1000
0001
0100
,
0010
0000
0000
1000
0000
0000
0001
0000
,
1000
0002
0023
0230
,
1300
0000
0001
0100
,
1000
0100
0001
1000
,
0001
0010
1000
0010
,
0002
0000
1003
0100
,
0020
0000
0130
1000
,
1002
0000
0000
0000
,
0203
0000
0000
0000
,
0320
0000
0000
0000
,
2030
0000
0000
0000
,
3200
0320
0230
2300
,
3020
0230
0302
0023
,
0031
0000
1000
0000
,
0001
1000
0001
1000
0001
1000
0001
0000
,
1001
0000
1000
0000
0001
0100
0010
0000
,
1000
0000
1000
0000
0001
0010
0100
0000
,
1000
0000
1000
0000
0100
0010
0001
0000
,
1000
0000
1000
0000
0010
0100
0001
0000
,
1000
0100
0001
0000
0100
0000
1000
0000
,
0001
0100
1000
0000
0100
0000
0001
0000
,
1000
0010
0001
0000
0010
0000
1000
0000
,
0001
0010
1000
0000
1000
0010
0001
0000
,
0100
0000
0001
0000
1000
0010
1000
0000
,
0001
0000
0100
0000
0010
1000
0010
0000
,
0100
0000
0001
0000
0010
0001
0010
0000
,
0100
0000
1000
0000
0001
0100
0001
0100
,
0020
0100
0000
0100
,
2030
0010
0000
0010
,
3002
1000
0000
1000
,
0203
0010
0000
0310
,
0110
0000
0000
0000
;

//---------------dance-single - ----------------
#NOTES:
     dance-single:
     :
     Easy:
     2:
     0.145650,0.251167,0.052094,0.148839,0.000000,137.000000,130.000000,7.000000,20.000000,0.000000,0.000000,0.145650,0.251167,0.052094,0.148839,0.000000,137.000000,130.000000,7.000000,20.000000,0.000000,0.000000:
0000
0000
0000
0000
,
0000
0000
0000
0000
,
0000
0000
0000
0000
,
0000
0000
0000
0000
,
0000
0000
0000
0000
,
0000
0000
0000
0000
,
0000
0000
0000
0000
,
0000
0000
0000
0000
,
1000
0000
0000
0000
,
0010
0000
0100
0000
,
0001
0000
0000
0000
,
0010
0000
0100
0000
,
1000
0000
0000
0000
,
0001
0000
0000
0000
,
0100
0000
0000
0000
,
0010
0000
0000
0000
,
0000
0000
0000
0000
,
0000
0000
0000
0000
,
2001
0000
0000
0000
,
3002
0000
0000
0000
,
0023
0000
0000
0000
,
0230
0000
0000
0000
,
2300
0000
0000
0000
,
3020
0000
0000
0000
,
0230
0000
0000
0000
,
0002
0000
0000
0000
,
0303
0000
0000
0000
,
1001
0000
0001
0000
,
0100
0000
0010
0000
,
1000
0000
0100
0000
,
0010
0000
0001
0000
,
1001
0000
1000
0000
,
0010
0000
0100
0000
,
0001
0000
1000
0000
,
0100
0000
0010
0000
,
0110
0000
0100
0000
,
1000
0001
1000
0000
,
0010
0000
0100
0000
,
0001
1000
0001
0000
,
0010
0000
0100
0000
,
1000
0001
1000
0000
,
0010
0000
0100
0000
,
0001
1000
0001
0000
,
1001
0000
0100
0000
,
0010
0000
0001
0000
,
0100
0000
0010
0000
,
1000
0000
0100
0000
,
0010
0000
0100
0000
,
1000
0000
0010
0000
,
0100
0000
0001
0000
,
0010
0000
0100
0000
,
2000
0000
0000
0000
,
3020
0000
0000
0000
,
0230
0000
0000
0000
,
0302
0000
0000
0000
,
1003
0001
1000
0001
,
1000
0001
1000
0001
,
0200
0000
0320
0000
,
2030
0000
0002
3003
,
1001
0001
1000
0000
,
0010
0100
0001
0000
,
0100
0001
0100
0000
,
0010
1000
0010
0000
,
0100
0001
1000
0000
,
0100
1000
0001
0000
,
0010
0001
1000
0000
,
0010
1000
0001
0000
,
1000
0010
1000
0010
,
0100
0001
1000
0000
,
0001
0010
0001
0010
,
0100
1000
0010
0100
,
0002
0000
0000
0000
,
2003
0000
0000
0000
,
3020
0000
0000
0000
,
0230
0000
0300
0000
,
1001
0000
0000
0000
;

//---------------dance-single - ----------------
#NOTES:
     dance-single:
     :
     Beginner:
     1:
     0.114819,0.251167,0.029768,0.059536,0.000000,108.000000,104.000000,4.000000,8.000000,0.000000,0.000000,0.114819,0.251167,0.029768,0.059536,0.000000,108.000000,104.000000,4.000000,8.000000,0.000000,0.000000:
0000
0000
0000
0000
,
0000
0000
0000
0000
,
0000
0000
0000
0000
,
0000
0000
0000
0000
,
0000
0000
0000
0000
,
0000
0000
0000
0000
,
0000
0000
0000
0000
,
0000
0000
0000
0000
,
1000
0000
0000
0000
,
0100
0000
0000
0000
,
0010
0000
0000
0000
,
0001
0000
0000
0000
,
0100
0000
0000
0000
,
0010
0000
0000
0000
,
1000
0000
0000
0000
,
0001
0000
0000
0000
,
0000
0000
0000
0000
,
0000
0000
0000
0000
,
2002
0000
0000
0000
,
3003
0000
0000
0000
,
0200
0000
0000
0000
,
0300
0000
0000
0000
,
0020
0000
0000
0000
,
0030
0000
0000
0000
,
2000
0000
3000
0000
,
0002
0000
0003
0000
,
0000
0000
0000
0000
,
1001
0000
1000
0000
,
0001
0000
1000
0000
,
0001
0000
1000
0000
,
0001
0000
1000
0000
,
0010
0000
0100
0000
,
0010
0000
0100
0000
,
0010
0000
0100
0000
,
0010
0000
0100
0000
,
0010
0000
1000
0000
,
0001
0000
1000
0000
,
0100
0000
0010
0000
,
0001
0000
1000
0000
,
0001
0000
0010
0000
,
0100
0000
1000
0000
,
0010
0000
0100
0000
,
0001
0000
1000
0000
,
1001
0000
0000
0000
,
0001
0000
0000
0000
,
1000
0000
0000
0000
,
0010
0000
0000
0000
,
0100
0000
0000
0000
,
0010
0000
0000
0000
,
1000
0000
0000
0000
,
0001
0000
0000
0000
,
2002
0000
0000
0000
,
0000
0000
0000
0000
,
3003
0000
0000
0000
,
0000
0000
0000
0000
,
0100
0100
0100
0100
,
0100
0100
0100
0100
,
0100
0000
0010
0000
,
0010
0000
0001
0000
,
1000
1000
0000
0001
,
0000
0100
0000
0001
,
0000
0001
0000
1000
,
0000
0100
0000
0010
,
0010
0010
0000
0001
,
0000
1000
0000
0010
,
0010
0010
0000
1000
,
0000
0001
0000
0010
,
0010
0010
0000
0001
,
0000
1000
0000
0001
,
0000
1000
0000
0001
,
0000
1000
0000
0100
,
0100
0100
0000
0100
,
0000
0010
0000
0010
,
0000
0100
0000
0100
,
0000
0010
0000
0100
,
0100
0000
0000
0000
;

//---------------dance-double - ----------------
#NOTES:
     dance-double:
     :
     Medium:
     5:
     0.255153,0.390703,0.052094,0.342331,0.007442,240.000000,233.000000,7.000000,46.000000,0.000000,0.000000,0.255153,0.390703,0.052094,0.342331,0.007442,240.000000,233.000000,7.000000,46.000000,0.000000,0.000000:
// measure 0
00000000
00000000
00000000
00000000
,  // measure 1
00000000
00000000
00000000
00000000
,  // measure 2
00000000
00000000
00000000
00000000
,  // measure 3
00000000
00000000
00000000
00000000
,  // measure 4
00000000
00000000
00000000
00000000
,  // measure 5
00000000
00000000
00000000
00000000
,  // measure 6
00000000
00000000
00000000
00000000
,  // measure 7
00000000
00000000
00000000
00000000
,  // measure 8
02000000
00000000
00000000
00000000
,  // measure 9
03100000
00000000
00000000
00010000
00000000
00000000
01000000
00000000
,  // measure 10
00200000
00000000
00000000
00000000
,  // measure 11
01300000
00000000
00000000
00000000
00010000
00000000
00000000
00000000
00100000
00000000
00000000
00001000
00000000
00000000
00010000
00000000
,  // measure 12
00002000
00000000
00000000
00000000
,  // measure 13
00003200
00000000
00000000
00000000
,  // measure 14
00000302
00000000
00000000
00001000
00002003
00000000
00003010
00000100
,  // measure 15
00000002
00000023
00000230
00002300
,  // measure 16
00003000
00000000
00000000
00000000
,  // measure 17
00000000
00000000
00000000
00000000
,  // measure 18
10020000
00000000
00000000
00000000
,  // measure 19
02030000
00000000
00000000
00000000
,  // measure 20
03020000
00000000
00000000
00000000
,  // measure 21
00230000
00000000
00000000
00000000
00000000
00000000
00000000
00301000
,  // measure 22
00021000
00000000
00030200
00000000
,  // measure 23
00002300
00000000
00003020
00000230
,  // measure 24
00000302
00000000
00000000
00000000
,  // measure 25
00002003
00000000
00003200
00000000
,  // measure 26
00000300
00000000
00000000
00000000
,  // measure 27
00110000
00010000
01000000
00010000
,  // measure 28
00100000
01000000
10000000
00010000
,  // measure 29
00100000
00001000
00010000
00000100
,  // measure 30
00010000
00000000
00001000
00000000
00100000
00000000
00001000
00010000
,  // measure 31
00000100
00000010
00000001
00000100
,  // measure 32
00000010
00001000
00000100
00000010
,  // measure 33
00000001
00000010
00000100
00010000
,  // measure 34
00001000
00000000
00100000
00000000
00001000
00100000
00001000
00100000
,  // measure 35
01000000
00000000
00100000
00000000
00010000
00100000
00001000
00000000
,  // measure 36
00010000
00001000
00100000
01000000
,  // measure 37
00100000
00000000
00001000
00000000
00100000
00001000
00010000
00000000
,  // measure 38
00000100
00001000
00000001
00000100
,  // measure 39
00000010
00000000
00000100
00000000
00000001
00001000
00000001
00000000
,  // measure 40
00000100
00000000
00001000
00000000
00100000
01000000
00100000
00000000
,  // measure 41
00010000
01000000
00010000
00000000
10000000
00100000
10000000
00000000
,  // measure 42
00001000
00100000
00001000
00000000
00010000
00001000
00010000
00000000
,  // measure 43
00011000
00001000
00010000
00001000
,  // measure 44
00000100
00000000
00000000
00000001
00000000
00000000
00000010
00000000
,  // measure 45
00000100
00020000
02030000
03200000
,  // measure 46
00310000
00000000
00000000
00000000
00010000
00000000
00000000
00000000
01000000
00000000
00000000
00100000
00000000
00000000
01000000
00000000
,  // measure 47
00010000
00000000
00000000
10000000
00000000
00000000
01000000
00000000
,  // measure 48
00000000
00100000
00000000
00000000
00001000
00000000
00010000
00000100
,  // measure 49
00002000
00000000
00003100
00000000
,  // measure 50
00020000
00000000
00000000
00032000
00000000
00000000
00003100
00000000
,  // measure 51
00000210
00000000
00000000
00000000
,  // measure 52
00000302
00000000
00000000
00000000
,  // measure 53
00002003
00000000
00000000
00000000
,  // measure 54
00003200
00000000
00000000
00000000
,  // measure 55
00002300
00003020
00000230
00002300
,  // measure 56
00023000
00230000
20300000
32000000
,  // measure 57
03200000
00000000
00302000
00000000
,  // measure 58
00013000
00001000
00010000
00001000
00010000
00001000
00010000
00000000
,  // measure 59
00000110
00000000
00000010
00000000
00000001
00000100
00001000
00000000
,  // measure 60
00000100
00000000
00000100
00000000
00000001
00000010
00000100
00000000
,  // measure 61
00000010
00000000
00000010
00000000
00000100
00010000
00001000
00000000
,  // measure 62
00100000
00000000
00100000
00000000
01000000
10000000
00100000
00000000
,  // measure 63
00010000
00100000
10000000
00000000
01000000
00000000
00100000
00000000
,  // measure 64
00010000
01000000
10000000
00000000
01000000
00000000
00010000
00000000
,  // measure 65
00100000
00001000
00010000
00000000
00100000
00000000
00010000
00000000
,  // measure 66
00001000
00000100
00000001
00000000
00000001
00000010
00001000
00000000
,  // measure 67
00100000
00000000
00001000
00000000
00010000
00000100
00001000
00000000
,  // measure 68
00000100
00000000
00000010
00000000
00000100
00010000
00001000
00000000
,  // measure 69
01000000
00000000
00100000
00000000
10000000
01000000
10000000
00000000
,  // measure 70
01000000
00000000
00010000
00000000
01000000
00100000
01000000
00100000
,  // measure 71
00020000
01000000
00000000
01030000
,  // measure 72
00200000
00010000
00000000
00310000
,  // measure 73
00002000
00100000
00000000
00103000
,  // measure 74
00020000
00001000
00000000
00031000
,  // measure 75
00011000
00000000
00000000
00000000
;

//---------------dance-double - ----------------
#NOTES:
     dance-double:
     :
     Hard:
     8:
     0.449708,0.530240,0.059536,0.178607,0.424192,423.000000,415.000000,8.000000,24.000000,0.000000,0.000000,0.449708,0.530240,0.059536,0.178607,0.424192,423.000000,415.000000,8.000000,24.000000,0.000000,0.000000:
// measure 0
00000000
00000000
00000000
00000000
,  // measure 1
00000000
00000000
00000000
00000000
,  // measure 2
00000000
00000000
00000000
00000000
,  // measure 3
00000000
00000000
00000000
00000000
,  // measure 4
00000000
00000000
00000000
00000000
,  // measure 5
00000000
00000000
00000000
00000000
,  // measure 6
00000000
00000000
00000000
00000000
,  // measure 7
00000000
00000000
00000000
01000000
,  // measure 8
00100000
00000000
00000000
00000000
01000000
00000000
10000000
00000000
00010000
00000000
00000000
01000000
00000000
00000000
00100000
00000000
,  // measure 9
10000000
00100000
01000000
00010000
00000000
00000000
00100000
00000000
,  // measure 10
00001000
00000020
00000032
00000203
,  // measure 11
00001300
00000000
00000100
00000000
00000001
00000000
00000010
00000000
00000100
00000000
00000000
00001000
00000000
00000000
00000100
00000000
,  // measure 12
00010000
00001000
00100000
00010000
00000000
00000000
00100000
00000000
,  // measure 13
00001000
00000010
00000000
00000010
00000001
00000100
00000010
00001000
,  // measure 14
00000001
00000000
00000000
00000100
00000100
00000000
00000001
00000010
,  // measure 15
00002000
00000000
00000000
02003000
00000000
00000000
23000000
00000000
,  // measure 16
00000000
30000000
00000000
00000000
00000000
00000000
00000000
00000000
,  // measure 17
00000000
00000000
00000000
00000000
,  // measure 18
00210000
00000000
00000000
00010000
00000000
00000000
00310000
00000000
01000000
00000000
00000000
00100000
00000000
00000000
10000000
00000000
,  // measure 19
00010000
00000000
00000000
00010000
00000000
00000000
00010000
00000000
00100000
00000000
00000000
00010000
00000000
00000000
00001000
00000000
,  // measure 20
00000010
00000000
00000000
00000010
00000000
00000000
00000010
00000000
00001000
00000000
00000000
00000100
00000000
00000000
00001000
00000000
,  // measure 21
00000001
00000000
00000000
00000001
00000000
00000000
00000001
00000000
00000010
00000000
00000000
00000100
00000000
00000000
00010000
00000000
,  // measure 22
00012000
00000000
00000000
00010000
00000000
00000000
00013000
00000000
00000100
00000000
00000000
00000100
00000000
00000000
00000100
00000000
,  // measure 23
00000001
00000000
00000000
00000001
00000000
00000000
00000001
00000000
00000010
00000000
00000000
00000010
00000000
00000000
00000010
00000000
,  // measure 24
00001000
00000000
00000000
00001000
00000000
00000000
00001000
00000000
00100000
00000000
00000000
00100000
00000000
00000000
00100000
00000000
,  // measure 25
10000000
00000000
00000000
10000000
00000000
00000000
10000000
00000000
01000000
00000000
00000000
01000000
00000000
00000000
01000000
00000000
,  // measure 26
10000000
00000000
00010000
00000000
00100000
00000000
01000000
10000000
01000000
10000000
01000000
00000000
00100000
00000000
00010000
10000000
,  // measure 27
00020000
00000000
00000000
10000000
00000000
00000000
10030000
00000000
00100000
10000000
00000000
01000000
00000000
00000000
01000000
00000000
,  // measure 28
00100000
00000000
00000000
00100000
00000000
00000000
00100000
00000000
00001000
00010000
00000000
00001000
00000000
00000000
00001000
00000000
,  // measure 29
00000100
00000000
00000000
00000001
00000000
00000000
00000010
00000000
00001000
00000000
00000000
00000010
00000000
00000000
00000001
00000000
,  // measure 30
00001000
00000000
00000000
00100000
00000000
00000000
10000000
00000000
01000000
00000000
00000000
00010000
00000000
00000000
01000000
00000000
,  // measure 31
10000000
00000000
00000000
10000000
00000000
00000000
10000000
00000000
00100000
01000000
00000000
00100000
00000000
00000000
01000000
00000000
,  // measure 32
00001000
00000000
00000000
00001000
00000000
00000000
00001000
00000000
00100000
00010000
00000000
00100000
00000000
00000000
00100000
00000000
,  // measure 33
00001000
00000000
00000000
00000100
00000000
00000000
00000010
00000000
00001000
00000000
00000000
00000100
00000000
00000000
00000001
00000000
,  // measure 34
00001000
00000000
00000000
00000010
00000000
00000000
00000001
00000000
00000100
00000000
00000000
00001000
00000000
00000000
00010000
00000000
,  // measure 35
00021000
00000000
00000000
00001000
00000000
00000000
00031000
00000000
00010000
00001000
00000000
00100000
00000000
00000000
00100000
00000000
,  // measure 36
01000000
00000000
00000000
01000000
00000000
00000000
01000000
00000000
00100000
00010000
00000000
10000000
00000000
00000000
10000000
00000000
,  // measure 37
00100000
00000000
00000000
00001000
00000000
00000000
00100000
00000000
10000000
00000000
00000000
01000000
00000000
00000000
00010000
00000000
,  // measure 38
00001000
00000000
00000000
00000010
00000000
00000000
00000001
00000000
00000100
00000000
00000000
00000010
00000000
00000000
00000001
00000000
,  // measure 39
00000010
00000000
00000000
00000010
00000000
00000000
00000010
00000000
00001000
00000100
00000000
00010000
00000000
00000000
00010000
00000000
,  // measure 40
00100000
00000000
00000000
00100000
00000000
00000000
00100000
00000000
01000000
00010000
00000000
00100000
00000000
00000000
00001000
00000000
,  // measure 41
00000100
00000000
00000000
00000010
00000000
00000000
00001000
00000000
00000100
00000000
00000000
00000001
00000000
00000000
00000100
00000000
,  // measure 42
00010000
00000000
00000000
00001000
00000000
00000000
01000000
00000000
00100000
00000000
00000000
00010000
00000000
00000000
00000100
00000000
,  // measure 43
00001100
00000000
00000000
00000000
00000100
00001000
00000100
00001000
00000010
00000000
00000000
00000100
00000000
00000000
00000001
00000000
,  // measure 44
00000010
00000001
00000100
00000010
00000000
00000000
00000100
00000000
,  // measure 45
00000001
00000000
00000000
00001000
00000000
00000000
00000100
00000000
00001000
00000000
00000100
00000000
00010000
00000000
00001000
00000000
00010000
00000000
00001000
00000000
00100000
00000000
00001000
00000000
,  // measure 46
00100000
00000000
00010000
00000000
01000000
00000000
00010000
00000000
00100000
00000000
00000000
00001000
00000000
00000000
00100000
00000000
,  // measure 47
01000000
00010000
01000000
10000000
00000000
00000000
10010000
00000000
,  // measure 48
10000000
00010000
00000000
00010000
00100000
00001000
00010000
00000100
,  // measure 49
00000020
00000000
00000000
00000001
00000002
00000000
00000033
00000000
,  // measure 50
00001000
00000000
00000000
00001000
00000000
00000000
01000000
00000000
,  // measure 51
10000000
01000000
00100000
00010000
00000000
00100000
00000000
00000000
,  // measure 52
00001000
00000000
00000100
00000000
00000010
00000000
00000001
00000000
00000000
00000000
00000010
00000000
00000000
00000010
00001000
00000000
,  // measure 53
00000100
00000010
00000100
00000010
00000100
00001000
00000100
00001000
,  // measure 54
00000100
00010000
00000000
00010000
01000000
00000000
00100000
00000000
,  // measure 55
00010000
01000000
00001000
00010000
00000100
00000010
00000100
00000001
,  // measure 56
00000100
00010000
00001000
00100000
01000000
10000000
01000000
00010000
,  // measure 57
02000000
00000000
00000000
00000000
00000000
00000000
10000000
00000000
23000000
00000000
00000000
00000000
00100000
00000000
00000000
30100000
,  // measure 58
01000000
00000000
00010000
00000000
00100000
00000000
00001000
00010000
00001000
00010000
00000100
00000000
00001000
00000000
00000001
00000010
,  // measure 59
00000002
00000000
00000000
00000100
00000000
00000000
00000103
00000000
00000001
00000010
00000000
00000010
00000000
00000000
00000010
00000000
,  // measure 60
00000100
00000000
00000000
00000100
00000000
00000000
00000100
00000000
00010000
00001000
00000000
00010000
00000000
00000000
00010000
00000000
,  // measure 61
00100000
00000000
00000000
10000000
00000000
00000000
01000000
00000000
00010000
00000000
00000000
01000000
00000000
00000000
10000000
00000000
,  // measure 62
00010000
00000000
00000000
00000100
00000000
00000000
00000001
00000000
00000010
00000000
00000000
00001000
00000000
00000000
00000010
00000000
,  // measure 63
00000001
00000000
00000000
00000001
00000000
00000000
00000001
00000000
00000100
00000010
00000000
00000100
00000000
00000000
00000010
00000000
,  // measure 64
00010000
00000000
00000000
00010000
00000000
00000000
00010000
00000000
00000100
00001000
00000000
00000100
00000000
00000000
00000100
00000000
,  // measure 65
00010000
00000000
00000000
00100000
00000000
00000000
01000000
00000000
00010000
00000000
00000000
00100000
00000000
00000000
10000000
00000000
,  // measure 66
00010000
00000000
00000000
01000000
00000000
00000000
10000000
00000000
00100000
00000000
00000000
00010000
00000000
00000000
00001000
00000000
,  // measure 67
00012000
00000000
00000000
00010000
00000000
00000000
00013000
00000000
00001000
00010000
00000000
00000100
00000000
00000000
00000100
00000000
,  // measure 68
00000010
00000000
00000000
00000010
00000000
00000000
00000010
00000000
00000100
00001000
00000000
00000001
00000000
00000000
00000001
00000000
,  // measure 69
00000100
00000000
00000000
00010000
00000000
00000000
00000100
00000000
00000001
00000000
00000000
00000010
00000000
00000000
00001000
00000000
,  // measure 70
00010000
00000000
00000000
01000000
00000000
00000000
10000000
00000000
00100000
00000000
00000000
01000000
00000000
00000000
10000000
00000000
,  // measure 71
21000000
00000000
00000000
01000000
00000000
00000000
32000000
00000000
00010000
00000000
00000000
00010000
00000000
00000000
03020000
00000000
,  // measure 72
00000010
00000000
00000000
00000010
00000000
00000000
00030020
00000000
00000001
00000000
00000000
00000001
00000000
00000000
00000032
00000000
,  // measure 73
00000100
00000000
00000000
00000100
00000000
00000000
00000203
00000000
00001000
00000000
00000000
00001000
00000000
00000000
00002300
00000000
,  // measure 74
00010000
00000000
00000000
00010000
00000000
00000000
00023000
00000000
00100000
00000000
00000000
00100000
00000000
00000000
00130000
00000000
,  // measure 75
01100000
00000000
00000000
00000000
;

//---------------dance-double - ----------------
#NOTES:
     dance-double:
     :
     Easy:
     2:
     0.144587,0.251167,0.044652,0.148839,0.000000,136.000000,130.000000,6.000000,20.000000,0.000000,0.000000,0.144587,0.251167,0.044652,0.148839,0.000000,136.000000,130.000000,6.000000,20.000000,0.000000,0.000000:
00000000
00000000
00000000
00000000
,
00000000
00000000
00000000
00000000
,
00000000
00000000
00000000
00000000
,
00000000
00000000
00000000
00000000
,
00000000
00000000
00000000
00000000
,
00000000
00000000
00000000
00000000
,
00000000
00000000
00000000
00000000
,
00000000
00000000
00000000
00000000
,
00001000
00000000
00000000
00000000
,
00000010
00000000
00000100
00000000
,
00000001
00000000
00000000
00000000
,
00000010
00000000
00000100
00000000
,
00001000
00000000
00000000
00000000
,
00000100
00000000
00000000
00000000
,
00010000
00000000
00000000
00000000
,
00001000
00000000
00000000
00000000
,
00000000
00000000
00000000
00000000
,
00000000
00000000
00000000
00000000
,
10020000
00000000
00000000
00000000
,
00230000
00000000
00000000
00000000
,
02300000
00000000
00000000
00000000
,
23000000
00000000
00000000
00000000
,
30200000
00000000
00000000
00000000
,
00320000
00000000
00000000
00000000
,
00030200
00000000
00000000
00000000
,
00000020
00000000
00000000
00000000
,
00000330
00000000
00000000
00000000
,
00001001
00000000
00000001
00000000
,
00001000
00000000
00000100
00000000
,
00010000
00000000
00001000
00000000
,
00100000
00000000
01000000
00000000
,
10000000
00000000
00010000
00000000
,
01000000
00000000
00001000
00000000
,
00100000
00000000
00000100
00000000
,
00010000
00000000
00000010
00000000
,
00000110
00000000
00000100
00000000
,
00000001
00000010
00000001
00000000
,
00000100
00000000
00000010
00000000
,
00001000
00000100
00001000
00000000
,
00000100
00000000
00010000
00000000
,
00001000
00000000
00100000
00000000
,
00001000
00000000
00010000
00000000
,
00000100
00001000
00000001
00000000
,
00001001
00000000
00000001
00000000
,
00001000
00000000
00000100
00000000
,
00000100
00000000
00010000
00000000
,
00001000
00000000
00100000
00000000
,
00100000
00000000
00010000
00000000
,
01000000
00000000
00001000
00100000
,
00001000
00000000
00010000
00000000
,
00000100
00000000
00001000
00000000
,
00000200
00000000
00000000
00000000
,
00000320
00000000
00000000
00000000
,
00000032
00000000
00000000
00000000
,
00002003
00000000
00003000
00000000
,
00000001
00001000
00000001
00001000
,
00000001
00001000
00000001
00001000
,
00000200
00000000
00020300
00000000
,
00032000
00000000
00020000
00033000
,
00011000
00010000
00001000
00000000
,
00000100
00000001
00000010
00000000
,
00000100
00001000
00000100
00000000
,
00000010
00000001
00000010
00000000
,
00000100
00010000
00001000
00000000
,
00100000
00001000
00010000
00000000
,
00001000
00100000
00010000
00000000
,
00100000
00010000
01000000
00000000
,
00100000
10000000
00100000
10000000
,
00010000
00100000
00001000
00000000
,
00000010
00000001
00000010
00000001
,
00000100
00000010
00001000
00000100
,
00020000
00000000
00000000
00000000
,
00032000
00000000
00000000
00000000
,
00003200
00000000
00000000
00000000
,
00000320
00000000
00000030
00000000
,
00000110
00000000
00000000
00000000
;

//---------------dance-single - ----------------
#NOTES:
     dance-single:
     :
     Challenge:
     10:
     0.701672,0.920944,0.104188,0.119072,1.120017,660.000000,646.000000,14.000000,16.000000,0.000000,0.000000,0.701672,0.920944,0.104188,0.119072,1.120017,660.000000,646.000000,14.000000,16.000000,0.000000,0.000000:
0000
0000
0000
0000
,
0000
0000
0000
0000
,
0000
0000
0000
0000
,
0000
0000
0000
0000
,
0000
0000
0000
0000
,
0000
0000
0000
0000
,
0000
0000
0000
0000
,
0000
0000
0000
0100
,
0010
0000
0000
0000
1000
0100
0010
0001
0010
0000
0000
0100
0000
0000
1000
0000
,
0010
0001
0010
1000
0000
0000
1001
0000
,
0001
0000
0000
0100
0000
0000
0001
0000
0010
0000
0001
0000
0010
0000
0100
0000
0010
0000
0100
0000
1000
0000
0100
0000
,
1000
0000
0010
0000
0001
0000
0010
0000
1000
0000
0000
0100
0000
0000
0010
0000
,
0001
0100
0010
1000
0000
0000
1001
0000
,
0100
0010
0000
0010
0100
0010
0001
0010
,
2000
0000
0000
0100
3100
0000
0010
0001
,
0020
0000
0001
0032
0100
0000
2000
0000
,
0000
3003
0000
0000
0000
0000
0000
0000
,
0000
0000
0000
0000
,
2001
0000
0000
0001
0000
0000
3001
0000
1000
0100
1000
0100
0000
0100
0010
0100
,
1000
0010
0000
0010
0000
0000
0010
0000
0001
0010
0001
0010
0000
0100
0010
0100
,
0001
0100
0000
0100
0000
0100
0001
0010
0001
0000
0001
1000
0000
1000
0100
1000
,
0010
1000
0000
1000
0000
1000
0100
0010
0001
0000
0000
0001
0000
0010
0100
1000
,
1001
0000
0000
1000
0000
0000
1000
0000
0001
0100
0001
0100
0000
0100
0010
0100
,
0010
1000
0000
0010
0000
0000
1000
0000
0001
0010
0001
0010
0000
0001
1000
0001
,
1000
0100
0000
0100
0000
0100
1000
0100
1000
0000
1000
0010
0000
0010
0100
0010
,
1000
0001
0000
0001
0000
0001
0010
0100
1000
0000
0000
0100
0000
0100
0010
0001
,
0100
0000
0100
0000
0010
0000
1000
0001
1000
0001
1000
0000
0010
0000
0100
0001
,
0021
0000
0000
0031
0000
0000
0010
0000
0100
1000
0100
1000
0000
1000
0001
0100
,
0001
1000
0000
1000
0000
0000
1000
0000
0010
0001
0010
0001
0000
0010
0100
0010
,
1000
0010
0000
0010
0000
0010
1000
0100
0010
0000
0010
0001
0000
0001
0100
0001
,
0010
0100
0000
0100
0000
0100
1000
0010
0100
0000
0000
0010
0000
0010
0100
0010
,
1000
0000
0000
1000
0000
0000
1000
0000
0001
0010
0001
1000
0000
1000
0100
1000
,
0001
0100
0000
0100
0000
0000
0100
0000
0001
0010
0100
1000
0000
1000
0100
0010
,
0001
0100
0000
0100
0000
0100
0010
1000
0010
0000
0010
0100
0000
0100
0001
0010
,
0100
1000
0000
1000
0000
1000
0100
0010
0001
0000
0000
1000
0000
0100
1000
0001
,
0102
0000
0000
0103
0000
0000
0100
0000
0001
0010
0001
1000
0000
1000
0010
1000
,
0001
1000
0000
1000
0000
0000
1000
0000
0001
0100
0001
1000
0000
1000
0100
1000
,
0001
0100
0000
0100
0000
0100
0010
1000
0010
0000
0010
0100
0000
0100
0001
0010
,
0100
1000
0000
1000
0000
1000
0100
0010
0001
0000
0000
1000
0000
0100
1000
0001
,
0100
0000
0000
0100
0000
0000
0100
0000
0010
1000
0010
1000
0000
1000
0001
0010
,
0100
1000
0000
1000
0000
0000
1000
0000
0100
0010
0001
0100
0000
0100
0010
1000
,
0001
1000
0010
1000
0000
1000
0010
1000
0000
1000
0010
1000
0000
1000
0010
1000
,
0001
0000
0010
0000
0100
0000
1000
0001
1000
0001
0100
0000
0010
0000
1000
0100
,
0020
0000
0000
0000
0031
1000
0010
0100
0001
0000
0000
0010
0000
0000
0100
0000
,
1000
0010
0001
0010
0000
0000
0110
0000
,
0100
0000
0000
0001
0000
0000
1000
0000
0100
0000
0001
0000
1000
0000
0010
0000
0001
0000
1000
0000
0100
0000
0010
0000
,
0001
0000
0100
0000
1000
0000
0100
0000
0001
0000
0000
0010
0000
0000
1000
0000
,
0001
0100
1000
0010
0000
0000
0110
0000
,
0100
0001
0000
0001
1000
0100
0001
0100
,
0020
0000
0000
0100
0230
0000
1300
0010
,
0002
0000
0010
0023
0000
1000
1030
0000
,
0110
0100
0001
0010
0100
1000
0000
0000
,
1010
0000
0010
0000
0100
0000
0001
0000
1000
0000
0100
0000
0000
0100
0010
0100
,
1000
0000
0010
0100
0010
0000
0100
0000
0100
0000
0001
0000
0001
0000
1000
0000
,
1000
0000
0010
0000
0000
0000
0001
0010
2000
0000
0000
0000
0100
0000
0000
0000
,
3001
1000
0100
1000
0010
1000
0100
1000
0001
0100
0010
0100
0001
0100
0010
0100
,
0001
0010
0100
0010
0001
0010
0100
0010
0001
0100
0001
1000
0001
0010
0001
0100
,
0001
1000
0010
1000
0000
1000
0010
1000
0000
1000
0010
1000
0000
1000
0010
1000
,
0100
0000
0010
0000
0100
0000
1000
0001
1000
0001
1000
0000
0001
0000
0010
0100
,
0120
0000
0000
0100
0000
0000
0130
0000
1000
0100
1000
0100
0000
0100
0010
0100
,
1000
0001
0000
0001
0000
0000
0001
0000
0100
0010
0100
0001
0000
0001
0010
0100
,
0010
0001
0000
0001
0000
0001
1000
0100
1000
0000
1000
0010
0000
0010
1000
0010
,
0100
0010
0000
0010
0000
0010
0100
0001
1000
0000
0000
1000
0000
1000
0100
1000
,
0001
0000
0000
1000
0000
0000
0001
0000
0100
0010
1000
0001
0000
1000
0010
0100
,
0001
1000
0000
0001
0000
0000
1000
0000
0001
0010
0100
1000
0000
1000
0100
0010
,
0001
1000
0000
0100
0000
1000
0010
0100
0001
0000
0001
0010
0000
0001
0100
0010
,
1000
0100
0000
0100
0000
0100
1000
0100
1000
0000
0000
0001
0000
0001
1000
0100
,
1200
0000
0000
1000
0000
0000
1300
0000
0001
0010
0001
0100
0000
0100
0010
0100
,
0001
1000
0000
1000
0000
0000
0001
0000
0010
1000
0010
0001
0000
0001
1000
0010
,
0100
0010
0000
0010
0000
0010
1000
0001
1000
0000
1000
0100
0000
0100
0010
0001
,
0010
0100
0000
0100
0000
0100
1000
0010
0100
0000
0000
0010
0000
0010
1000
0001
,
1002
0000
0000
1000
0000
0000
1003
0000
0100
1000
0100
1000
0000
1000
0010
1000
,
0010
0001
0000
0010
0000
0000
0010
0000
1000
0001
1000
0001
0000
0001
0010
0001
,
0010
1000
0000
1000
0000
1000
0010
0100
0010
0000
0010
0001
0000
0001
0010
0001
,
0100
0001
0000
0001
0000
0100
0010
1000
0010
0000
0000
0100
0000
0010
1000
0001
,
1001
0000
0000
0000
;

//---------------dance-double - ----------------
#NOTES:
     dance-double:
     :
     Challenge:
     10:
     0.683598,0.920944,0.074420,0.245585,1.093970,643.000000,633.000000,10.000000,33.000000,0.000000,0.000000,0.683598,0.920944,0.074420,0.245585,1.093970,643.000000,633.000000,10.000000,33.000000,0.000000,0.000000:
// measure 0
00000000
00000000
00000000
00000000
,  // measure 1
00000000
00000000
00000000
00000000
,  // measure 2
00000000
00000000
00000000
00000000
,  // measure 3
00000000
00000000
00000000
00000000
,  // measure 4
00000000
00000000
00000000
00000000
,  // measure 5
00000000
00000000
00000000
00000000
,  // measure 6
00000000
00000000
00000000
00000000
,  // measure 7
00000000
00000000
00000000
01000000
,  // measure 8
00010000
00000000
00000000
00000000
00100000
00010000
00100000
01000000
10000000
00000000
00000000
00100000
00000000
00000000
01000000
00000000
,  // measure 9
00010000
00100000
00010000
00001000
00000000
00000000
00000100
00000000
,  // measure 10
00000010
00000000
00000000
00001000
00000000
00000000
00000010
00000000
00000001
00000000
00000010
00000000
00000100
00000000
00000010
00000000
00000100
00000000
00001000
00000000
00000100
00000000
00001000
00000000
,  // measure 11
00000010
00000000
00000100
00000000
00000001
00000000
00000010
00000000
00000100
00000000
00000000
00001000
00000000
00000000
00000100
00000000
,  // measure 12
00010000
00001000
00100000
00010000
00000000
00000000
10000000
00000000
,  // measure 13
01000000
00100000
00000000
00100000
00010000
00100000
01000000
00100000
,  // measure 14
00002000
00000000
00000000
00100000
00103000
00000000
00001000
00010000
,  // measure 15
00000200
00000000
00000010
00000320
00000001
00000000
00000200
00000000
,  // measure 16
00000000
00000330
00000000
00000000
00000000
00000000
00000000
00000000
,  // measure 17
00000000
00000000
00000000
00000000
,  // measure 18
20010000
00000000
00000000
00010000
00000000
00000000
30010000
00000000
00100000
00010000
00100000
00010000
00000000
00010000
00100000
00001000
,  // measure 19
00010000
00001000
00000000
00001000
00000000
00000000
00001000
00000000
00010000
00100000
00010000
00100000
00000000
00100000
01000000
00010000
,  // measure 20
01000000
00010000
00000000
00010000
00000000
00010000
00100000
00001000
00010000
00000000
00010000
00001000
00000000
00001000
00100000
00001000
,  // measure 21
00010000
00000100
00000000
00000100
00000000
00000100
00001000
00000100
00000010
00000000
00000000
00000010
00000000
00000001
00001000
00000001
,  // measure 22
00001001
00000000
00000000
00000001
00000000
00000000
00000001
00000000
00001000
00000100
00001000
00000100
00000000
00000100
00000010
00000100
,  // measure 23
00001000
00000010
00000000
00000010
00000000
00000000
00000010
00000000
00000100
00001000
00000100
00001000
00000000
00001000
00010000
00001000
,  // measure 24
00100000
00001000
00000000
00001000
00000000
00001000
00010000
00001000
00100000
00000000
00100000
00010000
00000000
00010000
01000000
00100000
,  // measure 25
01000000
00010000
00000000
00010000
00000000
00010000
00100000
01000000
10000000
00000000
00000000
00100000
00000000
00100000
01000000
00010000
,  // measure 26
10000000
00000000
00010000
00000000
00100000
00000000
00001000
00010000
00001000
00010000
00001000
00000000
00000100
00000000
00000001
00000010
,  // measure 27
00000210
00000000
00000000
00001000
00000000
00000000
00001300
00000000
00000100
00000010
00000100
00000010
00000000
00000010
00000001
00000100
,  // measure 28
00000010
00001000
00000000
00001000
00000000
00000000
00001000
00000000
00000010
00001000
00000100
00001000
00000000
00001000
00000100
00010000
,  // measure 29
00000100
00001000
00000000
00001000
00000000
00001000
00000100
00010000
00001000
00000000
00001000
00010000
00000000
00010000
00100000
00010000
,  // measure 30
00001000
00100000
00000000
00100000
00000000
00100000
01000000
00100000
00010000
00000000
00000000
00010000
00000000
00010000
01000000
00100000
,  // measure 31
10000000
00000000
00000000
10000000
00000000
00000000
10000000
00000000
01000000
00100000
01000000
10000000
00000000
10000000
00010000
00100000
,  // measure 32
00010000
01000000
00000000
01000000
00000000
00000000
01000000
00000000
00100000
01000000
00100000
00010000
00000000
00010000
00100000
01000000
,  // measure 33
00010000
01000000
00000000
01000000
00000000
01000000
00100000
01000000
00010000
00000000
00010000
00100000
00000000
00100000
00001000
00100000
,  // measure 34
00010000
10000000
00000000
10000000
00000000
10000000
00010000
00100000
00001000
00000000
00000000
00001000
00000000
00001000
00010000
00001000
,  // measure 35
00012000
00000000
00000000
00010000
00000000
00000000
00013000
00000000
00001000
00100000
00001000
00010000
00000000
00010000
00100000
10000000
,  // measure 36
00010000
10000000
00000000
10000000
00000000
00000000
10000000
00000000
01000000
00010000
01000000
10000000
00000000
10000000
00010000
00100000
,  // measure 37
00010000
00001000
00000000
00001000
00000000
00001000
00010000
00100000
00001000
00000000
00001000
00010000
00000000
00010000
00000100
00000010
,  // measure 38
00000100
00010000
00000000
00010000
00000000
00010000
00001000
00000100
00000010
00000000
00000000
00000010
00000000
00000010
00001000
00000100
,  // measure 39
00001000
00000000
00000000
00001000
00000000
00000000
00001000
00000000
00000100
00010000
00001000
00010000
00000000
00010000
00001000
00010000
,  // measure 40
00000100
00000010
00000000
00000010
00000000
00000000
00000010
00000000
00000100
00010000
00001000
00100000
00000000
00100000
00010000
10000000
,  // measure 41
00010000
00100000
00001000
00100000
00000000
00001000
00010000
00001000
00000000
00010000
00000100
00010000
00000000
00001000
00010000
00001000
,  // measure 42
02000000
03002000
00023000
00030020
00002030
00003200
00020300
00032000
,  // measure 43
00023000
00000000
00000000
00000000
00031000
00000100
00000010
00000001
00000010
00000000
00000000
00001000
00000000
00000000
00000100
00000000
,  // measure 44
00000010
00000001
00000100
00001000
00000000
00000000
00010000
00000000
,  // measure 45
00001000
00000000
00000000
01000000
00000000
00000000
00010000
00000000
00100000
00000000
10000000
00000000
00010000
00000000
01000000
00000000
10000000
00000000
00100000
00000000
00010000
00000000
00001000
00000000
,  // measure 46
00000100
00000000
00000010
00000000
00000001
00000000
00000010
00000000
00001000
00000000
00000000
00000100
00000000
00000000
00000001
00000000
,  // measure 47
00000100
00010000
00001000
00010000
00000000
00000000
00011000
00000000
,  // measure 48
01000000
00010000
00000000
00010000
10000000
01000000
00010000
00001000
,  // measure 49
00000020
00000000
00000000
00000001
00000031
00000000
00000100
00000010
,  // measure 50
00002000
00000000
00000000
00003200
00000000
00000000
00010300
00000000
,  // measure 51
00011000
00010000
00000010
00000001
00000100
00010000
00000000
00000000
,  // measure 52
00011000
00000000
00001000
00000000
00100000
00000000
10000000
00000000
01000000
00000000
00001000
00000000
00000000
00001000
00010000
00001000
,  // measure 53
00020000
00030200
00020300
00032000
,  // measure 54
00103000
00000000
00010000
00000000
00000000
00000000
00010000
00100000
02000000
00000000
00000000
00000000
13000000
00000000
00000000
00000000
,  // measure 55
00010000
10000000
00010000
10000000
00001000
00100000
00001000
00100000
00000100
00010000
00000100
00010000
00000010
00000100
00000010
00000100
,  // measure 56
00000001
00000010
00000001
00000010
00001000
00000010
00001000
00000010
00000100
00010000
00000100
00010000
01000000
10000000
01000000
10000000
,  // measure 57
00010000
00100000
00001000
00100000
00000000
00001000
00010000
00001000
00000000
00010000
00000100
00010000
00000000
00001000
00010000
00001000
,  // measure 58
02000000
03002000
00023000
00030200
00002300
00003020
00020030
00031000
,  // measure 59
00201000
00000000
00000000
00010000
00000000
00000000
00310000
00000000
00100000
01000000
00100000
01000000
00000000
01000000
10000000
00100000
,  // measure 60
01000000
00010000
00000000
00010000
00000000
00000000
00010000
00000000
01000000
00010000
00100000
00010000
00000000
00010000
00100000
00001000
,  // measure 61
00100000
00010000
00000000
00010000
00000000
00010000
00100000
00001000
00010000
00000000
00010000
00001000
00000000
00001000
00000100
00001000
,  // measure 62
00010000
00000100
00000000
00000100
00000000
00000100
00000010
00000100
00001000
00000000
00000000
00001000
00000000
00001000
00000010
00000100
,  // measure 63
00000001
00000000
00000000
00000001
00000000
00000000
00000001
00000000
00000010
00000100
00000010
00000001
00000000
00000001
00001000
00000100
,  // measure 64
00001000
00000010
00000000
00000010
00000000
00000000
00000010
00000000
00000100
00000010
00000100
00001000
00000000
00001000
00000100
00000010
,  // measure 65
00001000
00000010
00000000
00000010
00000000
00000010
00000100
00000010
00001000
00000000
00001000
00000100
00000000
00000100
00010000
00000100
,  // measure 66
00001000
00000001
00000000
00000001
00000000
00000001
00001000
00000100
00010000
00000000
00000000
00010000
00000000
00010000
00001000
00010000
,  // measure 67
00021000
00000000
00000000
00001000
00000000
00000000
00031000
00000000
00010000
00000100
00010000
00001000
00000000
00001000
00000100
00000001
,  // measure 68
00001000
00000001
00000000
00000001
00000000
00000000
00000001
00000000
00000010
00001000
00000010
00000001
00000000
00000001
00001000
00000100
,  // measure 69
00001000
00010000
00000000
00010000
00000000
00010000
00001000
00000100
00010000
00000000
00010000
00001000
00000000
00001000
00100000
01000000
,  // measure 70
00100000
00001000
00000000
00001000
00000000
00001000
00010000
00100000
01000000
00000000
00000000
01000000
00000000
01000000
00010000
00100000
,  // measure 71
00010000
00000000
00000000
00010000
00000000
00000000
00010000
00000000
00100000
00001000
00010000
00001000
00000000
00001000
00010000
00001000
,  // measure 72
00100000
01000000
00000000
01000000
00000000
00000000
01000000
00000000
00100000
00001000
00010000
00000100
00000000
00000100
00001000
00000001
,  // measure 73
00001000
00000100
00000000
00000100
00000000
00000100
00010000
00001000
00100000
00000000
00100000
00010000
00000000
00010000
00001000
00010000
,  // measure 74
00100000
00001000
00000000
00001000
00000000
00001000
00000100
00001000
00010000
00000000
00000000
00010000
00000000
00010000
00001000
00010000
,  // measure 75
00011000
00000000
00000000
00000000
;
