#TITLE:concon;
#SUBTITLE:;
#ARTIST:S-C-U;
#TITLETRANSLIT:;
#SUBTITLETRANSLIT:;
#ARTISTTRANSLIT:;
#GENRE:;
#CREDIT:Silverhawke;
#BANNER:concon.png;
#BACKGROUND:concon-bg.png;
#LYRICSPATH:;
#CDTITLE:;
#MUSIC:concon.ogg;
#OFFSET:-0.028000;
#SAMPLESTART:60.654999;
#SAMPLELENGTH:15.000000;
#SELECTABLE:YES;
#BPMS:0.000000=190.000000
;
#STOPS:
;
#BGCHANGES:;
#KEYSOUNDS:;
#ATTACKS:;

//---------------dance-single - ----------------
#NOTES:
     dance-single:
     :
     Easy:
     4:
     0.331024,0.382663,0.000000,0.018839,0.000000,244.000000,0.000000,2.000000,0.000000,0.000000,0.000000,0.331024,0.382663,0.000000,0.018839,0.000000,244.000000,0.000000,2.000000,0.000000,0.000000,0.000000:
0000
0000
0000
0000
,
0000
0000
0000
0000
,
0000
0000
0000
0000
,
0000
0000
0000
0000
,
1000
1000
0001
1000
,
0001
0001
1000
0001
,
0010
0100
1000
0100
,
0010
0001
0000
1000
,
0001
0001
0100
0100
,
0010
1000
0000
0001
,
0100
0100
0010
0010
,
1000
0001
0000
0010
,
0100
1000
0100
0010
,
0001
0100
0010
0100
,
0001
0000
1000
0000
,
0100
0010
0100
0000
,
1000
0000
1000
0000
,
0001
0000
0001
0000
,
1000
0000
1000
0000
,
0001
0000
0001
0000
,
0100
0010
1000
0010
,
0100
0000
0001
0000
,
1000
0100
0010
0100
,
1000
0000
0001
0000
,
1000
1000
0100
0100
,
0010
0010
0001
0001
,
1000
1000
0100
0100
,
0010
0010
0001
0001
,
1000
0000
0100
0000
,
0010
0000
0001
0000
,
1000
0100
0010
0001
,
0100
0000
0100
0000
,
0010
0010
1000
1000
,
0001
0000
0001
0000
,
0010
0010
0100
0100
,
1000
0000
1000
0000
,
0100
0010
0000
0010
,
0001
0100
0000
0100
,
0010
0100
0001
1000
,
0100
0010
0001
1000
,
0100
0000
1000
0000
,
0100
0010
0001
0100
,
0010
0000
0100
0000
,
0001
0010
0100
1000
,
0001
0000
1000
0000
,
0001
0000
1000
0000
,
0100
0010
0100
0010
,
0001
0001
0001
0000
,
1000
1000
0100
0100
,
0010
0001
1000
0000
,
0001
0001
0010
0010
,
0100
1000
0001
0000
,
1000
0000
0010
0000
,
0100
0001
1000
0000
,
0100
0010
0001
0010
,
0100
0000
1000
0000
,
0001
0100
0010
0100
,
0001
1000
0100
0000
,
0010
0100
1000
0001
,
0200
0000
0000
0300
,
0010
0000
0010
0000
,
0010
1000
0100
0010
,
0001
0100
0000
0100
,
0001
0000
1000
0000
,
0100
0010
0100
0010
,
0001
0000
1000
0000
,
0100
0010
0100
0010
,
0001
0000
1000
0000
,
0001
0010
1000
0010
,
0001
0100
1000
0100
,
0001
1000
0100
0001
,
0100
1000
0010
0000
,
0100
0001
1000
0100
,
0010
0000
0010
0000
,
0001
0100
1000
0100
,
0001
0000
0001
0000
,
1000
0100
0010
0001
,
1000
0100
0010
0001
,
0010
0100
1000
0001
,
0020
0000
0000
0030
,
1000
0000
0001
0100
0000
0010
0000
0100
,
0000
0001
1000
0000
0000
0000
0000
0000
;

//---------------dance-single - ----------------
#NOTES:
     dance-single:
     :
     Medium:
     7:
     0.515375,0.573994,0.000000,0.037678,0.009419,379.000000,0.000000,4.000000,0.000000,0.000000,0.000000,0.515375,0.573994,0.000000,0.037678,0.009419,379.000000,0.000000,4.000000,0.000000,0.000000,0.000000:
0000
0000
0000
0000
,
0000
0000
0000
0000
,
0000
0000
0000
0000
,
0000
0000
0000
0000
,
0000
1000
0000
0001
0010
0100
0000
1000
,
0000
0001
0000
0100
0010
1000
0000
0001
,
0000
1000
0000
0100
0010
0100
0000
1000
,
0100
1000
0000
0001
0000
0100
0000
0010
,
0100
0000
0001
1000
0000
0100
0000
0010
,
0000
0100
1000
0000
0001
0000
0100
0000
,
0001
0000
1000
0100
0000
0010
0000
0100
,
0000
1000
0001
0000
0100
0000
0010
0000
,
0000
1000
0100
0000
0010
0000
0100
0000
,
0000
1000
0010
0000
0100
0000
0010
0000
,
0000
1000
0100
0000
0010
0000
0001
0000
,
1000
0000
0010
0100
0000
0001
0100
0000
,
0010
0000
1000
0100
0000
0010
0000
0100
,
0000
1000
0001
1000
0000
0001
0000
0100
,
0010
0000
0100
0001
0000
0100
0001
1000
,
0100
0000
0010
0100
0000
1000
0100
0000
,
0010
0010
0001
0001
,
1000
0000
1000
0000
0010
0100
0010
0000
,
1000
1000
0001
0001
,
0010
0000
0010
0000
0100
1000
0100
0000
,
0010
0000
0001
0100
0000
0001
0000
1000
,
0000
0100
0010
0100
0000
1000
0000
0010
,
0100
0000
0001
0000
1000
0100
0010
0100
,
0000
1000
0001
0100
0000
0010
0100
0000
,
0001
1000
0001
1000
0000
0010
0000
0100
,
0000
0001
1000
0000
0100
0000
0100
0000
,
1000
0001
1000
0001
0000
0100
0000
0010
,
0100
0000
0100
0000
0001
1000
0000
1000
,
0100
0000
0000
0010
0010
0000
0001
0100
,
0010
0000
0000
0100
0100
0000
0010
1000
,
0100
0000
0000
0010
0010
0000
0001
0100
,
0010
0000
0000
1000
1000
0000
0100
0000
,
0010
0000
0100
1000
0000
0100
0010
0000
,
0100
1000
0000
0100
0010
0000
0001
0000
,
0100
0000
0010
0100
0000
0001
0100
0000
,
0010
0100
0000
0001
0100
0000
0010
1000
,
0001
0000
0000
0010
0010
0000
0100
1000
,
0001
0000
0000
0010
0010
0000
0001
1000
,
0010
0000
0000
0100
0100
0000
0001
1000
,
0010
0000
0000
0100
0100
0000
0001
0000
,
0010
0000
0100
1000
0000
0100
0010
0000
,
0100
1000
0000
0100
0010
0000
0001
0000
,
0100
0000
0010
0000
0100
0001
1000
0000
,
1000
0000
1000
0002
0000
2003
0000
3000
,
0001
0000
0010
0000
0001
0010
0000
0001
,
0010
0100
1000
0010
,
0100
0000
0010
0000
1000
0100
0000
1000
,
0100
0010
0001
0100
,
0010
0000
0100
0001
0000
1000
0000
0100
,
0000
0010
0100
0000
1000
0000
0010
0000
,
0100
0000
0001
0010
0000
1000
0010
0000
,
0001
0100
1000
0010
,
0001
1000
0100
0001
,
0100
1000
0000
0010
0000
1000
0000
0100
,
0010
0000
0100
1000
0000
0001
0000
0100
,
0010
0000
0000
1000
0000
0000
0001
0000
0000
1000
0000
0000
0010
0000
0100
0000
,
0001
0000
1000
0100
0000
0010
0000
0100
,
0000
1000
0001
1000
0000
0001
0000
0010
,
0100
1000
0001
0010
0000
0010
0001
1000
,
0200
0010
0010
0310
,
0001
1000
0100
0000
0010
0000
0100
0000
,
1000
0001
1000
0000
0001
0000
0100
0000
,
0010
1000
0001
0000
1000
0000
0010
0000
,
0100
0001
0100
0001
0000
1000
0100
0000
,
0010
0000
0001
0010
0000
1000
0010
0000
,
0001
0010
0000
1000
0010
0000
0001
0000
,
0100
0000
1000
0100
0000
0001
0010
0000
,
0100
1000
0001
0100
0010
1000
0100
0000
,
0010
0001
0010
0001
,
0100
0000
0010
1000
0000
1000
0100
0000
,
0010
0000
0100
0000
1000
0001
1000
0000
,
0100
0000
0010
0001
0000
0001
0100
0000
,
0010
0000
1000
0100
0000
0001
0100
0000
,
1000
0100
0000
0001
0100
0000
1000
0000
,
0010
0010
0100
0100
0001
0001
1000
0001
,
2000
0000
0000
3000
,
0001
0000
1000
0100
0000
0010
0000
0100
,
0000
1000
0001
0000
0000
0000
0000
0000
;

//---------------dance-single - ----------------
#NOTES:
     dance-single:
     :
     Hard:
     9:
     0.764316,0.918390,0.320259,0.122452,0.136581,521.000000,34.000000,13.000000,0.000000,0.000000,0.000000,0.764316,0.918390,0.320259,0.122452,0.136581,521.000000,34.000000,13.000000,0.000000,0.000000,0.000000:
0000
0000
0000
0000
,
0000
0000
0000
0000
,
0000
0000
0000
0000
,
0000
0000
0000
0000
,
0000
0000
0001
0100
0001
0000
1000
0000
0100
0000
0010
0000
0000
0000
1001
0000
,
0000
0001
0100
1000
0100
0001
0000
1001
,
0000
0000
1000
0100
1000
0000
0010
0000
0100
0000
0100
0000
0000
0000
0001
0100
,
0001
0010
0100
0100
0000
1000
0010
0100
,
0001
0010
0100
1000
0000
1100
0000
0101
,
0000
1000
1100
0001
0100
1000
0100
0001
,
1000
0010
0100
0001
0000
0101
0000
1100
,
0000
0001
0101
1000
0100
0001
0100
1000
,
0000
0000
0001
0010
0001
0000
1000
0000
0010
0000
0100
0000
0000
0000
1001
0000
,
0000
0001
0010
1000
0010
0001
0000
1001
,
0000
0000
1000
0010
1000
0000
0100
0000
0010
0000
0010
0000
0000
0000
0001
0010
,
0001
0100
0010
0010
0000
0000
0000
1000
,
0100
0000
0010
0100
0000
1000
0000
0010
,
0000
0100
0001
0100
0000
0001
0000
0010
,
0100
0000
1000
0100
0000
0001
0100
1000
,
0010
0000
0100
0001
0000
0010
0200
0000
,
0301
0100
1000
0010
0000
0100
0000
0110
,
0000
0010
1000
0001
0100
1000
0100
0001
,
1000
0100
0010
0001
0000
0100
0000
0110
,
0000
0010
1000
0001
0100
1000
0100
0001
,
1000
0000
0100
0010
0000
0001
0000
1000
,
0000
0010
0100
0010
0000
1000
0000
0001
,
0100
0000
1000
0000
0100
0001
0010
1000
,
0000
0010
0100
0001
0000
0100
2000
0000
,
3001
0100
0001
1000
0000
0010
0000
1010
,
0000
1000
0100
0010
0001
0100
1000
0100
,
0001
0010
1000
0001
0000
0100
0000
1000
,
0010
0001
0010
0100
0010
0001
0000
0010
,
2000
0000
0000
0001
3001
0000
0001
0010
,
0200
0000
0000
1000
1300
0100
0010
0001
,
0200
0000
0000
0010
0310
0000
1000
0100
,
0020
0000
0000
0001
0031
1000
0100
0010
,
0001
0100
1000
0100
0000
0001
1000
0100
,
0001
0100
0000
1000
0001
0100
1000
0100
,
0010
0001
0010
1000
0000
0001
0010
1000
,
0010
0001
0000
1000
0010
0001
0010
1000
,
0200
0000
0000
0010
0310
0000
0001
1000
,
0200
0000
0000
0010
0310
0001
1000
0010
,
0200
0000
0000
0010
0310
0000
1000
0001
,
0200
0000
0000
0010
0310
1000
0001
0010
,
0100
0001
0100
1000
0000
0001
0100
1000
,
0100
0001
0000
1000
0100
0001
0100
1000
,
0010
0000
0001
0000
0010
0000
1000
0000
0001
0000
0010
0000
0100
0000
1000
0001
,
1000
0001
1000
0001
1000
0000
0001
1000
0001
1000
0002
0000
0000
0000
1003
0000
,
0100
0000
0010
0001
0010
0000
0100
0000
0010
0001
0010
0000
0100
0000
1000
0000
,
0010
1010
0000
1100
0000
0101
0000
0011
,
0010
0000
0100
1000
0100
0000
0010
0000
0100
1000
0100
0000
0010
0000
0001
0000
,
0100
0101
0000
0011
0000
1010
0000
1000
,
0100
0000
0001
0100
0000
0110
0000
1001
,
0000
0001
0010
0100
0000
1000
0100
0001
,
0100
1000
0000
0010
0000
0100
0001
1000
,
1000
0100
0100
0010
0001
0010
0100
1000
,
0010
0000
0100
0001
0100
0000
0010
0000
0100
0001
0100
0000
0010
0000
1000
0000
,
0100
1100
0000
1010
0000
0011
0000
0101
,
0100
0000
0010
1000
0010
0000
0100
0000
0010
1000
0010
0000
0100
0000
0001
0000
,
0011
0000
0000
1010
0000
0000
1100
0000
0000
0101
0000
0000
0001
0000
1000
0000
,
0100
0000
0010
0001
0000
0110
0000
1001
,
0000
0001
0100
0010
0000
1000
0010
0001
,
0010
1000
0100
0010
0000
0010
0001
0100
,
0010
0100
0100
0010
1000
0001
0010
0010
,
0100
0000
1000
0000
0001
0000
1000
0000
0100
0000
0010
0001
0000
0000
1000
0000
,
0010
0000
0100
0000
0001
0000
1000
0100
0000
0000
1000
0000
0010
0000
0100
0000
,
0001
0000
0010
0000
0100
0000
0010
0000
0001
0000
1000
0010
0000
0000
0100
0000
,
0001
0000
1000
0000
0100
0000
0010
0100
0000
0000
1000
0000
0100
0000
0010
0000
,
0001
0100
0100
1000
0010
0010
0001
0100
,
0100
0010
0100
0100
1000
0100
0010
1000
,
0100
0010
0010
1000
0010
0010
0001
0100
,
1000
0100
0001
0010
1000
0010
0001
0001
,
0100
0000
0001
0000
1000
0000
0001
0000
0100
0000
0010
1000
0000
0000
0001
0000
,
0010
0000
0100
0000
1000
0000
0001
0100
0000
0000
0001
0000
0010
0000
0100
0000
,
1000
0000
0010
0000
0100
0000
0010
0000
1000
0000
0001
0010
0000
0000
0100
0000
,
1000
0000
0001
0000
0100
0000
0010
0100
0000
0000
0001
0000
0100
0000
0010
0000
,
1000
0100
0100
0001
0010
0010
1000
0100
,
0100
0010
0100
0100
0001
0100
0010
0001
,
0100
0100
0010
0010
1000
1000
0001
0001
,
0220
0000
0000
0330
,
1000
0100
0001
0100
0000
1000
0000
0010
,
0000
0100
1001
0000
0000
0000
0000
0000
;

//---------------dance-double - ----------------
#NOTES:
     dance-double:
     :
     Hard:
     9:
     0.730675,0.841858,0.207227,0.150710,0.065936,505.000000,22.000000,16.000000,0.000000,0.000000,0.000000,0.730675,0.841858,0.207227,0.150710,0.065936,505.000000,22.000000,16.000000,0.000000,0.000000,0.000000:
// measure 0
00000000
00000000
00000000
00000000
,  // measure 1
00000000
00000000
00000000
00000000
,  // measure 2
00000000
00000000
00000000
00000000
,  // measure 3
00000000
00000000
00000000
00000000
,  // measure 4
00000000
00010000
01000000
10000000
01000000
00010000
00000000
00001000
,  // measure 5
00000000
00001000
00000100
00000001
00000100
00001000
00000000
00010000
,  // measure 6
00000000
00010000
01000000
10000000
00010000
00100000
00000000
00001000
,  // measure 7
00000100
00000001
00001000
00000010
00000000
00010000
01000000
00100000
,  // measure 8
00001000
00011000
00010000
00011000
00000000
01010000
00000000
11000000
,  // measure 9
00000000
01000000
00100000
00001000
00000100
00000010
00000100
00001000
,  // measure 10
00010000
00011000
00001000
00011000
00000000
00001100
00000000
00000101
,  // measure 11
00000000
00000100
00000010
00010000
01000000
00100000
01000000
00010000
,  // measure 12
00000000
00001000
00000100
00000001
00000100
00001000
00000000
00010000
,  // measure 13
00000000
00010000
01000000
10000000
01000000
00010000
00000000
00001000
,  // measure 14
00000000
00001000
00000100
00000001
00001000
00000010
00000000
00010000
,  // measure 15
01000000
10000000
00010000
00100000
00000000
00001000
00000100
00000010
,  // measure 16
00010000
00000000
01000000
10000000
00000000
00100000
00000000
01000000
,  // measure 17
00000000
00001000
00010000
00000100
00000000
00000010
00000000
00000001
,  // measure 18
00000100
00000000
00000010
00010000
00000000
00001000
00100000
01000000
,  // measure 19
10000000
00000000
01000000
00010000
00000000
00001000
00000200
00000000
,  // measure 20
00000301
00000010
00001000
00000010
00000000
00000001
00000000
00000100
,  // measure 21
00000000
00001000
00010000
00100000
10000000
01000000
00010000
01000000
,  // measure 22
10000000
00100000
00010000
00100000
00000000
10000000
00000000
01000000
,  // measure 23
00000000
00010000
00001000
00000010
00000001
00000100
00001000
00000100
,  // measure 24
00000001
00000001
00000010
00000010
,  // measure 25
00001000
00001000
00010000
00010000
,  // measure 26
00100000
00100000
10000000
10000000
,  // measure 27
01000000
01000000
00010000
00010000
,  // measure 28
00010000
01000000
10000000
01000000
00000000
00010000
00000000
00001000
,  // measure 29
00000000
00000100
00000001
00000010
00000100
00001000
00000100
00000010
,  // measure 30
00000001
00000100
00001000
00000100
00000000
00000010
00000000
00010000
,  // measure 31
00001000
00000000
00001000
00000000
00001000
01000000
00000000
01000000
,  // measure 32
00200000
00000000
00000000
10000000
10300000
00000000
01000000
00010000
,  // measure 33
00002000
00000000
00000000
00010000
00013000
00001000
00000100
00000010
,  // measure 34
00002000
00000000
00000000
00000100
00003100
00000000
00000010
00000001
,  // measure 35
00002000
00000000
00000000
00000100
00003100
00000010
00000001
00000100
,  // measure 36
00001000
00000001
00000010
00001000
00000000
00000100
00000001
00001000
,  // measure 37
00000010
00000001
00000000
00000100
00001000
00000001
00000010
00001000
,  // measure 38
00010000
01000000
10000000
00010000
00000000
00100000
10000000
00010000
,  // measure 39
00100000
10000000
00000000
00010000
01000000
10000000
00100000
01000000
,  // measure 40
00002000
00000000
00000000
00010000
00013000
00000000
00000100
00000010
,  // measure 41
00002000
00000000
00000000
00010000
00013000
01000000
10000000
00100000
,  // measure 42
00020000
00000000
00000000
00001000
00031000
00000000
01000000
00100000
,  // measure 43
00020000
00000000
00000000
00001000
00031000
00010000
01000000
10000000
,  // measure 44
00010000
01000000
10000000
01000000
00000000
00001000
00000100
00000001
,  // measure 45
00000100
00001000
00000000
00010000
01000000
10000000
01000000
00010000
,  // measure 46
00001000
00000010
00000001
00000100
00000010
00010000
00002000
00010000
,  // measure 47
00010000
00010000
00013000
00002000
00010000
00013000
00000000
00001000
,  // measure 48
01000000
00000000
00100000
10000000
00100000
00000000
01000000
00000000
00100000
10000000
00100000
00000000
01000000
00000000
00001000
00000000
,  // measure 49
00010000
00000100
00000000
00000110
00000000
00000011
00000000
00000101
,  // measure 50
00000100
00000000
00000010
00001000
00000010
00000000
00000100
00000000
00000010
00001000
00000010
00000000
00000100
00000000
00000001
00000000
,  // measure 51
00000010
00000100
00000000
00010100
00000000
00011000
00000000
01001000
,  // measure 52
01000000
00000000
00100000
10000000
00000000
01000000
00000000
00010000
,  // measure 53
00000000
00001000
00000100
00000001
00000000
00000100
00001000
00010000
,  // measure 54
01000000
10000000
00000000
00100000
00000000
00010000
00001000
00000010
,  // measure 55
00000001
00000020
00001030
00000020
00000031
00000020
00000130
00001000
,  // measure 56
00000100
00000000
00000010
00000001
00000010
00000000
00000100
00000000
00000010
00000001
00000010
00000000
00000100
00000000
00010000
00000000
,  // measure 57
00001000
01000000
00000000
01100000
00000000
10100000
00000000
11000000
,  // measure 58
01000000
00000000
00100000
00010000
00100000
00000000
01000000
00000000
00100000
00010000
00100000
00000000
01000000
00000000
10000000
00000000
,  // measure 59
10100000
00000000
00000000
01100000
00000000
00000000
01001000
00000000
00000000
00011000
00000000
00000000
00001000
00000000
00010000
00000000
,  // measure 60
00000100
00000000
00000010
00000001
00000000
00000100
00000000
00001000
,  // measure 61
00000000
00010000
01000000
10000000
00000000
01000000
00010000
00001000
,  // measure 62
00000100
00000001
00000010
00001000
00000000
00010000
01000000
10000000
,  // measure 63
00100000
00010000
00100000
01000000
00100000
00010000
00100000
10000000
,  // measure 64
01000000
00100000
01000000
10000000
01000000
00100000
01000000
00010000
,  // measure 65
00001000
00000000
00000100
00000000
00000010
00000000
00001000
00000001
00000000
00000000
00000010
00000000
00000100
00000000
00001000
00000000
,  // measure 66
00000100
00000010
00000100
00000001
00000100
00000010
00000100
00010000
,  // measure 67
00001000
00000000
01000000
00000000
00100000
00000000
10000000
01000000
00000000
00000000
10000000
00000000
00100000
00000000
01000000
00000000
,  // measure 68
00010000
01000000
01000000
10000000
01000000
01000000
00001000
00010000
,  // measure 69
00010000
00100000
00001000
00001000
00000100
00000010
00000001
00000100
,  // measure 70
00001000
00010000
00010000
00100000
01000000
01000000
00010000
00100000
,  // measure 71
00010000
00001000
00000100
00000010
00000001
00000200
00000010
00000310
,  // measure 72
00000100
00000010
00000100
00000001
00000100
00000010
00000100
00001000
,  // measure 73
00010000
00000000
01000000
00000000
00100000
00000000
00010000
10000000
00000000
00000000
00100000
00000000
01000000
00000000
00010000
00000000
,  // measure 74
01000000
00100000
01000000
10000000
01000000
00100000
01000000
00001000
,  // measure 75
00010000
00000000
00000100
00000000
00000010
00000000
00000001
00000100
00000000
00000000
00000001
00000000
00000010
00000000
00000100
00000000
,  // measure 76
00001000
00000100
00000100
00000001
00000100
00000100
00010000
00001000
,  // measure 77
00001000
00000010
00010000
00010000
01000000
00100000
10000000
01000000
,  // measure 78
00010000
00010000
00001000
00001000
00000100
00000100
00010000
00010000
,  // measure 79
02000000
00000000
00000000
03000000
,  // measure 80
00100000
10000000
01000000
00010000
00000000
00001000
00000000
00000001
,  // measure 81
00000000
00001000
00011000
00000000
00000000
00000000
00000000
00000000
;

//---------------dance-double - ----------------
#NOTES:
     dance-double:
     :
     Medium:
     7:
     0.504610,0.612260,0.000000,0.037678,0.009419,371.000000,0.000000,4.000000,0.000000,0.000000,0.000000,0.504610,0.612260,0.000000,0.037678,0.009419,371.000000,0.000000,4.000000,0.000000,0.000000,0.000000:
00000000
00000000
00000000
00000000
,
00000000
00000000
00000000
00000000
,
00000000
00000000
00000000
00000000
,
00000000
00000000
00000000
00000000
,
00000000
00001000
01000000
00000000
00010000
00000000
00100000
00000000
,
01000000
10000000
01000000
00000000
00100000
00000000
00001000
00000000
,
00010000
00000100
00001000
00000000
00000010
00000000
00000100
00000001
,
00001000
00000100
00000010
00000001
,
00000100
00000010
00000100
00000010
00000000
00010000
00000000
00001000
,
00000000
01000000
00100000
00000000
10000000
00010000
00100000
00000000
,
01000000
00100000
01000000
00100000
00000000
00010000
00000000
00001000
,
00000000
00000100
00000010
00000000
00000001
00001000
00000010
00000000
,
00000000
00010000
00000100
00000000
00001000
00000000
00000010
00000000
,
00000100
00000001
00000100
00000000
00000010
00000000
00010000
00000000
,
00001000
01000000
00010000
00000000
00100000
00000000
01000000
10000000
,
00010000
01000000
00100000
10000000
,
00010000
00000000
00100000
00001000
00000000
00010000
00000000
00000100
,
00000000
00001000
00000001
00001000
00000000
00000001
00000000
00000100
,
00000010
00000000
00000100
00000001
00000000
00001000
00000001
00001000
,
00000100
00000000
00010000
00001000
00000000
00001000
01000000
00000000
,
00100000
10000000
01000000
00100000
,
00001000
00010000
00000100
00000100
,
00010000
00001000
00100000
01000000
,
00010000
00001000
00000100
00000100
,
00000010
00001000
00000100
00010000
,
00001000
00000000
01000000
00000000
00010000
10000000
00010000
00000000
,
00100000
00001000
00010000
00000100
,
00001000
00000000
00000010
00000000
00000100
00000001
00000100
00000000
,
00000010
00010000
00001000
01000000
,
00010000
00100000
01000000
01000000
,
00200000
00000000
00000000
00000000
,
01300000
00000000
01000000
00000000
,
10000000
00000000
01000000
00010000
,
00001000
00000000
00000100
00000001
,
00000010
00000000
00000100
00010000
,
00001000
00000000
01000000
00010000
,
10000000
01000000
10000000
01000000
00000000
00000000
00100000
00001000
,
00100000
00001000
00000000
00000000
00010000
00000100
00010000
00000000
,
00000100
00001000
00000100
00001000
00000000
00000000
00000001
00000010
,
00000001
00000010
00000000
00000000
00000100
00010000
00000100
00000000
,
00010000
00000000
00001000
01000000
,
00100000
00000000
10000000
01000000
,
00100000
00000000
00001000
00010000
,
00000100
00000000
00001000
00000010
,
00000100
00000001
00000100
00000001
00000000
00000000
00001000
00000010
,
00001000
00000010
00000000
00000000
00010000
00001000
00010000
00000000
,
00001000
00000000
01000000
00000000
00100000
10000000
00010000
00000000
,
10000000
00010000
10000000
00000000
00010000
20000000
00000000
30000000
,
00010000
01000000
00010000
00000000
00100000
00001000
00000000
00010000
,
00000100
00010000
00000000
00000010
00000000
00000100
00000100
00000000
,
00000001
00000010
00000001
00000000
00001000
00000100
00000000
00010000
,
00001000
00010000
00000000
01000000
00000000
00100000
00100000
00000000
,
00010000
00000000
01000000
00100000
00000000
10000000
00000000
01000000
,
00000000
00100000
00001000
00010000
00000000
00001000
00010000
00000000
,
00000100
00001000
00000000
00000010
00000000
00000100
00000001
00001000
,
00000100
00000000
00010000
00000000
00001000
01000000
00001000
01000000
,
00100000
10000000
00100000
00000000
01000000
00001000
00000000
00010000
,
00000100
00010000
00000000
00000100
00000000
00000010
00000000
00000001
,
00000100
00000000
00000010
00002000
00000000
00000000
00003000
00000100
,
00010000
00000000
00000000
00001000
00000000
00000000
00100000
00000000
00000000
00001000
00000000
00000000
00000100
00000000
00000010
00000000
,
00001000
00000000
00010000
01000000
00000000
00100000
00000000
10000000
,
00000000
00010000
00100000
00010000
00000000
10000000
01000000
00100000
,
00001000
00010000
00001000
00010000
00000000
00000100
00000010
00000100
,
00000010
00000001
00000100
00000000
00000010
00010000
00001000
00000000
,
00010000
00010000
01000000
01000000
,
00100000
00000000
00100000
00000000
00001000
00010000
00001000
00000000
,
01000000
01000000
00100000
00100000
,
00010000
00000000
00010000
00000000
00001000
00010000
00001000
00000000
,
00000100
00000000
00000010
00001000
00000000
00000100
00010000
00000000
,
00001000
00100000
00000000
00010000
01000000
00000000
00100000
00000000
,
10000000
00000000
01000000
00100000
00000000
00001000
00100000
00000000
,
00001000
00010000
00000100
00000000
00001000
00000010
00000100
00000000
,
00000001
00001000
00000001
00000000
00001000
00000000
00000100
00000000
,
00010000
00001000
01000000
00010000
00000000
00010000
01000000
00000000
,
00100000
10000000
00100000
00000000
01000000
00000000
00010000
00000000
,
00100000
00001000
00010000
00000100
00000000
00000100
00001000
00000000
,
00000010
00000000
00000100
00000001
00000000
00000100
00001000
00000000
,
00000100
00000010
00000000
00010000
00001000
00000000
01000000
00010000
,
00100000
01000000
00100000
01000000
00100000
01000000
00100000
01000000
,
00200000
00000000
00000000
00000000
00000000
00000000
00000000
00300000
,
00010000
01000000
00010000
01000000
00000000
00001000
00000000
00010000
,
00000000
00000100
00001000
00000000
00000000
00000000
00000000
00000000
;

//---------------dance-double - ----------------
#NOTES:
     dance-double:
     :
     Easy:
     4:
     0.298729,0.382663,0.000000,0.028258,0.000000,219.000000,0.000000,3.000000,0.000000,0.000000,0.000000,0.298729,0.382663,0.000000,0.028258,0.000000,219.000000,0.000000,3.000000,0.000000,0.000000,0.000000:
00000000
00000000
00000000
00000000
,
00000000
00000000
00000000
00000000
,
00000000
00000000
00000000
00000000
,
00000000
00000000
00000000
00000000
,
10000000
00010000
01000000
00000000
,
00001000
00010000
00000100
00000000
,
00001000
00000000
00000010
00000000
,
00000100
00000001
00000010
00000000
,
00000100
00000000
00001000
00000100
00000000
00000100
00000000
00000100
,
00000000
00000100
00000000
00000000
00010000
00000000
00001000
00000000
,
01000000
00000000
00010000
10000000
00000000
10000000
00000000
10000000
,
00000000
10000000
00000000
00000000
01000000
00000000
00100000
00000000
,
00001000
00010000
00000100
00000000
,
00001000
00000010
00000100
00000000
,
00000001
00000100
00001000
00000000
,
00010000
00001000
00010000
00000000
,
02000000
00000000
00000000
00000000
,
00000000
00000000
00000000
00000000
,
00000000
00000000
00000000
00000000
,
00000000
00000000
00000000
03000000
,
10000000
00010000
00000000
00010000
,
00000000
00010000
01000000
00001000
,
00010000
00000100
00000000
00000100
,
00000000
00000100
00000000
00000100
,
00001000
00000100
00001000
00000000
,
00000001
00000100
00000001
00000000
,
00000100
00001000
00000100
00000000
,
00001000
00010000
00001000
00000000
,
00010000
01000000
00000000
01000000
,
00000000
01000000
10000000
00100000
,
01000000
00010000
00000000
00010000
,
00100000
00001000
00010000
00000000
,
00000100
00000000
00001000
00000010
,
00000100
00000000
00000001
00000010
,
00000100
00000000
00010000
00001000
,
01000000
00000000
00010000
00100000
,
01000000
00000000
10000000
00000000
,
01000000
00000000
00100000
00001000
,
00010000
00000000
00000100
00000000
,
00001000
00000000
00000010
00000100
,
00000001
00000000
00001000
00000100
,
00010000
00000000
00001000
01000000
,
00010000
00000000
01000000
00100000
,
10000000
00000000
00010000
00100000
,
01000000
00000000
00100000
00000000
,
00001000
00000000
00010000
00000000
,
00000100
00001000
00000010
00000100
,
00000000
00000000
00000010
00000000
00000000
00000010
00000000
00000000
,
00001000
00000100
00010000
00000000
,
00001000
01000000
00010000
00010000
,
10000000
01000000
00100000
00000000
,
00001000
00010000
00000100
00001000
,
00000010
00000000
00000100
00000000
,
00000001
00000010
00000100
00000000
,
00010000
00001000
00010000
01000000
,
00100000
00100000
00001000
00001000
,
00010000
00001000
00000100
00000000
,
00000010
00001000
00000010
00000100
,
00001000
00000000
00010000
00000000
,
01000000
10000000
00010000
01000000
,
00100000
00000000
01000000
00000000
,
00010000
00100000
00001000
00000000
,
00010000
00000010
00001000
00000100
,
00000020
00000000
00000030
00000000
,
00000001
00000000
00000100
00000000
,
00000001
00000100
00000010
00000000
,
00001000
00000000
00000100
00000000
,
00001000
00000100
00010000
00000000
,
00001000
01000000
00001000
01000000
,
00010000
01000000
00010000
01000000
,
00100000
00000000
10000000
00000000
,
01000000
00100000
00001000
00000000
,
00010000
00000000
00000100
00000000
,
00001000
00000010
00000100
00000000
,
00000001
00000000
00000100
00000000
,
00000010
00010000
00001000
00000000
,
01000000
00010000
00100000
01000000
,
10000000
01000000
00100000
00001000
,
00010000
00010000
00000100
00000100
,
00002000
00000000
00003000
00000000
,
00000001
00000000
00000000
00000100
00000000
00000000
00000000
00000010
,
00000000
00001000
00000000
00000000
;

//---------------dance-single - ----------------
#NOTES:
     dance-single:
     :
     Beginner:
     2:
     0.126489,0.191331,0.000000,0.009419,0.000000,93.000000,0.000000,1.000000,0.000000,0.000000,0.000000,0.126489,0.191331,0.000000,0.009419,0.000000,93.000000,0.000000,1.000000,0.000000,0.000000,0.000000:
0000
0000
0000
0000
,
0000
0000
0000
0000
,
0000
0000
0000
0000
,
0000
0000
0000
0000
,
0001
0000
0000
0000
,
0001
0000
0000
0000
,
1000
0000
0000
0000
,
1000
0000
0000
0000
,
0010
0000
0010
0000
,
0010
0000
0000
0000
,
0010
0000
0010
0000
,
0010
0000
0000
0000
,
1000
0000
0000
0000
,
1000
0000
0000
0000
,
0001
0000
0000
0000
,
0001
0000
0000
0000
,
0010
0000
0000
0000
,
0000
0000
0000
0000
,
0000
0000
0000
0000
,
0000
0000
0000
0000
,
0001
0000
0000
0000
,
0001
0000
0000
0000
,
1000
0000
0000
0000
,
1000
0000
0000
0000
,
0010
0000
0010
0000
,
0010
0000
0000
0000
,
0010
0000
0010
0000
,
0010
0000
0000
0000
,
1000
0000
0000
0000
,
1000
0000
0000
0000
,
0001
0000
0000
0000
,
0001
0000
0000
0000
,
0010
0000
0010
0000
,
0010
0000
0000
0000
,
0001
0000
0001
0000
,
0001
0000
0000
0000
,
1000
0000
0000
0000
,
1000
0000
0000
0000
,
0010
0000
0000
0000
,
0010
0000
0000
0000
,
1000
0000
1000
0000
,
1000
0000
0000
0000
,
0001
0000
0001
0000
,
0001
0000
0000
0000
,
0010
0000
0000
0000
,
0010
0000
0000
0000
,
0001
0000
0000
1000
,
0000
0000
0000
0000
,
0001
0000
0001
0000
,
0001
0000
0000
0000
,
1000
0000
1000
0000
,
1000
0000
0000
0000
,
0010
0000
0000
0000
,
0010
0000
0000
0000
,
0010
0000
0010
0000
,
0010
0000
0000
0000
,
1000
0000
1000
0000
,
1000
0000
0000
0000
,
0001
0000
0001
0000
,
0002
0000
0003
0000
,
0010
0000
0000
0000
,
0010
0000
0000
0000
,
0010
0000
0010
0000
,
0010
0000
0000
0000
,
0001
0000
0000
0000
,
1000
0000
0000
0000
,
0010
0000
0000
0000
,
1000
0000
0000
0000
,
0001
0000
0001
0000
,
0001
0000
0000
0000
,
0010
0000
0010
0000
,
0010
0000
0000
0000
,
0001
0000
0000
0000
,
1000
0000
0000
0000
,
0010
0000
0000
0000
,
1000
0000
0000
0000
,
0001
0000
0001
0000
,
0001
0000
0000
0000
,
1000
0000
1000
0000
,
1000
0000
0000
0000
,
0010
0000
0000
0000
,
0000
0010
0000
0000
;
