#VERSION:0.83;
#TITLE:butterfly (DELACTION REMIX);
#SUBTITLE:;
#ARTIST:SMiLE.dk;
#TITLETRANSLIT:;
#SUBTITLETRANSLIT:;
#ARTISTTRANSLIT:;
#GENRE:EURODANCE;
#ORIGIN:;
#CREDIT:;
#BANNER:butterfly (DELACTION REMIX).png;
#BACKGROUND:butterfly (DELACTION REMIX)-bg.png;
#PREVIEWVID:;
#JACKET:butterfly (DELACTION REMIX)-jacket.png;
#CDIMAGE:;
#DISCIMAGE:;
#LYRICSPATH:;
#CDTITLE:;
#MUSIC:butterfly (DELACTION REMIX).ogg;
#OFFSET:-1.745969;
#SAMPLESTART:85.659912;
#SAMPLELENGTH:13.500002;
#SELECTABLE:YES;
#BPMS:0.000=143.000;
#STOPS:;
#DELAYS:;
#WARPS:;
#TIMESIGNATURES:0.000=4=4;
#TICKCOUNTS:0.000=4;
#COMBOS:0.000=1;
#SPEEDS:0.000=1.000=0.000=0;
#SCROLLS:0.000=1.000;
#FAKES:;
#LABELS:0.000=Song Start;
#BGCHANGES:;
#KEYSOUNDS:;
#ATTACKS:
;

//---------------dance-single - ----------------
#NOTEDATA:;
#CHARTNAME:;
#STEPSTYPE:dance-single;
#DESCRIPTION:;
#CHARTSTYLE:;
#DIFFICULTY:Hard;
#METER:8;
#RADARVALUES:0.603691,0.595558,0.259785,0.294423,0.285764,488.000000,458.000000,30.000000,34.000000,0.000000,0.000000,0.000000,0.000000,0.000000,0.603691,0.595558,0.259785,0.294423,0.285764,488.000000,458.000000,30.000000,34.000000,0.000000,0.000000,0.000000,0.000000,0.000000;
#CREDIT:;
#NOTES:
0000
0000
0000
0000
,
0000
0000
0000
0000
,
0000
0000
0000
0000
,
0000
0000
0000
0000
,
1000
0000
0000
1000
0010
0000
0000
0010
0100
0000
0000
0100
0001
0000
0000
0001
,
1000
0000
0000
1000
0100
0000
0000
0100
1000
0001
1000
0001
1000
0000
0000
0000
,
0001
0000
0001
0000
0001
0000
0001
0000
1000
0100
1000
0100
1000
0000
0010
0000
,
0100
0010
1000
0001
2000
0000
3000
0000
,
1000
0000
0000
0000
0001
0000
0000
0000
0200
0000
0000
0310
1000
0000
0100
0000
,
0010
0001
0010
0000
0001
0000
0100
0000
1000
0000
0000
0000
0100
0000
0001
0000
,
1000
0000
0000
0000
0100
0000
0000
0000
0020
0000
0000
0031
0100
0000
0001
0000
,
0010
0100
0010
0000
0001
0000
1000
0000
0200
0000
0000
0000
1300
0000
0000
0000
,
1100
0000
0000
0000
0110
0000
0000
0000
0012
0000
0000
1003
0100
0000
0010
0000
,
0100
1000
0100
0000
1000
0000
0001
0000
0100
0000
0000
0000
0001
0000
0010
0000
,
0011
0000
0000
0000
1001
0000
0000
0000
1020
0000
0000
1030
0100
0000
0010
0000
,
0001
0100
0001
0000
0010
0000
0100
0000
2000
0000
0000
0000
3000
0000
0000
0000
,
0001
0000
0000
0000
0100
0000
0000
0000
0020
0000
0000
1030
0100
0000
1000
0000
,
0001
0100
1000
0100
0001
0100
1000
0100
,
0001
0000
0000
0000
0100
0000
0000
0000
0020
0000
0000
1030
0100
0000
1000
0000
,
0001
0010
1000
0010
0001
0010
1000
0010
,
0002
0000
0000
1003
0100
0000
1000
0000
0020
0000
0000
0130
1000
0000
0100
0000
,
0002
0000
0000
1003
0100
0000
1000
0000
0020
0000
0000
0130
1000
0000
0100
0000
,
0002
0000
0000
1003
0200
0000
0000
1300
0020
0000
0000
0130
2000
0000
0000
3100
,
0001
0000
0010
0000
0001
0000
0010
0000
0100
1000
0100
1000
0100
1000
0100
1000
,
0001
0100
0010
1000
0002
0000
1003
0000
,
1000
0001
0000
0000
0001
1000
0000
0000
1000
0001
0000
0000
1002
0000
0000
0000
,
1003
0100
1000
0001
1000
0001
0010
0100
,
1000
0001
0100
0010
1000
0001
1001
0000
,
0001
0010
0001
1000
0001
1000
0100
0010
,
0001
0000
1000
0000
0010
0000
0100
0000
0001
0000
0000
0001
1000
0000
0010
0000
,
1000
0100
0010
0100
1000
0010
0100
0010
,
1000
0001
0100
0010
1000
0100
0120
0000
,
0031
0010
0100
0010
0001
0100
0010
0100
,
0001
0100
0010
1000
0001
0010
0210
0000
,
0301
0000
0000
0001
0100
0000
0000
0100
1000
0000
0000
1000
0001
0000
0000
0001
,
0010
0000
0000
0010
1000
0000
0000
1000
0010
0000
0000
0010
0001
0000
0000
0001
,
0100
0000
0000
0100
0010
0000
0000
0010
1000
0000
0000
1000
0100
0000
0000
0100
,
0010
0000
0000
0000
1001
0000
0000
0001
0100
0000
0000
0010
0100
0000
0010
0000
,
1000
0100
0001
1000
0010
0001
0100
0010
,
1000
0010
0100
0001
0100
0010
1000
0001
,
0010
0001
0100
0010
1000
0100
1000
0001
,
1001
0000
0001
0000
0100
0000
0010
0000
1000
0001
1000
0000
0001
0000
0100
0000
,
1000
0000
0000
0100
0001
0000
0010
0000
0100
0000
0000
0000
1002
0000
0000
0000
,
0013
0000
0000
0001
0100
0000
0010
0000
1000
0000
0000
0000
0120
0000
0000
0000
,
1030
0100
0001
1000
0010
0001
1000
0100
,
0010
0001
0010
0100
1000
1001
1002
0000
,
1003
0000
0000
0010
0100
0000
0001
0000
0010
0000
0000
0000
0201
0000
0301
0000
,
1000
0000
0000
0100
1000
0000
0001
0000
0100
0000
0000
0000
0210
0000
0000
0000
,
0301
0010
1000
0001
0100
1000
0001
0010
,
0100
1000
0100
0010
0011
0001
2001
0000
,
3001
0010
0001
0100
0010
1000
0010
0100
,
0001
0010
0100
0010
0001
0100
1000
0100
,
0010
1000
0100
1000
0001
0100
0010
0100
,
0001
1000
0100
0010
0100
1000
0100
0001
,
0100
0010
0001
0100
0010
1000
0100
0010
,
0001
0010
0100
1000
0010
0100
0001
1000
,
0100
0001
0100
0001
0100
1000
0100
1000
,
0010
1000
0000
0000
1000
0100
0000
0000
0100
0010
0000
0000
0002
0000
0000
0000
,
1003
0000
0000
0000
1100
0000
0000
0000
2010
0000
0000
3010
0100
0000
0001
0000
,
0010
0100
0010
0000
0001
0000
1000
0000
0100
0000
0000
0000
0101
0000
0100
0000
,
1000
0000
0000
0000
1010
0000
0000
0000
0120
0000
0000
0130
0001
0000
1000
0000
,
0100
0010
0100
0000
1000
0000
0010
0000
0200
0000
0000
0000
0301
0000
0000
0000
,
0011
0000
0000
0000
1100
0000
0000
0000
1002
0000
0000
0103
0010
0000
1000
0000
,
0001
0010
0001
0000
1000
0000
0001
0000
0100
0000
0000
0000
0110
0000
0010
0000
,
1010
0000
0000
0000
1000
0000
0000
0000
0002
0000
0000
1003
0010
0000
2000
0000
,
3010
0100
0010
0000
1000
0000
0001
0000
0100
0000
0000
0000
0000
0000
0000
0000
;

//---------------dance-single - ----------------
#NOTEDATA:;
#CHARTNAME:;
#STEPSTYPE:dance-single;
#DESCRIPTION:;
#CHARTSTYLE:;
#DIFFICULTY:Medium;
#METER:5;
#RADARVALUES:0.416893,0.510478,0.199169,0.346380,0.000000,337.000000,314.000000,23.000000,40.000000,0.000000,0.000000,0.000000,0.000000,0.000000,0.416893,0.510478,0.199169,0.346380,0.000000,337.000000,314.000000,23.000000,40.000000,0.000000,0.000000,0.000000,0.000000,0.000000;
#CREDIT:;
#NOTES:
0000
0000
0000
0000
,
0000
0000
0000
0000
,
0000
0000
0000
0000
,
0000
0000
0000
0000
,
1000
0100
0001
0010
,
0001
0000
0100
0000
1000
0100
1000
0000
,
0001
1000
0001
1000
0001
1000
0001
1000
,
0200
0000
0000
0300
,
1000
0001
0100
0010
,
1000
0100
1000
0100
2000
0000
3000
0000
,
0010
0100
0001
1000
,
0001
0100
0001
0100
0002
0000
0003
0000
,
1000
0100
0010
0001
,
1000
0010
1000
0010
2000
0000
3000
0000
,
0001
0010
0100
1000
,
0001
0010
0001
0010
0002
0000
0003
0000
,
0001
1000
0001
1000
0002
0000
0103
0000
,
0020
2030
3200
0320
,
0031
1000
0001
1000
0002
0000
0103
0000
,
0002
0023
0032
0203
,
0301
1000
0001
1000
0001
0010
0200
0000
,
1300
0001
1000
0001
1000
0100
0020
0000
,
0130
0010
0100
0010
0100
0010
0100
0010
,
0001
1000
0001
1000
0001
1000
0001
1000
,
2002
0000
3003
0000
,
1100
0101
1100
1001
,
0120
0000
2030
0000
3002
0000
0013
0100
,
1000
1010
0202
0303
,
0001
0000
0010
0000
1000
0100
0001
0000
,
0010
0001
0100
0010
,
0120
0000
2030
0000
3002
0000
1003
0100
,
0010
0011
2200
3300
,
1000
0000
0010
0000
0001
0100
1000
0000
,
0010
0000
1000
0000
0100
0000
1000
0001
,
1000
0000
0100
0010
0001
0010
0001
0000
,
0100
0000
0010
1000
0100
1000
0100
0000
,
1000
0000
0001
0100
0010
0100
0010
0000
,
1000
1100
0001
0101
,
1001
0000
0001
1000
0100
1000
0100
0000
,
0010
0000
0001
0100
0010
0100
0010
0000
,
1000
0000
0001
0010
0100
0010
0100
0000
,
1000
0001
0100
0010
2000
0000
3000
0000
,
1001
0000
0001
1000
0100
0000
0110
0000
,
0010
0000
0100
1000
0001
0000
1001
0000
,
0001
0100
1000
0100
,
0001
0010
0100
1000
0002
0000
0003
0000
,
0011
0000
0001
0100
0010
0000
0110
0000
,
1010
0000
1000
0100
0010
0000
0110
0000
,
0001
0010
1000
0010
,
0001
0100
0010
1000
0200
0000
0300
0000
,
1000
0010
1000
0010
2000
0000
3010
1000
,
0001
0010
0001
0010
0002
0000
0103
0000
,
0010
0000
1000
0100
0010
0000
0010
0100
,
1000
0000
1000
0001
1000
0000
1001
0000
,
0001
0100
0001
0100
0002
0000
0103
0001
,
1000
0100
1000
0100
2000
0000
3010
0000
,
0100
0000
0001
0010
0100
0000
0100
0010
,
0001
0000
0001
1000
0001
0000
1002
0000
,
1003
0010
0100
0001
,
0010
0001
0010
0001
0020
0000
0031
0000
,
0100
0010
1000
0100
,
1000
0010
1000
0010
2000
0000
3001
0000
,
0010
0100
1000
0001
,
0100
0001
0100
0001
2000
0000
3100
0000
,
0010
0001
0100
0010
,
1000
0001
1000
0001
0100
0000
0000
0000
;

//---------------dance-single - ----------------
#NOTEDATA:;
#CHARTNAME:;
#STEPSTYPE:dance-single;
#DESCRIPTION:;
#CHARTSTYLE:;
#DIFFICULTY:Easy;
#METER:3;
#RADARVALUES:0.275867,0.311959,0.043298,0.190509,0.000000,223.000000,218.000000,5.000000,22.000000,0.000000,0.000000,0.000000,0.000000,0.000000,0.275867,0.311959,0.043298,0.190509,0.000000,223.000000,218.000000,5.000000,22.000000,0.000000,0.000000,0.000000,0.000000,0.000000;
#CREDIT:;
#NOTES:
0000
0000
0000
0000
,
0000
0000
0000
0000
,
0000
0000
0000
0000
,
0000
0000
0000
0000
,
0001
1000
0001
1000
,
0001
1000
0100
0000
,
0010
0100
0010
0100
,
0020
0000
0000
0130
,
1000
0010
1000
0100
,
1000
0010
0100
0001
,
0001
0010
0001
0100
,
0001
0010
0200
0300
,
1000
0010
0001
0010
,
1000
0010
0100
0001
,
0001
0010
1000
0010
,
0001
0010
0200
0300
,
1000
1000
1000
0000
,
1000
1000
1000
1000
,
0100
0100
0100
0000
,
0100
0100
0100
0100
,
0010
0010
0020
0030
,
0010
0010
0020
0030
,
0001
0001
0001
0001
,
0001
1000
0001
1000
,
0100
0100
0200
0300
,
2000
3002
2000
3003
,
1001
0001
0010
0001
,
0100
0010
1000
0000
,
0100
0010
0100
1000
,
0010
0100
0001
0000
,
0010
0100
0010
0001
,
0100
0010
1000
0000
,
0001
0100
1000
0100
,
0010
1000
0001
0000
,
0001
0010
0100
1000
,
0001
0010
0100
1000
,
0001
0100
0010
1000
,
0001
0001
0001
0001
,
0100
0010
1000
0001
,
0100
0010
1000
0001
,
1000
0010
0100
0001
,
1000
1000
2000
3000
,
0100
0010
0002
0003
,
0010
0100
2000
3000
,
0001
0100
0001
0100
,
0010
1000
0002
0003
,
0010
0100
2000
3000
,
0100
0010
0002
0003
,
0100
0010
0100
0010
,
1000
0001
2002
3003
,
1000
0100
0010
0100
,
1000
0001
2000
3000
,
0001
0010
0100
0010
,
0001
1000
0002
0003
,
0001
0010
0100
1000
,
0001
0100
0010
1000
,
0001
0100
1000
0100
,
0001
0001
0001
0001
,
1000
0100
0010
0100
,
1000
0001
0100
0010
,
0010
1000
0001
1000
,
0010
0100
0002
0003
,
0010
0100
1000
0100
,
0010
0001
0100
0110
,
1001
0000
0100
0000
,
2002
0000
3003
0000
;

//---------------dance-single - ----------------
#NOTEDATA:;
#CHARTNAME:;
#STEPSTYPE:dance-single;
#DESCRIPTION:;
#CHARTSTYLE:;
#DIFFICULTY:Beginner;
#METER:1;
#RADARVALUES:0.206591,0.397038,0.242466,0.069276,0.000000,167.000000,139.000000,28.000000,8.000000,0.000000,0.000000,0.000000,0.000000,0.000000,0.206591,0.397038,0.242466,0.069276,0.000000,167.000000,139.000000,28.000000,8.000000,0.000000,0.000000,0.000000,0.000000,0.000000;
#CREDIT:;
#NOTES:
0000
0000
0000
0000
,
0000
0000
0000
0000
,
0000
0000
0000
0000
,
0000
0000
0000
0000
,
1000
0000
1000
0000
,
0001
0000
0001
0000
,
0100
0100
0100
0100
,
0100
0000
0000
0000
,
1001
0000
0100
0000
,
0010
0000
0100
0000
,
1001
0000
0100
0000
,
0010
0000
0100
0000
,
1001
0000
0010
0000
,
0100
0000
0010
0000
,
1001
0000
0010
0000
,
0100
0000
0010
0000
,
0110
0000
0001
0000
,
1000
0000
0001
0000
,
0110
0000
1000
0000
,
0001
0000
1000
0000
,
0110
0000
0001
0000
,
0110
0000
1000
0000
,
0110
0000
0110
0000
,
0110
0110
0110
0110
,
0220
0000
0330
0000
,
1001
1001
1001
0000
,
1000
0000
0001
0000
,
1000
0000
0001
0000
,
0010
0000
0100
0000
,
0010
0000
0100
0000
,
0010
0000
0001
0000
,
0100
0000
0010
0000
,
1000
0000
0001
0000
,
1000
0000
0001
0000
,
0100
0000
1000
0000
,
0100
0000
0001
0000
,
0010
0000
0100
0000
,
1000
0000
0010
0000
,
0001
0000
0010
0000
,
1000
0000
0100
0000
,
0010
0000
0001
0000
,
2002
0000
3003
0000
,
1000
1000
1000
0000
,
0001
0001
0001
0000
,
0100
0000
0010
0000
,
0100
0100
0100
0000
,
0010
0010
0010
0000
,
1000
1000
1000
0000
,
0100
0000
0010
0000
,
0001
0001
0001
0000
,
1000
1000
1000
0000
,
0100
0100
0100
0000
,
0010
0010
0010
0000
,
0001
0001
0001
0000
,
0100
0100
0100
0000
,
0010
0010
0010
0000
,
1000
1000
1000
0000
,
1001
1001
1001
1001
,
0000
0001
0000
0010
,
0000
0100
0000
1001
,
0000
0001
0000
0100
,
0000
0010
0000
1001
,
0000
0001
0000
1000
,
0000
0001
0000
1001
,
2002
0000
3003
0000
,
0220
0000
0330
0000
;

//---------------dance-double - ----------------
#NOTEDATA:;
#CHARTNAME:;
#STEPSTYPE:dance-double;
#DESCRIPTION:;
#CHARTSTYLE:;
#DIFFICULTY:Hard;
#METER:8;
#RADARVALUES:0.576476,0.569363,0.259785,0.259785,0.121233,466.000000,436.000000,30.000000,30.000000,0.000000,0.000000,0.000000,0.000000,0.000000,0.576476,0.569363,0.259785,0.259785,0.121233,466.000000,436.000000,30.000000,30.000000,0.000000,0.000000,0.000000,0.000000,0.000000;
#CREDIT:;
#NOTES:
00000000
00000000
00000000
00000000
,
00000000
00000000
00000000
00000000
,
00000000
00000000
00000000
00000000
,
00000000
00000000
00000000
00000000
,
10000000
01000000
00100000
01000000
00010000
01000000
00100000
01000000
,
10000000
00000000
00010000
00000000
00100000
00000000
00001000
00000000
00010000
00001000
00010000
00001000
00010000
00000000
00000000
00000000
,
00000100
00000000
00000100
00000000
00000100
00000000
00000100
00000000
00000010
00000100
00000010
00000100
00000010
00000000
00000001
00000000
,
00000010
00000001
00000100
00000010
00002000
00000000
00003000
00000000
,
00001200
00000000
00000000
00000000
00010300
00000000
00000000
00000000
00002000
00000000
00000000
00103000
01000000
00000000
10000000
00000000
,
00100000
01000000
00100000
00000000
10000000
00000000
00010000
00000000
01000000
00000000
00000000
00000000
00100000
00000000
00010000
00000000
,
00001000
00000000
00000000
00000000
00000010
00000000
00000000
00000000
00000002
00000000
00000000
00000103
00000010
00000000
00001000
00000000
,
00000100
00000010
00000100
00000000
00001000
00000000
00000001
00000000
00000200
00000000
00000000
00000000
00000310
00000000
00000000
00000000
,
00001100
00000000
00000000
00000000
00011000
00000000
00000000
00000000
00120000
00000000
00000000
00130000
01000000
00000000
10000000
00000000
,
00010000
00100000
00010000
00000000
10000000
00000000
01000000
00000000
00010000
00000000
00000000
00000000
00001000
00000000
00000010
00000000
,
00000001
00000000
00000000
00000000
00001001
00000000
00000000
00000000
00000102
00000000
00000000
00000103
00000010
00000000
00001000
00000000
,
00000100
00000010
00000100
00000000
00001000
00000000
00000010
00000000
00000200
00000000
00000000
00000000
00000300
00000000
00000000
00000000
,
00000001
00000000
00000000
00000000
00000100
00000000
00000000
00000000
00000020
00000000
00000000
00001030
00000100
00000000
00010000
00000000
,
00100000
10000000
00100000
00010000
00100000
10000000
00100000
00010000
,
00001000
00000000
00000000
00000000
00100000
00000000
00000000
00000000
00020000
00000000
00000000
00130000
00001000
00000000
00000100
00000000
,
00000001
00000010
00001000
00000010
00000001
00000010
00001000
00000010
,
00000001
00000100
00000010
00001000
00000010
00010000
00001000
00100000
,
01000000
10000000
01000000
00100000
00010000
01000000
00001000
00100000
,
00001000
00000100
00001000
00000100
00001000
00000100
00001000
00000100
,
00001000
00010000
00001000
00010000
00001000
00010000
00001000
00010000
,
00001000
00000100
00000001
00000010
00002000
00000000
00013000
00000000
,
00101000
01010000
01100000
10020000
,
10030000
01000000
10000000
00100000
10000000
01000000
00100000
00010000
,
00100000
00001000
00010000
00000100
00001100
00000000
00000100
00000100
,
00000010
00000001
00001000
00000001
00000010
00000001
00001000
00000100
,
00001000
00000000
00000010
00000000
00010000
00000000
00000100
00000000
00010000
00000000
00000000
00010000
00001000
00000000
00001000
00000000
,
00100000
01000000
00100000
01000000
10000000
00100000
00010000
00001000
,
00000010
00000001
00000010
00000001
00000011
00000000
00000010
00000010
,
00000100
00001000
00010000
00001000
00000100
00010000
00001000
00100000
,
01000000
10000000
00100000
00010000
00001000
00000000
00210000
00000000
,
00310000
00100000
01000000
00100000
00010000
00100000
01000000
10000000
,
00100000
10000000
01000000
10000000
00100000
10000000
00010000
10000000
,
01000000
00100000
00010000
00100000
01000000
00100000
00010000
00100000
,
01000000
10000000
00100000
00001000
,
00000100
00001000
00000010
00001000
00000100
00001000
00000010
00001000
,
00000100
00000010
00000001
00000010
00000100
00000010
00000001
00000010
,
00000100
00001000
00000001
00001000
00000100
00001000
00000010
00000000
,
00001010
00000000
00000010
00000000
00010000
00000000
00000100
00000000
00010000
00001000
00010000
00000000
00011000
00000000
00000000
00000000
,
00210000
00000000
00000000
01300000
10000000
00000000
00100000
00000000
10000000
00000000
00000000
00000000
10020000
00000000
00000000
00000000
,
00130000
00000000
00000000
00010000
01000000
00000000
00100000
00000000
00010000
00000000
00000000
00000000
00012000
00000000
00000000
00000000
,
00013000
00000000
00000100
00001000
00000020
00000000
00000130
00000000
,
00000001
00000010
00000100
00001000
00000002
00000010
00000013
00000000
,
00001000
00000000
00000000
00000010
00000001
00000000
00000100
00000000
00000010
00000000
00000000
00000000
00002001
00000000
00000100
00000000
,
00003100
00000000
00000000
00001000
00000010
00000000
00000100
00000000
00001000
00000000
00000000
00000000
00012000
00000000
00000000
00000000
,
00103000
00000000
00010000
00100000
02000000
00000000
13000000
00000000
,
00100000
10000000
01000000
00100000
02100000
00100000
03200000
00000000
,
00310000
00100000
00010000
01000000
10000000
01000000
00010000
00100000
,
00001000
00010000
00100000
00010000
00001000
00000100
00000010
00000001
,
00000010
00001000
00000100
00001000
00000010
00010000
00001000
00010000
,
00100000
00010000
00001000
00010000
00100000
01000000
10000000
01000000
,
00010000
00100000
01000000
10000000
00100000
01000000
00010000
00100000
,
00001000
00010000
00000100
00001000
00000010
00000100
00000001
00000010
,
00000100
00010000
00000100
00010000
00001000
00100000
00001000
00100000
,
00110000
01100000
11000000
00020000
,
00130000
00000000
00000000
00000000
00101000
00000000
00000000
00000000
00020000
00000000
00000000
00030100
00000010
00000000
00000001
00000000
,
00000100
00000010
00000100
00000000
00000001
00000000
00001000
00000000
00000010
00000000
00000000
00000000
00000100
00000000
00001000
00000000
,
00010000
00000000
00000000
00000000
00110000
00000000
00000000
00000000
20000000
00000000
00000000
30100000
01000000
00000000
00010000
00000000
,
00100000
01000000
00100000
00000000
00010000
00000000
10000000
00000000
00200000
00000000
00000000
00000000
01300000
00000000
00000000
00000000
,
00110000
00000000
00000000
00000000
00011000
00000000
00000000
00000000
00002100
00000000
00000000
00003100
00000010
00000000
00000001
00000000
,
00001000
00000100
00001000
00000000
00000001
00000000
00000010
00000000
00001000
00000000
00000000
00000000
00010000
00000000
01000000
00000000
,
11000000
00000000
00000000
00000000
10000000
00000000
00000000
00000000
00020000
00000000
00000000
00130000
01000000
00000000
10000000
00000000
,
00100000
01000000
00100000
00000000
10000000
00000000
00010000
00000000
02000000
00000000
00000000
00000000
03000000
00000000
00000000
00000000
;

//---------------dance-double - ----------------
#NOTEDATA:;
#CHARTNAME:;
#STEPSTYPE:dance-double;
#DESCRIPTION:;
#CHARTSTYLE:;
#DIFFICULTY:Medium;
#METER:5;
#RADARVALUES:0.405760,0.425398,0.216488,0.311742,0.000000,328.000000,303.000000,25.000000,36.000000,0.000000,0.000000,0.000000,0.000000,0.000000,0.405760,0.425398,0.216488,0.311742,0.000000,328.000000,303.000000,25.000000,36.000000,0.000000,0.000000,0.000000,0.000000,0.000000;
#CREDIT:;
#NOTES:
00000000
00000000
00000000
00000000
,
00000000
00000000
00000000
00000000
,
00000000
00000000
00000000
00000000
,
00000000
00000000
00000000
00000000
,
10000000
00010000
00100000
00001000
,
00010000
00000000
00000100
00000000
00001000
00000001
00001000
00000000
,
00000010
00000000
00000010
00000000
00000010
00000010
00000010
00000000
,
00000220
00000000
00000000
00000330
,
00001000
00000100
00000010
00000100
,
00001000
00000001
00001000
00000100
,
00010000
00100000
01000000
00100000
,
10000000
00010000
20000000
30000000
,
01000000
00100000
00001000
00010000
,
00000100
00000000
00000010
00000001
00000010
00000000
00000100
00000000
,
00001000
00000010
00010000
00001000
,
00100000
00000000
01000000
10000000
02000000
00000000
03000000
00000000
,
10000000
00010000
10000000
00010000
20000000
00000000
30100000
00000000
,
02000000
03020000
00230000
00302000
,
00013000
00001000
00010000
00001000
00020000
00000000
00031000
00000000
,
00020000
00030200
00002300
00003020
,
00001030
00000001
00001000
00000001
00001000
00000000
00000100
00000000
,
00010000
00001000
00010000
00001000
00010000
00000000
00001000
00000000
,
00100000
00010000
00100000
00000000
01000000
00100000
01000000
00000000
,
10000000
00010000
10000000
00010000
10000000
00010000
10000000
00000000
,
20020000
00000000
30030000
00000000
,
11000000
00110000
00011000
00000110
,
00001002
00000000
00000203
00000000
00000320
00000000
00001030
00000100
,
00000010
00000011
00002200
00003300
,
00010000
00000000
00100000
00000000
10000000
01000000
00010000
00000000
,
01000000
10000000
00100000
10000000
,
12000000
00000000
23000000
00000000
30200000
00000000
00310000
00100000
,
10000000
11000000
00220000
00330000
,
00001000
00000000
00000100
00000000
00000001
00000010
00001000
00000000
,
00000010
00000000
00000001
00000000
00000100
00000000
00000001
00001000
,
00000002
00000000
00000103
00000010
00001000
00000010
00001000
00000000
,
00000100
00000000
00010000
00001000
00100000
00001000
00100000
00000000
,
01000000
00000000
10000000
00100000
01000000
00100000
01000000
00000000
,
00010000
00110000
10000000
10100000
,
20010000
00000000
31000000
00100000
00010000
00100000
00010000
00000000
,
01000000
00000000
00010000
00100000
00001000
00100000
00001000
00000000
,
00010000
00000000
00000100
00000010
00000001
00000010
00000001
00000000
,
00000100
00000010
00001000
00000100
00010000
00000000
00011000
00000000
,
00010100
00000000
00010000
00000100
00001000
00000000
00001100
00000000
,
00000100
00000000
00000010
00000001
00000100
00000000
00000101
00000000
,
00000001
00000010
00000100
00001000
,
00000100
00010000
00001000
00100000
00020000
00000000
00030000
00000000
,
00110000
00000000
00010000
01000000
00100000
00000000
01100000
00000000
,
10100000
00000000
10000000
01000000
00100000
00000000
01100000
00000000
,
10000000
01000000
00100000
00010000
,
01000000
00001000
00100000
00010000
00200000
00000000
00300000
00000000
,
00010000
00100000
00010000
00100000
00010000
00000000
00100000
00000000
,
00001000
00010000
00001000
00010000
00002000
00000000
00003100
00000000
,
00000010
00000000
00000010
00001000
00000100
00000000
00000100
00001000
,
00000001
00000000
00000001
00001000
00000001
00000000
00002001
00000000
,
00003100
00001000
00000100
00001000
00000100
00000000
00010000
00000000
,
00001000
00010000
00001000
00010000
00002000
00000000
00103000
00000000
,
01000000
00000000
01000000
10000000
00100000
00000000
00100000
01000000
,
00010000
00000000
00010000
10000000
00010000
00000000
10010000
00000000
,
10000000
00100000
01000000
00010000
,
00100000
00010000
00100000
00010000
00200000
00000000
00301000
00010000
,
00001000
00000100
00000001
00000010
,
00000100
00001000
00000100
00001000
00000200
00000000
00010300
00000000
,
01000000
10000000
00100000
00010000
,
00100000
10000000
00100000
10000000
00200000
00000000
01300000
00001000
,
00010000
00001000
00000100
00001000
,
00010000
00001000
00010000
00001000
00010000
00000000
00000000
00000000
;

//---------------dance-double - ----------------
#NOTEDATA:;
#CHARTNAME:;
#STEPSTYPE:dance-double;
#DESCRIPTION:;
#CHARTSTYLE:;
#DIFFICULTY:Easy;
#METER:3;
#RADARVALUES:0.268445,0.284681,0.095255,0.181850,0.000000,217.000000,206.000000,11.000000,21.000000,0.000000,0.000000,0.000000,0.000000,0.000000,0.268445,0.284681,0.095255,0.181850,0.000000,217.000000,206.000000,11.000000,21.000000,0.000000,0.000000,0.000000,0.000000,0.000000;
#CREDIT:;
#NOTES:
// measure 0
00000000
00000000
00000000
00000000
,  // measure 1
00000000
00000000
00000000
00000000
,  // measure 2
00000000
00000000
00000000
00000000
,  // measure 3
00000000
00000000
00000000
00000000
,  // measure 4
00010000
10000000
00010000
10000000
,  // measure 5
00010000
01000000
00010000
00000000
,  // measure 6
00100000
00100000
00001000
00001000
,  // measure 7
00020000
00000000
00000000
00031000
,  // measure 8
00011000
00000000
00001000
00000000
,  // measure 9
00010000
00001000
00010000
00010000
,  // measure 10
00010000
00000000
00000100
00000000
,  // measure 11
00001000
00001000
00001000
00000000
,  // measure 12
00011000
00000000
00010000
00000000
,  // measure 13
00001000
00010000
00001000
00001000
,  // measure 14
00001000
00000000
00100000
00000000
,  // measure 15
00010000
00010000
00010000
00000000
,  // measure 16
10010000
10000000
10000000
00000000
,  // measure 17
10000000
10000000
10000000
10000000
,  // measure 18
00010000
00010000
00010000
00000000
,  // measure 19
00010000
00010000
00010000
00010000
,  // measure 20
00100000
00100000
00200000
00300000
,  // measure 21
00001000
00001000
00002000
00003000
,  // measure 22
00010000
00010000
00010000
00010000
,  // measure 23
00001000
00010000
00001000
00010000
,  // measure 24
00001000
00001000
00002000
00003000
,  // measure 25
00000200
00000302
00002000
00003003
,  // measure 26
00001001
00000001
00000100
00000001
,  // measure 27
00000010
00000100
00001000
00000000
,  // measure 28
00000010
00000100
00000010
00001000
,  // measure 29
00000100
00010000
00001000
00000000
,  // measure 30
00100000
01000000
10000000
00100000
,  // measure 31
01000000
00010000
10000000
00000000
,  // measure 32
01000000
10000000
00010000
00100000
,  // measure 33
00001000
00010000
00022000
00033000
,  // measure 34
00001000
00000100
00000010
00000001
,  // measure 35
00001000
00000100
00000010
00000001
,  // measure 36
00000100
00000010
00001000
00000100
,  // measure 37
00001000
00001000
00011000
00000000
,  // measure 38
00010000
00100000
01000000
10000000
,  // measure 39
00010000
00100000
01000000
10000000
,  // measure 40
00100000
01000000
00010000
00100000
,  // measure 41
00001000
00001000
00002000
00003000
,  // measure 42
00001000
00000100
00000002
00000003
,  // measure 43
00000001
00000010
00002000
00003000
,  // measure 44
00010000
01000000
10000000
10000000
,  // measure 45
00100000
01000000
00020000
00030000
,  // measure 46
10000000
00100000
00020000
00030000
,  // measure 47
00010000
01000000
20000000
30000000
,  // measure 48
01000000
00010000
00001000
00001000
,  // measure 49
00000100
00000001
00002002
00003003
,  // measure 50
00001001
00000001
00000100
00000001
,  // measure 51
00000010
00000100
00001000
00000000
,  // measure 52
00000010
00000100
00000010
00001000
,  // measure 53
00000100
00010000
00001000
00000000
,  // measure 54
00100000
01000000
10000000
00100000
,  // measure 55
01000000
00010000
10000000
00000000
,  // measure 56
01000000
10000000
00010000
00100000
,  // measure 57
00001000
00010000
00022000
00033000
,  // measure 58
00010000
10000000
00100000
10000000
,  // measure 59
01000000
00100000
00010000
00000000
,  // measure 60
01000000
00100000
01000000
00010000
,  // measure 61
00100000
00001000
00010000
00000000
,  // measure 62
00000100
00000010
00000001
00000100
,  // measure 63
00000010
00001000
00000001
00000001
,  // measure 64
00001001
00000000
00000010
00000000
,  // measure 65
00002002
00000000
00000000
00003003
;
