#TITLE:apollo;
#SUBTITLE:;
#ARTIST:aston crowe;
#TITLETRANSLIT:;
#SUBTITLETRANSLIT:;
#ARTISTTRANSLIT:;
#GENRE:;
#CREDIT:;
#BANNER:apollo.png;
#BACKGROUND:apollo-bg.png;
#LYRICSPATH:;
#CDTITLE:;
#MUSIC:apollo.ogg;
#OFFSET:0.000000;
#SAMPLESTART:9.624388;
#SAMPLELENGTH:15.000000;
#SELECTABLE:YES;
#BPMS:0.000000=200.000000
,128.000000=100.000000
,144.000000=50.000000
,151.000000=40.000000
,151.500000=200.000000
,281.000000=50.000000
,288.000000=40.000000
,288.500000=200.000000
;
#DISPLAYBPM:*;
#STOPS:
;
#BGCHANGES:;
#KEYSOUNDS:;
#ATTACKS:;

//---------------dance-single - ----------------
#NOTES:
     dance-single:
     :
     Challenge:
     11:
     0.971968,0.965156,0.438122,0.197584,0.949264,792.000000,741.000000,51.000000,23.000000,0.000000,0.000000,0.971968,0.965156,0.438122,0.197584,0.949264,792.000000,741.000000,51.000000,23.000000,0.000000,0.000000:
0000
0000
0000
0000
,
0000
0000
0000
0000
,
0000
0000
0000
0000
,
0000
0000
0000
0000
,
0001
1000
0100
0000
0000
0110
0000
0000
,
0001
1000
0010
0000
0000
0100
0101
0000
,
1000
0100
0010
0000
0000
1100
0000
0000
,
0001
0000
0100
0000
1000
0000
0000
0000
0000
0000
0100
0000
0010
1000
0010
1000
,
0001
0000
0010
0000
0100
0000
1000
0100
0010
0100
1000
0000
0001
0000
0000
0000
,
1000
0000
0010
0000
0100
0000
0001
0100
0010
0100
0001
0000
1000
0100
0010
0001
,
1000
0000
0010
0000
0001
0000
0010
0100
0001
0100
0010
0000
1000
0000
0000
0000
,
0001
0000
0010
0000
1000
0000
0010
0100
1000
0100
0010
0000
0011
0000
0000
0000
,
1000
0000
0001
0000
0010
0000
0100
1000
0010
1000
0001
0000
0100
0000
0000
0000
,
0001
0000
1000
0000
0010
0000
0100
0001
0010
0001
1000
0000
0100
0010
0001
1000
,
0010
0000
0100
0000
0001
0000
0010
0001
0100
0001
1000
0000
0010
0000
0000
0000
,
0100
0000
0001
0000
0101
0000
0000
0000
0000
0000
1000
0000
0001
0010
0001
0010
,
0100
0000
1000
0000
0001
0000
0100
0010
1000
0010
0100
0000
0101
0000
0000
0000
,
1000
0000
0100
0000
0010
0000
0001
0010
0100
0010
0001
0000
1000
0010
0100
0001
,
1000
0000
0010
0000
0100
0000
0001
1000
0100
1000
0001
0000
1001
0000
0000
0000
,
0010
0000
1000
0000
0001
0000
0100
0001
1000
0001
0100
0000
0010
0000
0000
0000
,
0100
0000
0001
0000
1000
0000
0100
0010
0001
0010
0100
0000
1100
0000
0000
0000
,
0001
0000
0100
0000
0010
0000
1000
0010
0100
0010
1000
0000
0001
0010
0100
1000
,
0001
0000
0010
0000
0100
0000
1000
0001
0100
0001
1000
0000
1001
0000
0000
0000
,
0010
0000
0001
0000
1000
0000
0100
1000
0001
1000
0100
0000
0110
0000
0000
0000
,
0001
0000
0100
0000
0010
0000
0100
0001
0100
0001
1000
0000
0001
1000
0001
1000
,
0100
0000
0010
0000
0001
0000
1000
0010
1000
0010
0100
0000
0001
0010
0100
1000
,
0001
0000
0100
0000
1000
0000
0100
0010
0100
0010
1000
0000
0001
1000
0001
1000
,
0100
0000
0001
0000
0100
0000
0010
0100
0010
0100
1000
0000
1001
0000
0000
0000
,
1000
0000
0100
0000
0010
0000
0100
1000
0100
1000
0001
0000
1000
0001
1000
0001
,
0100
0000
0010
0000
1000
0000
0001
0010
0001
0010
0100
0000
1000
0010
0100
0001
,
1000
0000
0100
0000
0001
0000
0100
0010
0100
0010
0001
0000
1000
0001
1000
0001
,
0100
0000
1000
0000
0100
0000
0010
0100
0010
0100
0001
0000
1000
0001
1000
0000
,
0012
0000
0000
0010
0000
0000
0010
0000
0003
0000
0000
0000
1000
0000
0000
0000
2010
0000
0000
0010
0000
0000
0010
0000
3000
0000
0000
0000
0000
0000
0000
0000
,
0201
0000
0000
0001
0000
0000
0001
0000
0300
0000
0000
0000
0010
0000
0000
0000
0120
0000
0000
0100
0000
0000
0100
0000
0030
0000
0000
0000
0000
0000
0000
0000
,
1020
0000
0000
1000
0000
0000
1000
0000
0030
0000
0000
0000
0100
0000
0000
0000
0021
0000
0000
0001
0000
0000
0001
0000
0030
0000
0000
0000
0000
0000
0000
0000
,
2100
0000
0000
0100
0000
0000
0100
0000
3000
0000
0000
0000
0001
0000
0000
0000
1002
0000
0000
1000
0000
0000
1000
0000
0003
0000
0000
0000
0000
0000
0000
0000
,
2000
3000
0020
0030
0200
0300
0002
0003
,
2000
3000
0200
0300
0002
0003
0000
0100
,
1000
0100
0010
0001
1000
0000
0010
0000
0001
0000
0010
0100
0001
0100
0010
0000
,
0100
0010
1000
0100
0001
0100
0000
0100
,
1000
0100
0010
0001
1000
0000
0010
0000
0100
0000
0001
0100
0010
0100
0001
0000
,
1001
0000
0000
0000
0100
0000
1000
0000
0001
0000
0100
1000
0000
1000
0100
0000
,
0110
0000
0000
0000
0001
0000
0010
0000
1000
0000
0010
0100
1000
0100
0010
0000
,
0100
0010
0001
0100
1000
0100
0000
0100
,
0001
0100
0010
1000
0001
0000
0010
0000
0100
0000
1000
0100
0010
0100
1000
0000
,
1001
0000
0000
0000
0100
0000
0001
0000
1000
0000
0100
0001
0000
0001
0100
0000
,
0110
0000
0000
0000
1000
0010
1000
0010
1000
0000
0001
0100
0010
0100
0001
0000
,
1000
0100
0010
0000
0001
0010
0001
0010
0001
0000
1000
0100
0010
0100
1000
0000
,
0001
0100
0010
1000
0001
0100
0001
0100
0001
0000
1000
0010
0100
0010
1000
0000
,
0001
0010
0100
0000
1000
0100
1000
0100
1000
0000
0001
0010
0100
0010
0001
0000
,
1000
0010
0100
0001
1000
0100
0010
0100
1000
0000
0001
0100
0010
0100
0001
0000
,
1000
0010
0100
0000
0001
0010
0100
0010
0001
0000
1000
0010
0100
0010
1000
0000
,
0001
0100
1000
0000
0100
0010
0100
0010
1000
0000
0100
0010
0100
0010
0001
0000
,
0100
0010
1000
0000
0001
0000
0010
0000
0010
0000
0100
1000
0000
1000
0001
0000
,
0001
0100
0010
1000
0001
0000
0100
0000
0101
0000
0001
1000
0000
1000
0100
0000
,
0110
0000
0000
0000
1000
0000
0100
0000
1100
0000
1000
0001
0000
0001
0100
0000
,
0110
0000
0010
0000
1000
0000
0001
0000
0011
0000
0010
0100
0000
0100
1000
0000
,
1001
0000
0000
0000
0001
0000
1000
0000
1010
0000
0010
0001
0000
0001
0010
0000
,
0110
0000
0000
0000
1000
0000
0010
0000
1010
0000
1000
0001
0000
0001
0010
0000
,
0110
0000
0000
0000
0001
0000
0010
0000
0011
0000
0001
1000
0000
1000
0010
0000
,
0110
0000
0100
0000
0001
0000
1000
0000
1100
0000
0100
0010
0000
0010
0001
0000
,
1001
0000
0000
0000
1000
0000
0001
0000
0101
0000
0100
1000
0000
1000
0100
0000
,
0110
0000
0000
0000
0001
0000
1000
0000
1001
0000
0001
0010
0100
0010
0001
0000
,
1000
0000
0010
0000
0100
0000
0001
0000
1001
0000
1000
0100
0010
0100
1000
0000
,
0001
0100
0010
1000
0001
0000
0010
0000
0011
0000
0001
1000
0010
1000
0001
0000
,
0100
0000
0010
0000
1000
0000
0100
0000
0110
0000
0010
0001
0010
1000
0010
0000
,
1001
0000
0000
0000
1000
0000
0001
0000
1001
0000
1000
0010
0100
0010
1000
0000
,
0001
0000
0010
0000
0100
0000
1000
0000
1001
0000
0001
0100
0010
0100
0001
0000
,
1000
0100
0010
0001
1000
0000
0010
0000
1010
0000
1000
0001
0010
0001
1000
0000
,
0100
0000
1000
0000
1001
0000
0001
0000
0101
0000
0100
0010
0000
0010
1000
0000
,
1000
0000
0100
0000
0001
0000
0100
0000
2000
0000
0000
0010
0000
0000
3001
0000
0200
0000
0000
0010
0000
0000
0300
0000
0002
0000
0000
1000
0000
0000
0003
0000
,
0020
0000
0000
0100
0000
0000
0030
0000
2000
0000
0000
0100
0000
0000
3010
0000
0020
0000
0000
0001
0000
0000
0030
0000
0002
0000
0000
0100
0000
0000
0103
0000
,
2000
0000
0000
0000
0000
0100
0000
0000
3001
0000
0000
0000
0000
0000
0000
0000
1000
0000
0000
0000
0010
0000
0000
0000
0100
0000
0000
0000
0001
0000
0000
0000
1000
0000
0000
0000
0000
0000
0000
0000
0100
0000
0000
0000
0000
0000
0000
0000
0010
0000
0000
0000
0000
0000
0000
0000
1000
0000
0000
0000
0010
0000
0000
0000
,
0100
0010
0001
0000
1000
0000
0100
0000
0010
0000
0001
0000
0100
0000
1000
0100
,
0010
0100
0001
0000
0100
0000
0010
0000
1000
0000
0100
0000
0001
0000
0100
0010
,
0001
0010
0100
0000
0001
0000
0100
0000
1000
0000
0010
0000
0001
0000
0010
0100
,
0001
0100
0010
0000
1000
0001
0010
0000
0100
1000
0001
0000
0100
0000
0010
1000
,
0001
1000
0010
0000
0100
0001
1000
0100
0010
0001
1000
0000
0010
0000
0100
0001
,
1000
0001
0100
0000
0010
1000
0001
0010
0100
0000
1000
0100
1000
0000
0001
0100
,
0010
0100
0001
0000
1000
0100
0010
0001
0000
0000
0000
0000
0000
0000
1001
0000
,
0000
0100
0110
0000
0000
0000
0000
0000
;

//---------------dance-single - ----------------
#NOTES:
     dance-single:
     :
     Hard:
     10:
     0.780519,0.896217,0.618525,0.068725,0.274900,636.000000,564.000000,72.000000,8.000000,0.000000,0.000000,0.780519,0.896217,0.618525,0.068725,0.274900,636.000000,564.000000,72.000000,8.000000,0.000000,0.000000:
0000
0000
0000
0000
,
0000
0000
0000
0000
,
0000
0000
0000
0000
,
0000
0000
0000
0000
,
0010
1000
0100
0000
0000
1100
0000
0000
,
1000
0001
0100
0000
0000
0010
0010
0000
,
0100
0001
0010
0000
0000
0110
0000
0000
,
0010
0000
0001
0000
1000
0000
0000
0000
0000
0000
0010
0000
0100
0001
0100
0001
,
1000
0000
0100
0000
0010
0000
0100
0000
1000
0001
1000
0000
0010
0000
0000
0000
,
0100
0000
0010
0000
0100
0000
1000
0000
0100
0001
0100
0000
0010
0000
0000
0000
,
1000
0000
0001
0000
0010
0000
0100
0000
0010
0001
0010
0000
0100
0000
0000
0000
,
1000
0000
0100
0000
0010
0000
0001
0000
1000
0100
1000
0000
0001
0000
0000
0000
,
0100
0000
0010
0000
0100
0000
0001
0000
0010
0100
0010
0000
0001
0000
0000
0000
,
1000
0000
0100
0000
0010
0000
0100
0000
1000
0010
1000
0000
0001
0000
0000
0000
,
0100
0000
0010
0000
0100
0000
0001
0000
0010
0001
0010
0000
0100
0000
0000
0000
,
1000
0001
1001
0000
0000
0100
0110
0000
,
0100
0000
0010
0000
0100
0000
0001
0000
1000
0010
1000
0000
0100
0000
0000
0000
,
0010
0000
0001
0000
1000
0000
0100
0000
0010
0000
0001
0000
0100
0001
0100
0000
,
0001
0000
0010
0000
0100
0000
1000
0000
0010
0100
0010
0000
1000
0000
0000
0000
,
0001
0000
0100
0000
0010
0000
1000
0000
0001
0010
0001
0000
0011
0000
0000
0000
,
0010
0000
0001
0000
1000
0000
0100
0000
1000
0010
1000
0000
0001
0000
0100
0000
,
0010
0000
0100
0000
0001
0000
1000
0000
0100
0000
0010
0000
0001
0100
0001
0000
,
1000
0000
0010
0000
0100
0000
0001
0000
0100
0001
0100
0000
0010
0000
1000
0000
,
0010
0100
0001
1000
0100
0010
0001
0000
,
0001
0000
0010
0000
1000
0000
0010
0000
0100
1000
0100
0000
1000
0000
0000
0000
,
0001
0000
0100
0000
1000
0000
0100
0000
0010
1000
0010
0000
1000
0000
0000
0000
,
0001
0000
0010
0000
0100
0000
1000
0000
0010
0100
0010
0000
0100
0000
0000
0000
,
0010
0000
1000
0000
0100
0000
0010
0000
0001
1000
0001
0000
0100
0000
0000
0000
,
0001
0000
0100
0000
1000
0000
0100
0000
0010
1000
0010
0000
1000
0000
0000
0000
,
0001
0000
0010
0000
1000
0000
0010
0000
0100
1000
0100
0000
1000
0000
0000
0000
,
0001
0000
0100
0000
0010
0000
0100
0000
0001
1000
0001
0000
1000
0000
0000
0000
,
0100
0000
1000
0000
0010
0000
0100
0000
0001
1000
0001
0000
1001
0000
0000
0000
,
0001
0000
0000
0001
0000
0000
0101
0000
0000
0000
0000
0000
0000
0000
0000
0000
1000
0000
0000
1000
0000
0000
1010
0000
0000
0000
0000
0000
0000
0000
0000
0000
,
0001
0000
0000
0001
0000
0000
0011
0000
0000
0000
0000
0000
0000
0000
0000
0000
0100
0000
0000
0100
0000
0000
1100
0000
0000
0000
0000
0000
0000
0000
0000
0000
,
1000
0000
0000
0001
0000
0000
1001
0000
0000
0000
0000
0000
0000
0000
0000
0000
0010
0000
0000
0100
0000
0000
0110
0000
0000
0000
0000
0000
0000
0000
0000
0000
,
1000
0000
0000
0010
0000
0000
1010
0000
0000
0000
0000
0000
0000
0000
0000
0000
0100
0000
0000
0001
0000
0000
0101
0000
0000
0000
0000
0000
0000
0000
0000
0000
,
0002
0003
0020
0030
2000
3000
0020
0030
,
0200
0300
0002
0003
0200
0300
2000
3001
,
0100
0010
0100
0010
1000
0000
0010
0000
0100
0000
0110
0000
0000
0000
0100
0000
,
0001
0100
0001
1000
0100
1100
0000
1000
,
0100
0010
0100
1000
0001
1001
0000
0001
,
0100
1000
0100
0010
0100
0110
0000
0010
,
1000
0001
0010
0100
1000
1001
0000
0001
,
0100
0010
0100
0001
1000
1100
0000
0100
,
0010
0100
1000
0010
1000
1001
0000
0001
,
0010
0100
0010
0001
0100
0101
0000
0100
,
0010
0100
0001
1000
0100
0011
0000
0001
,
0010
0100
1000
0001
0100
1010
0000
0010
,
0100
0010
1000
0010
0100
0101
0000
0001
,
0010
0001
0010
0100
1000
1100
0000
1000
,
0001
0100
1000
0100
0010
1010
0000
0010
,
1000
0100
0001
0100
0010
0011
0000
0100
,
1000
0001
0100
1000
0100
0110
0000
0010
,
1000
0000
0001
0000
0010
0000
0100
0000
1000
0000
0001
0100
0000
0001
1000
0000
,
0100
0000
0010
0001
0010
0000
0001
0000
0101
0000
0100
0000
0010
0000
0100
0000
,
0110
0000
0010
1000
1001
0001
0010
0100
,
1000
0010
1000
0000
0001
0000
0100
0000
0110
0000
0010
0000
0100
0000
0001
0000
,
0101
0000
0001
1000
1100
0100
1000
0001
,
0101
0000
1000
0100
1100
1000
0010
0100
,
0110
0000
0001
0100
0110
0010
1000
0001
,
0010
0100
0010
0000
0001
0000
1000
0000
1100
0000
1000
0000
0001
0000
0100
0000
,
0101
0000
0001
0010
0110
0100
1000
0001
,
0101
0000
0001
0010
0110
0010
0001
1000
,
1001
0000
1000
0010
0110
0100
0001
1000
,
0100
1000
0100
0000
1000
0000
0010
0000
0110
0000
0100
0000
0001
0000
1000
0000
,
1100
0000
0000
0000
0100
0000
0010
0000
0011
0000
0001
1000
0000
0010
0100
0000
,
0101
0000
0010
0100
1001
0100
0010
0100
,
1001
0000
0001
0100
1010
0001
0010
0100
,
0010
0001
0010
0000
0100
0000
1000
0000
1001
0000
0010
0000
0100
0000
0001
0000
,
1010
0000
0100
0000
0001
0000
1000
0000
1100
0000
1000
0010
0000
1000
0010
0000
,
0110
0000
0000
0000
0100
0000
0001
0000
1000
0000
0000
1010
0000
0000
0000
0000
0001
0000
0000
0011
0000
0000
0000
0000
0100
0000
0000
1100
0000
0000
0000
0000
,
0010
0000
0000
0101
0000
0000
0000
0000
0001
0000
0000
0110
0000
0000
0000
0000
1000
0000
0000
0110
0000
0000
0000
0000
0001
0000
0000
0101
0000
0000
0000
0000
,
0010
0000
0000
0000
0000
1000
0000
0000
1000
0000
0000
0000
0000
0000
0000
0000
0001
0000
0000
0000
0100
0000
0000
0000
0001
0000
0000
0000
0100
0000
0000
0000
0010
0000
0000
0000
0000
0000
0000
0000
1000
0000
0000
0000
0000
0000
0000
0000
0100
0000
0000
0000
0000
0000
0000
0000
0001
0000
0000
0000
0000
0000
0000
0000
,
0100
1000
1001
0000
0001
0100
1000
0100
,
0010
1000
1010
0000
0001
0010
0100
0010
,
0001
1000
1001
0000
0010
0100
0001
0100
,
0010
1000
1100
0000
0100
0010
0001
0010
,
0100
0010
0011
0000
0001
0100
1000
0100
,
0001
0100
1010
0000
0010
0100
0001
0010
,
0100
1000
1001
0000
0001
0000
0000
0010
,
0000
0100
1001
0000
0000
0000
0000
0000
;

//---------------dance-single - ----------------
#NOTES:
     dance-single:
     :
     Medium:
     8:
     0.541209,0.551518,0.472484,0.137450,0.034362,441.000000,386.000000,55.000000,16.000000,0.000000,0.000000,0.541209,0.551518,0.472484,0.137450,0.034362,441.000000,386.000000,55.000000,16.000000,0.000000,0.000000:
0000
0000
0000
0000
,
0000
0000
0000
0000
,
0000
0000
0000
0000
,
0000
0000
0000
0000
,
0001
0000
0100
0000
0000
0101
0000
0000
,
0010
0000
1010
0000
0000
1000
0010
0000
,
1000
0000
0100
0000
0000
1100
0000
0000
,
1000
0000
1001
0000
0000
0001
0100
0001
,
1000
0000
0100
1000
0000
1000
0001
0000
,
0100
0000
0010
0100
0000
0100
0001
1000
,
0100
0000
0010
0100
0000
1000
0001
0000
,
0100
0000
0010
0100
0000
0001
1000
0100
,
0010
0000
0001
1000
0000
0010
1000
0000
,
0100
0000
0010
0100
0000
1000
0100
0010
,
0001
0000
1000
0010
0000
0100
0001
0000
,
1000
0001
1000
0000
0000
0001
1000
0000
,
0010
0100
0000
1001
0000
0100
0010
0000
,
0011
0000
0100
1000
0000
1000
0001
0000
,
0100
0010
0000
1010
0000
0100
0001
0000
,
1000
0100
0000
0011
0000
0100
1000
0000
,
0010
0100
0000
1001
0000
0100
0010
0000
,
0011
0000
0100
1000
0000
1000
0001
0000
,
0100
0001
0000
1001
0000
1000
0010
0000
,
0100
0010
0000
1001
0000
0100
0010
0000
,
0001
0010
0000
1100
0000
1000
0001
0000
,
0101
0000
0001
1000
0000
1000
0010
0000
,
0100
0001
0000
0101
0000
0001
1000
0000
,
0100
1000
0000
1010
0000
0010
0100
0000
,
0001
1000
0000
1001
0000
0100
0010
0000
,
0011
0000
0100
1000
0000
0001
0100
0000
,
0010
1000
0000
0110
0000
0100
0001
0000
,
1000
0100
0000
0110
0000
0100
1000
0001
,
0101
0000
0000
1000
0000
0000
0000
0000
1100
0000
0000
0001
0000
0000
0000
0000
,
0011
0000
0000
1000
0000
0000
0000
0000
1010
0000
0000
0001
0000
0000
0000
0000
,
0010
0000
0000
0110
0000
0000
0000
0000
0001
0000
0000
1001
0000
0000
0000
0000
,
0010
0000
0000
0110
0000
0000
0000
0000
0100
0000
0000
1001
0000
0000
0000
0000
,
0200
0300
2000
3000
0020
0030
0200
0300
,
0002
0003
0020
0030
0200
0300
2000
3001
,
1001
0000
0001
0000
0100
0001
0000
0001
,
1000
0000
1100
0000
1000
0001
0000
0001
,
0100
0000
0110
0000
0010
1000
0000
1000
,
0001
0000
0011
0000
0010
0001
0000
0001
,
1000
0000
1100
0000
1000
0010
0000
0010
,
0100
0000
0101
0000
0001
0010
0000
0010
,
0100
0000
1100
0000
1000
0001
0000
0001
,
0100
0000
0110
0000
0010
1000
0000
1000
,
0001
0000
0011
0000
0010
0001
0010
0001
,
1000
0000
0100
0000
1000
0001
1000
0001
,
0100
0000
0110
0000
0010
1000
0010
1000
,
0001
0000
0010
0000
0001
0100
0001
0100
,
0010
0000
0110
0000
0010
1000
0010
1000
,
0100
0000
1000
0000
0001
0100
0001
0100
,
0010
0000
0110
0000
0010
1000
0010
1000
,
0001
0000
0010
0001
0100
0010
1000
0100
,
1001
0000
0010
1000
0000
1100
0000
1000
,
0001
0000
0100
0000
0001
1000
0000
1000
,
0100
0000
0010
0001
0000
0011
0000
0001
,
1000
0000
0100
1000
0000
1001
0000
0001
,
0100
0000
0010
1000
0000
1010
0000
0010
,
0100
0000
0001
0000
1000
0100
0000
0100
,
1000
0000
0010
0100
0000
0101
0000
0001
,
1000
0000
0100
0010
0000
0110
0000
0100
,
1000
0000
0001
0100
0000
0101
0000
0100
,
0010
0000
1000
0000
0010
0100
0000
0100
,
0001
0000
1000
0100
0000
0011
0000
0100
,
1000
0000
0010
1000
0000
1001
0000
0001
,
0100
0000
0010
1000
0000
1100
0000
1000
,
0001
0000
0100
0000
0010
0100
0000
0001
,
0010
0000
0100
1000
0000
1001
0000
0001
,
0100
0000
0010
1000
0100
0010
0001
0100
,
1001
0000
0200
0300
0020
0030
0200
0300
,
0002
0003
2000
3000
0200
0300
0020
0030
,
0002
1003
1001
0000
0001
0000
0010
0000
,
0100
1000
0010
0000
0100
0000
0001
0000
,
1000
0100
0010
0000
0100
0000
1000
0000
,
0010
0100
0001
0000
0010
0000
0001
0000
,
1000
0100
0010
0001
1000
0000
0010
0000
,
0100
0001
0010
0000
0100
0000
1000
0000
,
0010
0100
0001
0000
0010
0000
0001
0000
,
1000
0010
0100
0000
0010
0000
0000
0100
,
0000
0001
1001
0000
0000
0000
0000
0000
;

//---------------dance-single - ----------------
#NOTES:
     dance-single:
     :
     Easy:
     6:
     0.416032,0.413639,0.077316,0.146041,0.034362,339.000000,330.000000,9.000000,17.000000,0.000000,0.000000,0.416032,0.413639,0.077316,0.146041,0.034362,339.000000,330.000000,9.000000,17.000000,0.000000,0.000000:
0000
0000
0000
0000
,
0000
0000
0000
0000
,
0000
0000
0000
0000
,
0000
0000
0000
0000
,
1000
0000
0001
0000
0000
1001
0000
0000
,
0010
0000
0100
0000
0000
0010
0010
0000
,
1000
0000
0010
0000
0000
1010
0000
0000
,
0100
0000
0101
0000
0000
0100
0100
0000
,
0010
0000
1000
0000
0010
1000
0100
0000
,
0010
0000
0100
0000
1000
0001
0100
0000
,
0010
0000
1000
0000
0001
0010
0100
0000
,
1000
0100
0110
0000
,
0010
0000
0001
0000
1000
0010
0100
0000
,
0001
0000
0100
0000
0010
1000
0001
0000
,
0010
0000
0001
0000
1000
0100
0010
0000
,
0100
0000
1100
0000
0000
0001
0001
0000
,
0100
0000
0010
0000
0100
0001
0010
0000
,
0100
0000
0010
0000
0001
0100
0010
0000
,
0100
0000
0001
0000
0010
0100
0010
0000
,
0001
0100
0110
0000
,
0010
0000
1000
0000
0100
0010
0100
0000
,
1000
0000
0010
0000
0100
0010
1000
0000
,
0100
0000
0010
0000
0100
1000
0010
0000
,
0100
0010
0110
0000
,
0010
0000
1000
0000
0001
0010
0100
0000
,
1000
0000
0010
0000
0100
0001
0010
0000
,
0100
0000
1000
0000
0010
0100
0001
0000
,
0010
0100
1001
0000
,
0100
0000
0010
0000
0100
1000
0010
0000
,
0100
0000
0001
0000
0100
0010
1000
0000
,
0001
0000
0010
0000
0100
1000
0001
0000
,
0100
0000
0010
0000
0100
0001
1000
0000
,
0100
0000
0000
0100
0000
0000
0000
0000
0010
0000
0000
0010
0000
0000
0000
0000
,
0001
0000
0000
0001
0000
0000
0000
0000
1000
0000
0000
1000
0000
0000
0000
0000
,
0010
0000
0000
0010
0000
0000
0000
0000
0100
0000
0000
0100
0000
0000
0000
0000
,
0001
0000
0000
0001
0000
0000
0000
0000
1000
0000
0000
1000
0000
0000
0000
0000
,
0002
0003
0002
0003
2000
3000
2000
3000
,
0020
0030
0020
0030
0200
0300
0200
0301
,
0001
1000
0100
1000
,
0100
1000
0001
1000
,
0001
0100
0010
0100
,
0010
1000
0001
1000
,
0001
0010
0100
0000
1000
0000
0100
0000
,
1000
0001
0100
0001
,
0100
0010
1000
0010
,
1000
0100
0010
0100
,
0010
0100
1000
0000
0100
0000
1000
0000
,
0100
1000
0001
1000
,
0001
0100
0001
0100
,
0001
0100
0010
0100
,
0010
1000
0001
0000
1000
0000
0001
0000
,
1000
0100
0010
0100
,
0010
0001
0010
0001
,
0010
0000
0100
1000
0100
0000
0000
1000
,
1000
0001
0100
0001
,
0100
0010
1000
0010
,
1000
0100
0010
0100
,
0010
0001
1000
0001
,
1000
0010
0100
0000
0010
0000
0100
0000
,
0010
1000
0010
1000
,
0010
0100
0001
0100
,
0001
1000
0100
1000
,
0100
1000
0010
0000
1000
0000
0010
0000
,
1000
0001
0010
0001
,
0010
0100
1000
0100
,
1000
0010
0100
0010
,
0100
0001
0010
0000
0001
0000
0010
0000
,
0001
1000
0100
1000
,
0100
1000
0010
1000
,
0010
0000
0100
0001
1000
0000
0000
0100
,
0100
0000
0220
0330
0200
0300
2000
3000
,
2000
3000
0002
0003
0002
0003
0200
0300
,
0200
0310
0010
0000
0100
0000
0010
0000
,
0100
0010
1000
0001
,
1000
0001
0010
0001
,
0010
0001
1000
0100
,
1000
0000
0100
1000
0001
0000
1000
0000
,
0001
1000
0010
0100
,
0010
0100
0001
0010
,
0100
0000
1000
0000
0010
0000
0000
0100
,
0000
0001
0001
0000
0000
0000
0000
0000
;

//---------------dance-single - ----------------
#NOTES:
     dance-single:
     :
     Beginner:
     3:
     0.180403,0.275759,0.025772,0.103087,0.000000,147.000000,144.000000,3.000000,12.000000,0.000000,0.000000,0.180403,0.275759,0.025772,0.103087,0.000000,147.000000,144.000000,3.000000,12.000000,0.000000,0.000000:
0000
0000
0000
0000
,
0000
0000
0000
0000
,
0000
0000
0000
0000
,
0000
0000
0000
0000
,
1000
0000
0000
0000
,
0001
0000
0000
0000
,
0100
0000
0000
0000
,
0010
0000
0000
0000
,
1000
0000
0010
0000
,
1000
0000
1000
0000
,
0001
0000
0010
0000
,
0001
0000
0001
0000
,
1000
0000
0100
0000
,
1000
0000
1000
0000
,
0001
0000
0100
0000
,
0001
0000
0001
0000
,
1000
0000
0100
0000
,
0010
0000
0001
0000
,
1000
0000
0010
0000
,
0100
0000
0001
0000
,
0100
0000
0010
0000
,
1000
0000
0001
0000
,
0010
0000
0100
0000
,
1000
0000
0001
0000
,
0100
0000
0010
0000
,
0100
0000
0001
0000
,
1000
0000
0100
0000
,
1000
0000
0001
0000
,
0010
0000
0001
0000
,
1000
0000
0010
0000
,
1000
0000
0100
0000
,
0010
0000
0100
0000
,
2000
3000
0002
0003
,
2000
3000
0002
0003
,
0200
0300
0020
0030
,
0200
0300
0020
0030
,
0100
0000
0010
0000
,
1000
0000
0001
0000
,
0000
0010
0000
0010
,
0000
0100
0000
0100
,
0000
1000
0000
1000
,
0000
0001
0000
0000
,
0000
0100
0000
0100
,
0000
0010
0000
0010
,
0000
1000
0000
1000
,
0000
0001
0000
0000
,
0000
0010
0000
0001
,
0000
0010
0000
0001
,
0000
1000
0000
0001
,
0000
1000
0000
0000
,
0000
0010
0000
1000
,
0000
0010
0000
1000
,
0000
0100
0000
1000
,
0000
2002
0000
3003
,
0000
0001
0000
0100
,
0000
1000
0000
0100
,
0000
0001
0000
1000
,
0000
0100
0000
0000
,
0000
1000
0000
0010
,
0000
0001
0000
0010
,
0000
1000
0000
0001
,
0000
0010
0000
0000
,
0000
0001
0000
0100
,
0000
1000
0000
0100
,
0000
0010
0000
1000
,
0000
0001
0000
0000
,
0000
1000
0000
0010
,
0000
0001
0000
0010
,
0000
0100
0000
0001
,
0000
2002
0000
3003
,
0000
0001
0001
1000
,
1000
0010
0010
0100
,
0100
0000
0001
0000
,
0001
0000
1000
0000
,
1000
0000
0100
0000
,
0100
0000
0010
0000
,
0010
0000
0001
0000
,
0010
0000
0100
0000
,
1000
0000
0010
0000
,
0100
0000
0001
0000
,
0000
1001
0000
0000
;

//---------------dance-double - ----------------
#NOTES:
     dance-double:
     :
     Hard:
     10:
     0.741248,0.896217,0.309262,0.103087,0.296376,604.000000,568.000000,36.000000,12.000000,0.000000,0.000000,0.741248,0.896217,0.309262,0.103087,0.296376,604.000000,568.000000,36.000000,12.000000,0.000000,0.000000:
00000000
00000000
00000000
00000000
,
00000000
00000000
00000000
00000000
,
00000000
00000000
00000000
00000000
,
00000000
00000000
00000000
00000000
,
00000010
00000001
00000100
00000000
00000000
00001100
00000000
00000000
,
00001000
00010000
01000000
00000000
00000000
11000000
10000000
00000000
,
00100000
10000000
01000000
00000000
00000000
01010000
00000000
00000000
,
00010000
00001000
00000010
00000000
00000000
00000011
00000001
00001000
,
00000001
00000100
00001000
00010000
00000010
00001000
00000100
00000000
,
00010000
00001000
00000100
00001000
01000000
00100000
00010000
00000000
,
10000000
01000000
00010000
00100000
00010000
01000000
00001000
00000000
,
00011000
00000000
00000000
00000000
00010010
00000000
00000000
00000010
00001000
00000000
00000001
00000000
00001001
00000000
00000000
00000000
,
00000100
00000001
00000100
00001000
00010000
00000010
00000010
00000000
,
00010000
00001000
00000010
00000100
00010000
01000000
10000000
00000000
,
00010000
01000000
00100000
00001000
00100000
01000000
00001000
00000000
,
00000010
00000100
00010000
00000000
00000000
00001000
01001000
00000000
,
00010000
00000000
00100000
00000000
00010000
00000000
10000000
01000000
10000000
00000000
01000000
00000000
00100000
00001000
00100000
00000000
,
00001000
00000000
00010000
00000000
00000100
00000000
00000010
00000001
00000010
00000000
00000100
00000000
00010000
00001000
00010000
00000000
,
00000010
00000000
00010000
00000000
00001000
00000000
00100000
00010000
00100000
00000000
01000000
00000000
10000000
00010000
10000000
00000000
,
01000000
00010000
00001000
00000100
00000001
00000010
00000001
00000000
,
00001000
00000000
00000010
00000000
00001000
00000000
00000001
00000100
00000001
00000000
00000100
00000000
00000010
00010000
00000010
00000000
,
00010000
00000000
00001000
00000000
01000000
00000000
00100000
10000000
00100000
00000000
01000000
00000000
00001000
00010000
00001000
00000000
,
00100000
00000000
00001000
00000000
00010000
00000000
00000010
00001000
00000010
00000000
00000100
00000000
00000001
00001000
00000001
00000000
,
00000100
00001000
00010000
01000000
10000000
00100000
10000000
00000000
,
10000000
00000000
00100000
00000000
00010000
00000000
00100000
00000000
01000000
00001000
01000000
00000000
00001000
00000000
00000000
00000000
,
00010000
00000000
00001000
00000000
00000100
00000000
00000001
00000000
00001000
00000010
00001000
00000000
00000001
00000000
00000000
00000000
,
00001000
00000100
00000001
00001000
00010000
00001000
00000100
00000010
,
00010000
00100000
01000000
00001000
00010000
00100000
10000000
00000000
,
10000000
00000000
01000000
00000000
00010000
00000000
01000000
00000000
00100000
00001000
00100000
00000000
00001000
00000000
00000000
00000000
,
00010000
00000000
00001000
00000000
00000010
00000000
00000001
00000000
00001000
00000100
00001000
00000000
00000001
00000000
00000000
00000000
,
00001000
00000000
00000010
00000000
00000100
00000000
00000001
00000000
00000010
00000100
00000010
00000000
00001000
00010000
00001000
00010000
,
00001000
00010000
01000000
00000000
10000000
00100000
01000000
00010000
,
10010000
00000000
00000000
10000000
00000000
00000000
20000000
00000000
00000000
00000000
00000000
00000000
00000000
00000000
00000000
00000000
30010000
00000000
00000000
00010000
00000000
00000000
00020000
00000000
00000000
00000000
00000000
00000000
00000000
00000000
00000000
00000000
,
00031000
00000000
00000000
00001000
00000000
00000000
00002000
00000000
00000000
00000000
00000000
00000000
00000000
00000000
00000000
00000000
00003001
00000000
00000000
00000001
00000000
00000000
00000002
00000000
00000000
00000000
00000000
00000000
00000000
00000000
00000000
00000000
,
00000103
00000000
00000000
00001000
00000000
00000000
00010000
00000000
00000000
00000000
00000000
00000000
00000000
00000000
00000000
00000000
01000000
00000000
00000000
00010000
00000000
00000000
00001000
00000000
00000000
00000000
00000000
00000000
00000000
00000000
00000000
00000000
,
00000010
00000000
00000000
00001000
00000000
00000000
00010000
00000000
00000000
00000000
00000000
00000000
00000000
00000000
00000000
00000000
00100000
00000000
00000000
00010000
00000000
00000000
00001000
00000000
00000000
00000000
00000000
00000000
00000000
00000000
00000000
00000000
,
00020000
00030000
00200000
00300000
20000000
30000000
02000000
03000000
,
00020000
00030000
00002000
00003000
00000200
00000300
00000002
00001003
,
00000100
00000010
00000100
00000010
00000100
00000000
00010000
00000000
00001000
00000000
00011000
00000000
00000000
00000000
00010000
00000000
,
01000000
10000000
00010000
10000000
00100000
10100000
00000000
10000000
,
01000000
00010000
00001000
00100000
00010000
00110000
00000000
00100000
,
00001000
00010000
00000100
00000010
00000001
00000011
00000000
00000010
,
00001000
00010000
00000100
00001000
00000010
00010010
00000000
00010000
,
00001000
00010000
01000000
10000000
00100000
01000000
00000000
10000000
,
01000000
00001000
00010000
01000000
00100000
00001000
00000000
00000100
,
00000001
00000000
00001000
00000010
00001010
00000000
00000010
00010000
,
00011000
00000000
00010000
01000000
01010000
00000000
01000000
10000000
,
11000000
00000000
00010000
00100000
01000000
10000000
00100000
01000000
,
00010000
00001000
00010000
01000000
00001000
00010000
00000010
00001000
,
00000001
00000000
00001000
00000100
00001100
00000000
00000100
00010000
,
00011000
00000000
00010000
00100000
00110000
00000000
00100000
10000000
,
10100000
00000000
00010000
01000000
10000000
00010000
00001000
00010000
,
00100000
00010000
00000100
00000010
00000001
00000101
00000000
00000100
,
00001000
00000000
00000000
00000000
00010000
00000000
00100000
00000000
10000000
00000000
00010000
01000000
00000000
01000000
00100000
00000000
,
10000000
00000000
01000000
00000000
00010000
00000000
00001000
00000000
00000100
00000000
00000001
00000010
00000001
00000000
00001000
00000000
,
00000100
00000000
00000000
00000000
00000001
00000000
00000100
00000000
00010000
00000000
00001000
00000000
00000010
00000001
00000010
00000000
,
00000100
00000000
00010000
00001000
00010000
00000000
00000010
00000000
00010000
00000000
00001000
00000000
00100000
01000000
00100000
00000000
,
00010000
00000000
00000000
00000000
10000000
00000000
01000000
00000000
00010000
00000000
00001000
00100000
00000000
00100000
00010000
00000000
,
00001000
00000000
00000100
00000000
00000001
00000000
00000100
00000000
00001000
00000000
00000010
00010000
00000010
00000000
00010000
00000000
,
00001000
00000000
00000000
00000000
00100000
00000000
00010000
00000000
10000000
00000000
01000000
00100000
01000000
00000000
10000000
00000000
,
00010000
00000000
00100000
01000000
00100000
00000000
00001000
00000000
00010000
00000000
00001000
00000000
00000100
00000000
00000001
00000000
,
00000010
00000000
00000000
00000000
00001000
00000000
00010000
00000000
00000100
00000000
00000010
00000100
00000010
00000000
00000100
00000000
,
00010000
00000000
01000000
10000000
00010000
10000000
00100000
00010000
,
00011000
00000000
00000100
00000001
00000010
00001000
00000010
00000001
,
00001000
00000000
00000100
00010000
00000100
00000000
00010000
00000000
00011000
00000000
00001000
00000000
01000000
00000000
00010000
00000000
,
10010000
00000000
00000000
00000000
00100000
00000000
10000000
00000000
01000000
00000000
00010000
00001000
00000000
00001000
00100000
00000000
,
01000000
00010000
00001000
00000100
00000001
00000010
00000001
00001000
,
00000100
00000000
00000000
00000000
00000001
00000000
00000100
00000000
00001000
00000000
00000010
00010000
00000000
00010000
00001000
00000000
,
00000100
00000000
00000001
00000010
00000001
00000000
00001000
00000000
00000100
00000000
00010000
00000000
01000000
00000000
10000000
00000000
,
00100000
00000000
00000000
00000000
01000000
00000000
01000000
00000000
00001000
00000000
00010000
00001000
00000000
00001000
00100000
00000000
,
00101000
00000000
00000000
00000000
00001000
00000000
00010000
00000000
00000010
00000000
00000000
00001010
00000000
00000000
00000000
00000000
00001000
00000000
00000000
00001001
00000000
00000000
00000000
00000000
00000001
00000000
00000000
00000101
00000000
00000000
00000000
00000000
,
00000100
00000000
00000000
00001100
00000000
00000000
00000000
00000000
00010000
00000000
00000000
00110000
00000000
00000000
00000000
00000000
00100000
00000000
00000000
10100000
00000000
00000000
00000000
00000000
01000000
00000000
00000000
10010000
00000000
00000000
00000000
00000000
,
00100000
00000000
10000000
00000000
00010000
01000000
00010000
01000000
00010000
00000000
10000000
00000000
01000000
00000000
00010000
00000000
,
00001000
00000100
00000001
00000000
00001000
00000100
00000001
00000100
,
00000010
00001000
00010000
00000000
01000000
10000000
00100000
00010000
,
10000000
01000000
00001000
00010000
00000010
00000001
00001000
00000100
,
00000001
00000010
00000001
00000000
00001001
00000000
00000000
00000000
00001000
00000000
00000001
00000000
00000100
00000000
00001000
00000000
,
00010000
01000000
10000000
00000000
00010000
01000000
10000000
01000000
,
00100000
00010000
00001000
00000000
00000100
00000001
00000010
00001000
,
00000001
00000100
00010000
00001000
00100000
00000000
00000000
01000000
,
00000000
10000000
10010000
00000000
00000000
00000000
00000000
00000000
;

//---------------dance-double - ----------------
#NOTES:
     dance-double:
     :
     Challenge:
     11:
     0.926560,0.930687,0.309262,0.197584,0.884834,755.000000,719.000000,36.000000,23.000000,0.000000,0.000000,0.926560,0.930687,0.309262,0.197584,0.884834,755.000000,719.000000,36.000000,23.000000,0.000000,0.000000:
00000000
00000000
00000000
00000000
,
00000000
00000000
00000000
00000000
,
00000000
00000000
00000000
00000000
,
00000000
00000000
00000000
00000000
,
10000000
01000000
00010000
00000000
00000000
00011000
00000000
00000000
,
00001000
00000100
00000001
00000000
00000000
00000100
00000110
00000000
,
00000001
00000010
00001000
00000000
00000000
00011000
00000000
00000000
,
00010000
00000000
00100000
00000000
10000000
00000000
00000000
00000000
00000000
00000000
00010000
00000000
10000000
01000000
10000000
01000000
,
00100000
00000000
00001000
00000000
00010000
00000000
00000100
00000000
00000010
00000001
00000010
00000001
00001000
00000000
00000100
00000000
,
00010000
00000000
00001000
00000000
00000010
00000000
00000001
00000000
00001000
00000100
00001000
00000000
00000010
00000000
00010000
00001000
,
00100000
00000000
00010000
00000000
10000000
00000000
01000000
00010000
01000000
00010000
01000000
00000000
00100000
00000000
00001000
00000000
,
00010000
00000000
01000000
00000000
00100000
00000000
00001000
00010000
00001000
00010000
00000010
00000000
00001010
00000000
00000000
00000000
,
00001000
00000001
00000010
00001000
00000001
00000100
00010000
00000000
,
00001000
00000000
00100000
00000000
00010000
10000000
01000000
10000000
01000000
00000000
00010000
00000000
00001000
00100000
00001000
00100000
,
00010000
00000000
00100000
00000000
00001000
00000000
00010000
00000010
00010000
00000000
00000100
00000000
00000010
00000000
00000000
00000000
,
00001000
00000010
00000001
00000000
00000000
00000100
00001000
00000000
,
00010000
00000000
01000000
00000000
10000000
00000000
00100000
01000000
00010000
01000000
00100000
00000000
10000000
00000000
00010000
00100000
,
00001000
00000000
00010000
00000000
00000010
00000000
00001000
00000100
00000010
00000100
00001000
00000000
00000001
00000010
00000100
00001000
,
00000001
00000000
00000010
00000000
00001000
00000000
00010000
00001000
00010000
00100000
00010000
00000000
00001000
00000000
01000000
00000000
,
00010000
00000000
10000000
00000000
01000000
00000000
00000000
00000000
00010000
00001000
00010000
00000000
00000010
00000000
00010000
00000000
,
00001000
00000000
00000100
00000000
00000001
00000000
00000010
00000100
00001000
00000100
00000010
00000000
00000001
00000000
00001000
00000010
,
00010000
00000000
00001000
00000000
00100000
00000000
00010000
01000000
00100000
01000000
00010000
00000000
10000000
00100000
01000000
00010000
,
10000000
00000000
00100000
00000000
00010000
00000000
00001000
00010000
00001000
00000010
00001000
00000000
00010000
00000000
00000100
00000000
,
00001000
00000000
00000001
00000000
00000100
00000000
00000010
00001000
00000001
00001000
00000010
00000000
00000110
00000000
00000000
00000000
,
00001000
00000000
00000010
00000000
00010000
00000000
00000100
00010000
00000100
00010000
00001000
00000000
00100000
00010000
00100000
00010000
,
10000000
00000000
01000000
00000000
00100000
00000000
00010000
01000000
00010000
01000000
00001000
00000000
00010000
00000010
00010000
00000010
,
00001000
00000000
00000100
00000000
00000001
00000000
00000100
00000010
00000100
00000010
00000001
00000000
00000100
00001000
00000100
00001000
,
00010000
00000000
01000000
00000000
10000000
00000000
00100000
01000000
00100000
00000000
10000000
00000000
10010000
00000000
00000000
00000000
,
00010000
00000000
00100000
00000000
00001000
00000000
01000000
00001000
01000000
00001000
00010000
00000000
00000010
00001000
00000010
00001000
,
00000001
00000000
00000100
00000000
00000010
00000000
00001000
00000100
00001000
00000100
00010000
00000000
00001000
00100000
00001000
00100000
,
00010000
00000000
01000000
00000000
10000000
00000000
01000000
00100000
01000000
00100000
10000000
00000000
01000000
00010000
01000000
00010000
,
00001000
00000000
00000100
00000000
00000001
00000000
00000010
00000100
00000010
00000000
00000001
00000000
00001001
00000000
00000000
00000000
,
00000012
00000000
00000000
00000010
00000000
00000000
00000010
00000000
00000000
00000000
00000000
00000000
00000003
00000000
00000000
00000000
00002010
00000000
00000000
00000010
00000000
00000000
00000010
00000000
00000000
00000000
00000000
00000000
00003000
00000000
00000000
00000000
,
01020000
00000000
00000000
01000000
00000000
00000000
01000000
00000000
00000000
00000000
00000000
00000000
00030000
00000000
00000000
00000000
21000000
00000000
00000000
01000000
00000000
00000000
01000000
00000000
00000000
00000000
00000000
00000000
30000000
00000000
00000000
00000000
,
00120000
00000000
00000000
00100000
00000000
00000000
00100000
00000000
00000000
00000000
00000000
00000000
00030000
00000000
00000000
00000000
00002100
00000000
00000000
00000100
00000000
00000000
00000100
00000000
00000000
00000000
00000000
00000000
00003000
00000000
00000000
00000000
,
00000012
00000000
00000000
00000010
00000000
00000000
00000010
00000000
00000000
00000000
00000000
00000000
00000003
00000000
00000000
00000000
00002010
00000000
00000000
00000010
00000000
00000000
00000010
00000000
00000000
00000000
00000000
00000000
00003000
00000000
00000000
00000000
,
00000002
00000003
00000200
00000300
00000020
00000030
00002000
00003000
,
00020000
00030000
02000000
03000000
00200000
00300000
20000000
30000000
,
00010000
00000000
01000000
00000000
00010000
00000000
10000000
00000000
00100000
00000000
00010000
00001000
01000000
00001000
00010000
00000000
,
00000010
00001000
00000100
00000001
00001000
00000010
00000001
00000100
,
00001000
00010000
00001000
00010000
00001000
00000000
01000000
00000000
00010000
00000000
10000000
01000000
00100000
01000000
10000000
00000000
,
00010000
00000000
00100000
00000000
00001000
00000000
00010000
00000000
00000100
00000000
00000010
00000001
00000000
00000001
00000010
00000000
,
00000110
00000000
00000000
00000000
00001000
00000000
00000001
00000000
00000010
00000000
00001000
00010000
00000100
00010000
00001000
00000000
,
00100000
00010000
01000000
10000000
00010000
00100000
10000000
01000000
,
00010000
00001000
00010000
00001000
00010000
00000000
00000100
00000000
00001000
00000000
00000001
00000100
00000010
00000100
00000001
00000000
,
00001000
00000000
00000010
00000000
00010000
00000000
00001000
00000000
01000000
00000000
00100000
10000000
00000000
10000000
00100000
00000000
,
01100000
00000000
00000000
00000000
10000000
00000000
00010000
01000000
00010000
00000000
10000000
01000000
00000000
00100000
00001000
00000000
,
00010000
00000000
00000100
00001000
00000100
00000000
00010000
00001000
00000010
00000000
00000001
00000100
00000000
00000010
00010000
00000000
,
00001000
00100000
00001000
00100000
00010000
00000000
10000000
00100000
01000000
00000000
00001000
00010000
00000000
01000000
10000000
00000000
,
00100000
01000000
00100000
00000000
00010000
00000000
00001000
01000000
00010000
00000000
00100000
00001000
00000000
00010000
00000100
00000000
,
00000010
00000001
00000010
00000100
00001000
00000000
00000010
00000100
00000010
00000000
00010000
00001000
00000000
00001000
01000000
00000000
,
10000000
01000000
00010000
00000000
00100000
00001000
00010000
00000000
01000000
00000000
10000000
00100000
00000000
01000000
00010000
00000000
,
00100000
00001000
00100000
00001000
00010000
00000000
00000100
00000010
00000001
00000000
00001000
00000010
00000000
00000100
00001000
00000000
,
00010000
01000000
10000000
00000000
00010000
10000000
01000000
00000000
00100000
00000000
00001000
00010000
00000000
01000000
00100000
00000000
,
01100000
00000000
00000000
00000000
00010000
10000000
01000000
10000000
00010000
00000000
01000000
00000000
01001000
00000000
00001000
00000000
,
00010000
00000100
00000010
00000100
00001000
00000000
00000001
00000000
00000101
00000000
00000100
00000000
00000010
00001000
00000010
00000000
,
00010000
00000000
00001000
00000000
00000100
00000000
00000001
00000000
00001000
00000000
00000100
00010000
00000000
00010000
00001000
00000000
,
00011000
00000000
00000000
00000000
01000000
00000000
10000000
00000000
10100000
00000000
00100000
00010000
00000000
00010000
00001000
00000000
,
00011000
00000000
00000000
00000000
00000100
00000000
00000001
00000000
00000011
00000000
00000010
00001000
00000000
00001000
00010000
00000000
,
00011000
00000000
00000000
00000000
00100000
00000000
10000000
00000000
11000000
00000000
01000000
00010000
00000000
00010000
00001000
00000000
,
00011000
00000000
00010000
00001000
00000100
00000000
00000001
00000000
00000011
00000000
00000010
00000100
00000000
00000100
00001000
00000000
,
00001100
00000000
00000000
00000000
00010000
00000000
00000010
00001000
00000010
00000000
00010000
00001000
00000000
01000000
00010000
00000000
,
10000000
00000000
00100000
00000000
01000000
00000000
00001000
00010000
00001000
00000000
00100000
00001000
00000000
00010000
00000100
00000000
,
00000010
00000000
00000001
00000100
00000001
00000100
00000010
00000100
00000010
00000000
00010000
00001000
00000000
00001000
01000000
00000000
,
00100000
10000000
00100000
10000000
00100000
00000000
10000000
00000000
01000000
00000000
00010000
00001000
00000000
00001000
00100000
00000000
,
00110000
00000000
00000000
00000000
00001000
00000000
00010000
00000000
00011000
00000000
00001000
00000100
00000000
00000100
00000001
00000000
,
00000010
00000000
00000001
00001000
00000001
00000000
00000100
00000000
00001000
00000000
00010000
00000010
00010000
00000000
00001000
00000000
,
00100000
00000000
00010000
00000000
10000000
00000000
01000000
00000000
00010000
00000000
00001000
00100000
00000000
00100000
01000000
00000000
,
10000000
00010000
10000000
00010000
01000000
00000000
00001000
00000000
00010000
00000000
00000100
00000010
00000000
00000010
00001000
00000000
,
00010000
00000100
00010000
00000100
00001000
00000000
00000001
00000000
00000011
00000000
00000010
00001000
00000000
00001000
00010000
00000000
,
00011000
00000000
00000000
00000000
00000000
00000000
00000000
00000000
00012000
00000000
00000000
00100000
00000000
00000000
00000000
00000000
02003000
00000000
00000000
00010000
00000000
00000000
00000000
00000000
03200000
00000000
00000000
10000000
00000000
00000000
00000000
00000000
,
02300000
00000000
00000000
00010000
00000000
00000000
00000000
00000000
03002000
00000000
00000000
00100000
00000000
00000000
00000000
00000000
00023000
00000000
00000000
00000100
00000000
00000000
00000000
00000000
00030020
00000000
00000000
00001000
00000000
00000000
00000000
00000000
,
00000130
00000000
00000001
00000000
00001000
00000010
00001000
00000010
00001000
00000000
00000100
00000000
00010000
00000000
00001000
01000000
,
00001000
01000000
00010000
00000000
10000000
00000000
01000000
00000000
00100000
00000000
00010000
00000000
10000000
00000000
00010000
00100000
,
00010000
00100000
00001000
00000000
00010000
00000000
00000100
00000000
00000001
00000000
00001000
00000000
00000010
00000000
00000001
00000100
,
00000010
00000100
00000001
00000000
00000100
00000000
00001000
00000000
00010000
00000000
00100000
00000000
10000000
00000000
00010000
01000000
,
00100000
01000000
00010000
00000000
10000000
00010000
00100000
00000000
01000000
00010000
00001000
00000000
00100000
00000000
00001000
00010000
,
00000010
00010000
00001000
00000000
00000100
00000001
00001000
00000100
00000010
00000001
00001000
00000000
00000010
00000000
00010000
00000100
,
00010000
00001000
00010000
00000000
00001000
01000000
00010000
10000000
01000000
00000000
00010000
00001000
00010000
00000000
00100000
10000000
,
00010000
10000000
01000000
00000000
00010000
00001000
00000100
00000001
00000000
00000000
00000000
00000000
00000000
00000000
00000110
00000000
,
00000000
00001000
00001001
00000000
00000000
00000000
00000000
00000000
;

//---------------dance-double - ----------------
#NOTES:
     dance-double:
     :
     Medium:
     8:
     0.539982,0.551518,0.240537,0.137450,0.034362,440.000000,412.000000,28.000000,16.000000,0.000000,0.000000,0.539982,0.551518,0.240537,0.137450,0.034362,440.000000,412.000000,28.000000,16.000000,0.000000,0.000000:
00000000
00000000
00000000
00000000
,
00000000
00000000
00000000
00000000
,
00000000
00000000
00000000
00000000
,
00000000
00000000
00000000
00000000
,
00010000
00000000
00001000
00000000
00000000
00101000
00000000
00000000
,
00100000
00000000
00010000
00000000
00000000
10000000
01000000
00000000
,
00010000
00000000
00001000
00000000
00000000
00001010
00000000
00000000
,
00000001
00000000
00001001
00000000
00000000
00001000
00000100
00001000
,
00000001
00000000
00000100
00001000
00000000
00001000
00010000
00000000
,
00100000
00000000
10000000
01000000
00000000
01000000
00100000
00001000
,
00010000
00000000
00100000
00010000
00000000
00001000
00000010
00000000
,
00000001
00000000
00000100
00000010
00000000
00010000
00000100
00010000
,
00001000
00000000
00100000
00010000
00000000
10000000
01000000
00000000
,
00100000
00000000
00010000
01000000
00000000
00100000
10000000
00000000
,
01000000
00000000
00010000
00001000
00000010
00000100
00000010
00000000
,
00000001
00000000
00001000
00000000
00000000
00000010
00000100
00000000
,
00000010
00001000
00000000
00000001
00000100
00000010
00010000
00000000
,
00001000
00000000
00100000
00001000
00100000
00010000
00100000
00000000
,
01000000
00000000
10000000
00000000
00100000
00010000
00001000
00000000
,
00000100
00000000
00000001
00000010
00000001
00000000
00001001
00000000
,
00001000
00000100
00000010
00000000
00000001
00001000
00000100
00000000
,
00000010
00001000
00010000
00000100
00010000
00001000
00100000
00000000
,
00010000
10000000
01000000
00000000
00100000
00001000
00010000
00000000
,
00001000
01000000
00010000
01000000
00001000
00010000
00000010
00000000
,
00001000
00000010
00000100
00000000
00000001
00001000
00000010
00000000
,
00000100
00001000
00010000
00000010
00010000
00001000
01000000
00000000
,
00010000
10000000
00100000
00000000
01000000
00001000
00010000
00000000
,
00001000
00000100
00000001
00000000
00000010
00000001
00001000
00000000
,
00001010
00000000
00000010
00010000
00000000
00001000
00100000
00000000
,
10010000
00000000
01000000
00010000
10000000
01000000
00100000
00000000
,
00101000
00000000
00001000
00010000
00000000
00010000
00000100
00000000
,
00000110
00000000
00000001
00000000
00001000
00000100
00001000
00000000
,
00000011
00000000
00000000
00001000
00000000
00000000
00000000
00000000
00001010
00000000
00000000
00000100
00000000
00000000
00000000
00000000
,
00010100
00000000
00000000
00001000
00000000
00000000
00000000
00000000
01001000
00000000
00000000
00010000
00000000
00000000
00000000
00000000
,
10010000
00000000
00000000
01000000
00000000
00000000
00000000
00000000
01001000
00000000
00000000
00010000
00000000
00000000
00000000
00000000
,
00011000
00000000
00000000
00000100
00000000
00000000
00000000
00000000
00000101
00000000
00000000
00001000
00000000
00000000
00000000
00000000
,
00000002
00000003
00000020
00000030
00000200
00000300
00002000
00003000
,
00020000
00030000
00200000
00300000
02000000
03000000
20000000
30010000
,
10010000
00000000
10000000
00000000
01000000
00010000
00000000
00010000
,
00001000
00000000
00000100
00000000
00000101
00000000
00001000
00000001
,
00000100
00000000
00000001
00000000
00000010
00001000
00000000
00001000
,
00010000
00000000
00100000
00000000
10000000
01000000
00100000
00010000
,
10000000
00000000
10000000
00000000
00100000
00000000
00010000
00001000
,
00000100
00000000
00000001
00000000
00001000
00000000
00000001
00000100
,
00001000
00000000
00010000
00000000
01000000
00000000
10000000
00100000
,
00010000
00000000
00001000
00000000
00000100
00000001
00001000
00000001
,
00000010
00000000
00000011
00000000
00000001
00000100
00000001
00000100
,
00001000
00000000
00011000
00000000
00010000
01000000
00010000
01000000
,
10000000
00000000
10100000
00000000
00100000
10000000
00100000
10000000
,
01000000
00000000
01010000
00000000
00010000
00001000
00010000
00001000
,
00000100
00000000
00000101
00000000
00000001
00000010
00000001
00000010
,
00001000
00000000
00011000
00000000
00010000
00100000
00010000
00100000
,
10000000
00000000
11000000
00000000
01000000
10000000
01000000
10000000
,
00100000
00000000
00010000
00001000
00000100
00000010
00001000
00000100
,
00000010
00000000
00000001
00000000
00000100
00000000
00001000
00010000
,
00000010
00000000
00001000
00000000
00000100
00000000
00010000
00001000
,
00100000
00000000
00010000
00000000
10000000
00000000
00100000
01000000
,
00001000
00000000
00100000
00010000
00100000
00001000
00010000
00000010
,
00000100
00000000
00000001
00000000
00000010
00001000
00000000
00010000
,
00000100
00000000
00001000
00000000
00000010
00010000
00000000
00001000
,
01000000
00000000
00010000
00000000
10000000
01000000
00000000
00100000
,
00001000
00000000
01000000
00010000
01000000
00001000
00010000
00000100
,
00000010
00000000
00000001
00000100
00001000
00000100
00000000
00000010
,
00010000
00000000
00001000
01000000
00001000
00010000
00000000
00100000
,
10000000
00000000
00010000
00100000
10000000
00100000
00000000
01000000
,
00010000
00000000
00001000
00000100
00000001
00001000
00000010
00000100
,
00000001
00000000
00001000
00000001
00000100
00001000
00000000
00010000
,
00000100
00000000
00010000
00001000
00100000
00010000
00000000
10000000
,
00100000
00000000
10000000
01000000
00010000
01000000
00000000
00100000
,
00001000
00000000
00010000
00000100
00010000
00000100
00000010
00000001
,
00001000
00000000
00000002
00000003
00000200
00000300
00000020
00000030
,
00002000
00003000
00020000
00030000
02000000
03000000
00200000
00300000
,
20000000
30010000
10010000
00000000
10000000
00000000
00100000
00010000
,
00000000
00010000
00001000
00000000
00000010
00000000
00000011
00000000
,
00001000
00000001
00000010
00000000
00000001
00000000
00000100
00001000
,
00000000
00001000
00010000
00000000
01000000
00000000
10000000
00100000
,
01000000
00010000
10000000
00000000
00010000
00000000
00100000
00001000
,
00000000
00001000
00010000
00000000
00000100
00000000
00000010
00000001
,
00000000
00001000
00000010
00000000
00010000
00000000
00001000
00100000
,
00000000
00010000
01000000
00000000
00100000
00000000
00000000
10000000
,
00000000
00010000
10010000
00000000
00000000
00000000
00000000
00000000
;

//---------------dance-double - ----------------
#NOTES:
     dance-double:
     :
     Easy:
     6:
     0.406214,0.379169,0.025772,0.137450,0.034362,331.000000,328.000000,3.000000,16.000000,0.000000,0.000000,0.406214,0.379169,0.025772,0.137450,0.034362,331.000000,328.000000,3.000000,16.000000,0.000000,0.000000:
// measure 0
00000000
00000000
00000000
00000000
,  // measure 1
00000000
00000000
00000000
00000000
,  // measure 2
00000000
00000000
00000000
00000000
,  // measure 3
00000000
00000000
00000000
00000000
,  // measure 4
00000010
00000000
00001000
00000000
00000000
00001001
00000000
00000000
,  // measure 5
00000010
00000000
00010000
00000000
00000000
00001000
00001000
00000000
,  // measure 6
00100000
00000000
00010000
00000000
00000000
10010000
00000000
00000000
,  // measure 7
00100000
00000000
00001000
00000000
00000000
00010000
00010000
00000000
,  // measure 8
00001000
00000000
00000100
00000000
00000001
00000010
00000100
00000000
,  // measure 9
00010000
00000000
00001000
00000000
00100000
00010000
10000000
00000000
,  // measure 10
01000000
00000000
00100000
00000000
00000000
00001000
00010000
00000000
,  // measure 11
00000100
00000000
00000010
00000000
00000001
00001000
00000100
00000000
,  // measure 12
00010000
00000000
01000000
00000000
10000000
00100000
01000000
00000000
,  // measure 13
00001000
00000000
00010000
00000000
00000010
00001000
00000001
00000000
,  // measure 14
00000100
00000000
00000010
00000000
00000000
00010000
00001000
00000000
,  // measure 15
01000000
00000000
00100000
00000000
00000000
10000000
10000000
00000000
,  // measure 16
00010000
00000000
01000000
00000000
00001000
00010000
00000100
00000000
,  // measure 17
00000010
00000000
00000001
00000000
00001000
00000100
00010000
00000000
,  // measure 18
00001000
00000000
01000000
00000000
00100000
10000000
00010000
00000000
,  // measure 19
01000000
00001000
00010000
00000010
,  // measure 20
00001000
00000000
00000100
00000000
00010000
00001000
01000000
00000000
,  // measure 21
00100000
00000000
10000000
00000000
00010000
01000000
00001000
00000000
,  // measure 22
00010000
00000000
00000100
00000000
00000010
00000001
00001000
00000000
,  // measure 23
00000100
00010000
00001000
01000000
,  // measure 24
00010000
00000000
00100000
00000000
00001000
00010000
00000010
00000000
,  // measure 25
00000100
00000000
00000001
00000000
00001000
00000010
00010000
00000000
,  // measure 26
00001000
00000000
00100000
00000000
01000000
10000000
00010000
00000000
,  // measure 27
00100000
00001000
00010000
00000100
,  // measure 28
00001000
00000000
00000010
00000000
00010000
00001000
00100000
00000000
,  // measure 29
01000000
00000000
10000000
00000000
00010000
00100000
00001000
00000000
,  // measure 30
00010000
00000000
00000010
00000000
00000100
00000001
00001000
00000000
,  // measure 31
00000010
00010000
00001000
01000000
,  // measure 32
00010000
00000000
00000000
00010000
00000000
00000000
00000000
00000000
10000000
00000000
00000000
10000000
00000000
00000000
00000000
00000000
,  // measure 33
01000000
00000000
00000000
01000000
00000000
00000000
00000000
00000000
00010000
00000000
00000000
00010000
00000000
00000000
00000000
00000000
,  // measure 34
00001000
00000000
00000000
00001000
00000000
00000000
00000000
00000000
00000100
00000000
00000000
00000100
00000000
00000000
00000000
00000000
,  // measure 35
00000001
00000000
00000000
00000001
00000000
00000000
00000000
00000000
00001000
00000000
00000000
00001000
00000000
00000000
00000000
00000000
,  // measure 36
00000002
00000003
00002000
00003000
00000020
00000030
00020000
00030000
,  // measure 37
00002000
00003000
00200000
00300000
00020000
00030000
20000000
30000000
,  // measure 38
00010000
10000000
01000000
10000000
,  // measure 39
01000000
10000000
00010000
01000000
,  // measure 40
00010000
01000000
00001000
01000000
,  // measure 41
00001000
00010000
00001000
00010000
,  // measure 42
00000010
00010000
00001000
00000000
00010000
00000000
00000010
00000000
,  // measure 43
00001000
00000010
00001000
00000001
,  // measure 44
00000100
00000001
00000100
00000010
,  // measure 45
00010000
00000010
00010000
00001000
,  // measure 46
00010000
00001000
00010000
00001000
,  // measure 47
01000000
00010000
01000000
00010000
,  // measure 48
10000000
00010000
10000000
00010000
,  // measure 49
10000000
01000000
10000000
01000000
,  // measure 50
00100000
00001000
00010000
00000000
00001000
00000000
00010000
00000000
,  // measure 51
00001000
00010000
00000100
00010000
,  // measure 52
00000100
00001000
00000001
00001000
,  // measure 53
00000010
00000000
00010000
00001000
00010000
00000000
00000000
00001000
,  // measure 54
00001000
01000000
00001000
01000000
,  // measure 55
00010000
01000000
00010000
10000000
,  // measure 56
00010000
10000000
00100000
10000000
,  // measure 57
00100000
01000000
00100000
01000000
,  // measure 58
00010000
01000000
00001000
00000000
01000000
00000000
00001000
00000000
,  // measure 59
00010000
00000100
00010000
00000100
,  // measure 60
00001000
00000001
00001000
00000001
,  // measure 61
00000010
00000001
00000010
00000100
,  // measure 62
00001000
00000010
00010000
00000000
00000010
00000000
00010000
00000000
,  // measure 63
00000010
00010000
00001000
00010000
,  // measure 64
00001000
00100000
00001000
00100000
,  // measure 65
00010000
01000000
00010000
01000000
,  // measure 66
00100000
10000000
00010000
00000000
10000000
00000000
00010000
00000000
,  // measure 67
01000000
00001000
01000000
00001000
,  // measure 68
00010000
00000100
00010000
00000100
,  // measure 69
00001000
00000001
00000010
00000100
,  // measure 70
00010000
00000000
00012000
00003000
02000000
03000000
00020000
00030000
,  // measure 71
20000000
30000000
00200000
00300000
00020000
00030000
00002000
00003000
,  // measure 72
00000020
00000031
00000001
00000000
00000100
00000000
00000001
00000000
,  // measure 73
00000100
00000010
00001000
00000010
,  // measure 74
00001000
00000100
00010000
00000100
,  // measure 75
00010000
00001000
00100000
00001000
,  // measure 76
00100000
00010000
01000000
00010000
,  // measure 77
01000000
00100000
10000000
00100000
,  // measure 78
10000000
01000000
10000000
01000000
,  // measure 79
00100000
00000000
00001000
00000000
00010000
00000000
00000000
00000010
,  // measure 80
00000000
00001000
00001000
00000000
00000000
00000000
00000000
00000000
;
