#TITLE:Zenius -I- vanisher;
#SUBTITLE:;
#ARTIST:Tatsh;
#TITLETRANSLIT:;
#SUBTITLETRANSLIT:;
#ARTISTTRANSLIT:;
#GENRE:;
#CREDIT:;
#BANNER:Zenius -I- vanisher.png;
#BACKGROUND:Zenius -I- vanisher-bg.png;
#LYRICSPATH:;
#CDTITLE:;
#MUSIC:Zenius -I- vanisher.ogg;
#OFFSET:-0.030000;
#SAMPLESTART:44.263000;
#SAMPLELENGTH:15.000000;
#SELECTABLE:YES;
#BPMS:0.000000=80.000000
,25.000000=160.000000
;
#STOPS:197.000000=0.375000
;
#BGCHANGES:0.000=Zenius -I- vanisher.avi=1.000=1=0=0=StretchNoLoop==CrossFade==,
99999=-nosongbg-=1.000=0=0=0 // don't automatically add -songbackground-
;
#KEYSOUNDS:;
#ATTACKS:;

//---------------dance-single - ----------------
#NOTES:
     dance-single:
     :
     Hard:
     8:
     0.518544,0.532711,0.164635,0.290071,0.039199,463.000000,442.000000,21.000000,37.000000,0.000000,0.000000,0.518544,0.532711,0.164635,0.290071,0.039199,463.000000,442.000000,21.000000,37.000000,0.000000,0.000000:
0000
0000
0000
0000
,
0102
1000
0010
0103
,
2010
0100
0001
3100
,
0012
0100
0010
1003
,
2100
0001
0100
3010
,
0100
0000
0100
0000
0001
1000
0020
0000
,
0000
0000
0000
0030
,
0000
1000
0100
1000
,
0010
0100
0001
0010
,
0001
1000
0100
0001
,
0100
0000
1000
0000
0010
0000
0100
0001
,
0010
0100
1000
0100
0010
0001
0100
0010
,
1000
0100
0001
0100
1000
0010
0100
0001
,
0010
0001
1000
0010
1000
0100
0010
0001
,
1000
0010
0001
0010
2000
0000
3000
0000
,
1001
0000
1000
0100
0010
0100
1000
0010
,
0100
0010
1000
0001
0100
0010
0100
0001
,
0010
0100
0010
0001
0100
0010
1000
0100
,
0001
0100
1000
0010
0001
0010
1000
0100
,
0010
0001
0100
1000
0100
0001
0010
1000
,
0010
0001
1000
0010
0100
0001
0010
0100
,
1000
0000
0100
0000
0010
0000
0002
0000
0000
0203
0000
0000
0320
0000
0000
2030
,
0000
0000
3200
0000
0310
0000
0000
0010
0000
0000
0010
0000
0001
0000
0001
0000
,
1000
1000
0010
1000
0001
1000
0100
1000
,
0000
1000
0010
0000
0010
0100
0000
0100
,
0001
0010
0001
1000
0100
0001
0100
1000
,
0000
1000
0001
0000
0001
0100
0000
0100
,
0010
0100
0001
0010
1000
0010
0001
0100
,
1000
0000
0100
0000
0002
0000
0000
0000
0003
0000
1000
0000
1000
0000
0000
0100
,
0000
0010
0001
0000
0100
0001
0010
0001
,
1000
0010
0100
0000
0001
0100
1000
0100
,
0001
0000
1000
0000
0020
0000
0000
0000
1030
0000
0100
0000
0010
0000
0000
0010
,
0000
0010
0100
0000
1000
0100
0010
0001
,
1000
0010
0100
0000
0100
0001
1000
0100
,
1000
0000
0001
0000
0010
0000
0000
0000
0001
0000
0010
0000
0100
0000
0000
0100
,
0000
0100
1000
0000
0010
1000
0001
0010
,
0001
0000
1000
0000
0100
0000
0000
0000
1000
0000
0010
0000
0100
0000
0000
0100
,
0000
0100
0001
0000
1000
0100
0001
0100
,
1000
0010
0200
0000
0000
0000
0320
0000
,
0000
0000
1030
0100
0010
0100
1000
0010
,
0100
0001
0010
0001
0100
0010
0100
0001
,
1001
0000
1000
0100
0001
0100
1000
0010
,
0001
0010
1000
0100
0010
0001
0100
0010
,
0110
0000
0100
0001
0010
0001
1000
0100
,
1000
0010
1000
0001
0100
0010
0100
0001
,
0011
0000
0100
1000
0010
1000
0001
0100
,
0001
0010
0001
0100
1000
0100
0001
0010
,
1000
0010
0001
0001
1000
1000
0010
0010
,
0100
0100
0001
0100
1000
0010
0001
0100
,
1000
0020
0000
0001
0031
0000
1000
0100
,
0001
0100
1000
0001
0200
0000
0301
0100
,
0110
0000
0000
0101
0000
0000
1001
0000
1100
0000
0000
0000
1000
0000
0100
0000
,
0020
0000
0030
0001
0020
0000
0130
0000
,
1000
0010
0100
0001
0020
0000
0031
0100
,
0001
0010
0100
1000
0200
0000
1300
0010
,
0110
0000
0000
0101
0000
0000
1001
0000
1010
0000
0000
0000
1000
0000
0100
0000
,
1000
0010
0100
0002
0000
0000
0000
0000
,
2003
0000
0000
0100
3100
0010
0001
0020
,
0000
0000
0100
0000
0130
0000
1000
0100
,
0001
0100
1000
0010
0100
0001
0010
0002
,
0000
0000
0000
0000
1003
0000
1000
0010
,
0001
0010
1000
0100
0002
0000
0103
1000
,
0100
0010
0001
0010
0100
0000
1000
0100
,
1100
0000
0000
1001
0000
0000
0101
0000
0101
0000
0000
0000
0001
0000
0100
0000
,
0010
0100
0001
1000
0020
0000
0000
0000
,
0230
0000
0000
0000
0301
0010
0100
1000
,
0001
0100
0010
1000
0000
1000
0000
1000
,
0010
0100
0001
0010
0100
0010
0001
1000
,
0100
0001
0100
1000
0020
0000
0230
0000
,
0302
0000
1003
0100
0020
0000
0130
1000
,
0001
0100
0010
0000
0100
0001
1000
0000
,
0001
0000
0010
0000
0200
0000
0300
1000
,
0100
2000
0000
3000
0020
0000
0000
0000
,
0000
0030
2002
0000
,
0000
0000
0000
0000
,
0000
0000
3003
0000
;

//---------------dance-single - ----------------
#NOTES:
     dance-single:
     :
     Medium:
     6:
     0.388628,0.443926,0.133276,0.164635,0.000000,347.000000,330.000000,17.000000,21.000000,0.000000,0.000000,0.388628,0.443926,0.133276,0.164635,0.000000,347.000000,330.000000,17.000000,21.000000,0.000000,0.000000:
0000
0000
0000
0000
,
0002
0010
0100
1003
,
2000
0010
0100
3001
,
0020
0100
0001
1030
,
0200
1000
0010
0301
,
1000
0000
0001
0000
0100
0001
2000
0000
,
0000
0000
0000
3000
,
0000
1000
0100
1000
,
0010
0100
0001
0010
,
0100
1000
0001
0100
,
0010
0000
1000
0000
0001
0000
0010
0100
,
1000
0000
0001
0100
0001
0000
1000
0010
,
1000
0000
0100
1000
0001
0000
0010
0001
,
0100
0010
0100
0001
,
1000
0000
0100
0000
1000
0000
0001
0010
,
0001
0000
0110
0000
1001
0000
0010
0100
,
0010
0000
1000
0100
1000
0000
0001
0010
,
0001
0000
1010
0000
0101
0000
0001
1000
,
0001
0000
0100
0010
0100
0000
0001
0100
,
0001
0000
0011
0000
1100
0000
0001
1000
,
0100
0000
1000
0001
0010
0000
0001
1000
,
0100
0000
1001
0000
0110
0000
0001
0100
,
0010
0000
0010
1000
0100
0020
0002
0000
,
0000
0033
1000
0000
0100
0000
1000
0010
,
0000
0010
0100
0000
0100
0001
0000
0001
,
0010
0000
0100
1000
0001
0000
0100
0001
,
0000
0001
0010
0000
0010
0100
0000
0100
,
1000
0000
0100
1000
0001
0000
0100
0000
,
0010
1000
0001
0010
,
0100
1000
0001
0000
0001
0100
0010
0100
,
0010
0000
1000
0000
0100
0000
1000
0001
,
1000
0001
1000
0000
0100
0000
0010
0001
,
0000
0010
0001
0000
0100
0000
0010
1000
,
0010
0000
0110
0000
0100
0000
0001
0010
,
0001
1000
0001
0010
,
0110
0000
1100
0000
0001
0000
0100
0010
,
1000
0010
0100
0000
0001
0000
1000
0000
,
0100
1000
0001
0000
0010
0000
0100
0000
,
1000
0020
0030
2002
,
3003
0000
0100
0000
0001
0000
1000
0100
,
1000
0001
0010
0100
,
1000
0000
0001
0000
0100
0000
0010
0100
,
0010
1000
0100
0010
,
0001
0000
1000
0000
0100
0000
0010
0100
,
0010
0001
0100
0010
,
1000
0000
0001
0100
0001
0000
1000
0100
,
1000
0000
0010
0100
0010
0000
1000
0001
,
1000
0001
0010
0100
,
1000
0000
0001
0100
0001
0000
1000
0010
,
1000
0000
0010
0100
0010
0000
1000
0000
,
0010
1000
0100
0000
0010
0000
0001
1000
,
0001
0100
0110
0010
,
0100
0000
0001
0100
0010
0000
1000
0000
,
0001
0000
0100
0001
2000
0000
0000
0000
,
3100
0000
0010
0100
0020
0000
0000
0030
,
0001
0000
0100
0000
0020
0000
0000
0030
,
2000
0000
3000
0000
2002
0000
0000
3003
,
0200
0000
0000
0000
1300
0100
0010
0001
,
0000
0000
0100
0000
0010
0000
0000
0010
,
0100
0000
0001
0000
0001
0100
0010
1000
,
0000
0000
0100
0000
1000
0000
0000
1000
,
0100
0000
0010
0001
0100
0000
0000
0000
,
0010
0000
1000
0001
1000
0000
0000
0000
,
0100
0001
0010
0000
,
0100
1000
0010
1000
,
0001
0000
0010
0000
0001
0100
0001
0000
,
1000
0100
0000
1000
0000
0001
0000
0100
,
0010
0000
1000
0000
0001
1000
0001
0000
,
0010
0001
0000
0010
0100
0000
1000
0000
,
0010
0000
0100
0001
0020
0000
0000
0000
,
0030
0000
0010
0000
0100
1000
0000
1000
,
0010
0100
0002
0003
,
1000
0001
0000
0000
1001
0000
0000
0000
,
0110
0000
2002
0000
,
0000
0000
0000
0000
,
0000
0000
3003
0000
;

//---------------dance-single - ----------------
#NOTES:
     dance-single:
     :
     Easy:
     3:
     0.201594,0.266356,0.023519,0.086237,0.000000,180.000000,177.000000,3.000000,11.000000,0.000000,0.000000,0.201594,0.266356,0.023519,0.086237,0.000000,180.000000,177.000000,3.000000,11.000000,0.000000,0.000000:
0000
0000
0000
0000
,
0002
0003
0000
0000
,
2000
3000
0000
0000
,
0020
0030
0000
0000
,
0200
0300
0000
0000
,
0000
0000
1000
0002
,
0000
0000
0000
0003
,
0000
1000
0000
0001
,
0000
1000
0000
0001
,
0000
0100
0000
0010
,
0000
0100
0000
0010
,
0000
1000
0000
0001
,
0000
0100
0000
0010
,
0000
1000
0000
0001
,
0000
0010
0000
0100
,
1001
0001
0100
1000
,
0000
1000
0010
0001
,
0000
0100
0001
0010
,
0000
0100
1000
0010
,
0000
1000
0001
1000
,
0000
0010
0100
0010
,
0000
1000
0001
1000
,
0001
0010
0100
1000
,
0001
0100
0000
0010
,
0000
1000
0100
1000
,
0001
0010
0000
0010
,
0000
0001
0100
0001
,
1000
0010
0000
0100
,
0000
1000
0001
0100
,
0001
1000
0000
0010
,
0000
0001
0010
1000
,
0010
0001
0000
0100
,
0000
0001
0000
1000
,
0000
0010
0000
0100
,
0000
0010
0000
0100
,
0000
0001
0000
1000
,
0000
0100
0000
0010
,
0000
1000
0000
0001
,
0000
0100
0000
1000
,
0000
1001
0000
0001
,
0000
0010
0100
0010
,
0100
1000
0000
0001
,
0000
0010
0100
0010
,
0100
0001
0000
1000
,
0000
0100
1000
0100
,
0000
0010
0000
0001
,
0000
0010
0001
0010
,
0000
1000
0000
0001
,
0000
0100
0000
0010
,
0000
0000
0100
1000
,
0100
0010
0001
0000
,
1000
0010
0001
0000
,
1000
0001
0020
0030
,
0100
1000
0001
0000
,
0000
0100
0020
0030
,
1000
0010
0001
0000
,
0010
0000
0100
0000
,
1000
0000
0001
0100
,
2000
0000
3000
0000
,
0010
1000
0100
1000
,
0002
0000
0003
0000
,
0010
0100
0010
0000
,
0001
1000
0010
0000
,
0100
0001
0010
0100
,
1000
0000
0010
0100
,
0001
0000
1000
0100
,
1000
0000
0001
0000
,
0010
0000
0100
0001
,
0100
0000
0010
0000
,
1000
0000
0001
0000
,
0000
0000
0010
0000
,
1000
0001
1000
0000
,
0000
0000
0010
0000
,
0100
0000
2002
0000
,
0000
0000
0000
0000
,
0000
0000
3003
0000
;

//---------------dance-single - ----------------
#NOTES:
     dance-single:
     :
     Beginner:
     1:
     0.080637,0.118380,0.007840,0.015680,0.000000,72.000000,71.000000,1.000000,2.000000,0.000000,0.000000,0.080637,0.118380,0.007840,0.015680,0.000000,72.000000,71.000000,1.000000,2.000000,0.000000,0.000000:
0000
0000
0000
0000
,
1000
0000
0000
0000
,
0001
0000
0000
0000
,
0010
0000
0000
0000
,
0100
0000
0000
0000
,
0000
0000
0010
0020
,
0000
0000
0000
0030
,
0000
0001
0000
0000
,
0000
0001
0000
0000
,
0000
1000
0000
0000
,
0000
1000
0000
0000
,
0000
0010
0000
0000
,
0000
0010
0000
0000
,
0000
0100
0000
0000
,
0000
0100
0000
0000
,
0000
0001
0000
0000
,
0000
1000
0000
0000
,
0000
0001
0000
0000
,
0000
0001
0000
0000
,
0000
1000
0000
0000
,
0000
0001
0000
0000
,
0000
0010
0000
0000
,
0000
0010
0000
0000
,
0000
1000
0000
0000
,
0000
0001
0000
0000
,
0000
1000
0000
0000
,
0000
1000
0000
0000
,
0000
0001
0000
0000
,
0000
1000
0000
0000
,
0000
0001
0000
0000
,
0000
0001
0000
0000
,
0000
0100
0000
0000
,
0000
0010
0000
0000
,
0000
0100
0000
0000
,
0000
0010
0000
0000
,
0000
0001
0000
0000
,
0000
1000
0000
0000
,
0000
0001
0000
0000
,
0000
0010
0000
0000
,
0000
0100
0000
0000
,
0000
1000
0000
0000
,
0000
0100
0000
0000
,
0000
0001
0000
0000
,
0000
0100
0000
0000
,
0000
1000
0000
0000
,
0000
0100
0000
0000
,
0000
0010
0000
0000
,
0000
0001
0000
0000
,
0000
1000
0000
0000
,
0000
0000
0100
0000
,
0000
0000
0001
0000
,
0000
0000
1000
0000
,
0000
0000
0100
0000
,
0000
0000
0001
0000
,
0000
0000
0010
0000
,
0000
0000
1000
0000
,
0000
0000
0001
0000
,
0000
0000
1001
0000
,
0000
0000
1000
0000
,
0000
0000
0010
0000
,
0000
0000
0001
0000
,
0000
0000
0100
0000
,
0000
0000
0001
0000
,
0000
0000
1000
0000
,
0000
0000
0010
0000
,
0000
0000
0100
0000
,
0000
0000
0001
0000
,
0000
0000
0100
0000
,
0000
0000
1000
0000
,
0000
0000
0010
0000
,
0000
0000
0000
0000
,
0000
0000
1000
0000
,
0000
0000
0000
0000
,
0000
0000
0200
0000
,
0000
0000
0000
0000
,
0000
0000
0300
0000
;

//---------------dance-single - ----------------
#NOTES:
     dance-single:
     :
     Challenge:
     10:
     0.641740,0.947042,0.258712,0.243032,0.372388,573.000000,540.000000,33.000000,31.000000,0.000000,0.000000,0.641740,0.947042,0.258712,0.243032,0.372388,573.000000,540.000000,33.000000,31.000000,0.000000,0.000000:
0000
0000
0000
0000
,
1020
0100
0001
0130
,
1200
0001
0010
0301
,
0012
1000
0010
0103
,
0201
1000
0010
0301
,
0010
0000
0100
0000
1000
0100
0020
0000
,
0000
0000
0000
0030
,
0000
0001
0100
0010
,
0001
1000
0100
0010
,
1000
0001
0010
0100
,
1000
0000
1000
0000
0001
0000
0100
0001
,
0010
0001
1000
0100
0001
0100
1000
0010
,
0100
0001
0010
0001
0100
1000
0100
0001
,
0010
1000
0001
1000
0010
0001
1000
0100
,
0001
1000
0010
0100
1000
0001
0100
0010
,
0001
0000
0000
0000
0110
0000
0010
0000
1000
0100
0000
0100
0001
0000
0100
0000
,
1000
0010
0000
0010
0100
0000
0001
0000
0010
0001
0000
0001
1000
0000
0010
0000
,
0100
1000
0000
1000
0100
0000
0001
0000
0010
1000
0000
1000
0010
0000
0001
0000
,
1000
0010
0000
0010
1000
0000
0100
0000
0010
0100
0000
0100
0010
0000
0001
0000
,
1000
0000
0010
0000
0100
0000
0001
0000
0010
0100
0000
1000
0100
0000
0010
0000
,
0001
0100
0000
0010
1000
0000
0100
0000
1000
0010
0000
0100
0001
0000
1000
0000
,
0100
0010
0000
0001
0010
0000
0100
0000
1000
0100
0000
0100
0010
0000
0010
0001
,
0000
0001
1000
0000
0010
0000
0010
1000
0000
1000
0002
0000
1000
0000
1000
0000
,
1000
1003
1001
0001
0100
0010
0100
2000
,
3100
0010
2000
3100
0010
2000
3010
0001
,
1000
0010
0100
0001
0100
0010
0100
0002
,
0013
0100
0002
0103
1000
0002
0103
0010
,
0100
0100
0001
0100
0010
1000
0001
0010
,
0100
0000
1000
0000
0002
0000
0000
0000
1003
0000
0100
0010
0100
0000
0000
1000
,
0100
0010
0011
0000
0001
0100
0001
0010
,
0100
0000
1000
0000
0020
0000
0000
0000
1030
0100
1000
0100
0010
0001
0010
0001
,
1000
0010
0100
0001
1000
0000
0000
0000
0100
0000
1000
0010
0100
0001
0000
0001
,
0100
0000
0010
1000
0100
0000
0000
0000
0010
0001
0010
0001
1000
0000
0010
0000
,
0100
0000
0001
0000
0101
0000
0000
0000
0001
0000
0100
0010
0100
0000
0010
0000
,
1000
0000
0010
0000
0010
0000
0000
0000
1000
0000
0100
1000
0001
0000
0000
0100
,
0001
0000
1000
0000
1100
0000
0000
0000
1000
0000
0010
0100
0010
0000
1000
0000
,
0001
0000
0010
0000
0200
0000
0000
0000
1300
0000
0100
0010
0100
0000
0000
1000
,
0010
1000
1010
0000
1000
0010
0001
0010
,
1000
0100
0002
0000
0000
0000
2003
0000
,
0000
0000
0000
0000
3010
0001
0010
0000
0100
0000
1000
0010
0000
0010
0100
0000
,
0001
0000
1000
0000
0100
0000
1000
0000
0001
0000
0010
1000
0010
0000
0001
0000
,
0100
0000
0100
0000
0010
1000
0010
0000
0100
0000
0001
0000
0100
0000
0010
0000
,
1000
0000
0100
0000
0001
0000
0100
0000
1000
0010
1000
0010
0100
0000
0001
0000
,
0010
0000
0010
0000
0100
0010
0100
0000
1000
0000
0010
0100
0000
0100
0001
0000
,
1000
0000
0001
0000
0010
0001
0010
0000
0100
1000
0010
1000
0010
0000
0100
0000
,
0120
0000
0000
0000
1030
0100
1000
0000
0001
0000
0100
0000
0001
0010
0001
0000
,
1000
0000
0100
0000
1000
0010
1000
0000
0010
0000
0100
0000
0001
0100
0001
0000
,
1000
0000
0100
0000
0010
0001
0010
0001
1000
0010
1000
0010
0100
0001
0100
0001
,
1000
0100
1000
0100
1000
0010
0100
0001
0010
0100
1000
0100
0010
0001
0100
0010
,
1000
0010
0100
0002
0000
0000
1003
0000
1001
0000
0000
0000
1000
0100
1000
0100
,
0010
0000
0001
0000
0010
0000
0001
0000
0101
0000
0000
0000
0001
0000
0100
0010
,
0100
0000
0000
0010
1000
0000
0100
0000
1100
0000
0000
0000
0100
0000
0010
0000
,
0011
0000
0001
1001
0000
0000
0001
0000
,
1000
0000
0000
0010
0100
0000
0001
0000
0011
0000
0000
0000
0001
0000
0010
0000
,
1000
0000
0010
0000
0001
0000
0100
0000
2000
0000
0000
0000
3001
0000
0010
1000
,
0010
0000
0000
1000
0100
0000
1000
0000
1010
0000
0000
0000
0100
0000
0001
0000
,
0010
0001
1000
2002
0000
0000
3003
0000
,
0210
0000
0000
0000
0300
0000
0001
0010
0100
0000
1000
0000
0010
0000
2000
0000
,
0000
0000
0000
0000
0100
0000
0000
0000
3100
0000
0000
0000
0010
0001
0010
0001
,
1000
0010
0100
0001
0101
0001
0010
0002
,
0000
0000
0000
0000
1000
0000
0000
0000
1003
0000
0000
0000
1000
0000
0100
0010
,
0001
0000
0010
0000
0100
0000
1000
0000
1001
0000
0000
0000
1000
0000
0010
1000
,
0010
0000
0100
0000
0001
0000
0010
0000
0001
0000
0000
0000
1000
0000
0100
1000
,
0010
0000
0000
0010
1000
0000
0001
0000
0101
0000
0000
0000
0001
0000
1000
0000
,
0100
0001
0100
1000
0020
0000
0000
0000
,
0230
0000
0000
0300
0101
0001
0010
0100
,
1000
0100
1000
0020
0000
0230
0000
0301
,
1000
0100
0001
0100
1000
0010
0001
1000
,
0100
0001
0010
0100
1100
0000
0101
0000
,
0110
0000
1000
0010
0110
0000
0100
0001
,
0010
0001
1000
0000
0100
1000
0001
1000
,
0010
0000
0100
0001
0101
0000
0100
0010
,
1000
1010
0000
0000
0110
0000
0000
0000
,
1001
0000
0220
0000
,
0000
0000
0000
0000
,
0000
0000
0330
0000
;

//---------------dance-double - ----------------
#NOTES:
     dance-double:
     :
     Hard:
     9:
     0.538703,0.532711,0.023519,0.399828,0.105837,481.000000,478.000000,3.000000,51.000000,0.000000,0.000000,0.538703,0.532711,0.023519,0.399828,0.105837,481.000000,478.000000,3.000000,51.000000,0.000000,0.000000:
// measure 0
00000000
00000000
00000000
00000000
,  // measure 1
00002000
00000100
00000001
00000010
,  // measure 2
00023000
01000000
10000000
00100000
,  // measure 3
00032000
00000100
00000001
00000010
,  // measure 4
00023000
01000000
10000000
00100000
,  // measure 5
00031000
00000000
00001000
00000000
00000001
00000100
00002000
00000000
,  // measure 6
00000000
00000000
00000000
00003000
,  // measure 7
00000000
00010000
00100000
10000000
,  // measure 8
01000000
00010000
00001000
00000010
,  // measure 9
00000001
00000100
00001000
00010000
,  // measure 10
00100000
00000000
10000000
00000000
01000000
00000000
00100000
00010000
,  // measure 11
10000000
00010000
01000000
00010000
00001000
00000100
00001000
00000001
,  // measure 12
00001000
00000010
00001000
00010000
01000000
00100000
10000000
01000000
,  // measure 13
00010000
00001000
00000100
00000001
00000010
00000001
00000100
00001000
,  // measure 14
00010000
00000010
00010000
00100000
10000000
00010000
01000000
00010000
,  // measure 15
10000000
00000000
01000000
00000000
00010000
00000000
00000000
00000000
00011000
00000000
00000000
00001000
00000100
00000000
00000001
00000000
,  // measure 16
00000010
00000000
00000000
00000100
00010000
00000000
00001000
00000000
00000010
00000000
00000000
00001000
00010000
00000000
00100000
00000000
,  // measure 17
10000000
00000000
00000000
01000000
00010000
00000000
00001000
00000000
00000100
00000000
00000000
00001000
00010000
00000000
00001000
00000000
,  // measure 18
00000100
00000000
00000000
00000001
00000010
00000000
00000100
00000000
00001000
00000000
00000000
00010000
00100000
00000000
01000000
00000000
,  // measure 19
10000000
00000000
00000000
01000000
00100000
00000000
00010000
00000000
10000000
00000000
00000000
01000000
00010000
00000000
00001000
00000000
,  // measure 20
00000100
00000000
00000000
00000001
00000010
00000000
00000100
00000000
00001000
00000000
00000000
00000010
00000100
00000000
00001000
00000000
,  // measure 21
00010000
01000000
10000000
00100000
00010000
00100000
01000000
00010000
,  // measure 22
00001000
00000100
00000010
00000001
00001000
00000001
00000020
00002030
,  // measure 23
00023000
00230000
10300000
01000000
00100000
01000000
00010000
00002000
,  // measure 24
00000000
00003100
00002000
00000000
00103000
00002000
00000000
00003010
,  // measure 25
00000001
00001000
00000001
00000100
00000010
00000100
00001000
00020000
,  // measure 26
00000000
00130000
00020000
00000000
00030100
00020000
00000000
01030000
,  // measure 27
10000000
00010000
10000000
00100000
01000000
00100000
00010000
00001000
,  // measure 28
00000010
00000000
00000001
00000000
00002000
00000000
00000000
00000000
00003000
00000000
00000001
00000000
00000010
00000000
00000000
00001000
,  // measure 29
00000000
00010000
00100000
10000000
00010000
10000000
01000000
00010000
,  // measure 30
00001000
00000100
00000002
00000000
00000003
00001000
00000001
00001000
,  // measure 31
00000100
00000000
00001000
00000000
00010000
00000000
00100000
00000000
01000000
00000000
10000000
00000000
00010000
01000000
00010000
00000000
,  // measure 32
10000000
01000000
10000000
00000000
00020000
00000000
00000000
00000000
00030000
00000000
00100000
01000000
00100000
00000000
00001000
00000000
,  // measure 33
00010000
00000000
00000100
00000000
00000020
00000000
00000000
00000000
00000030
00000000
00000001
00000100
00000001
00000000
00000010
00000000
,  // measure 34
00001000
00010000
00000200
00000000
00002300
00000000
02003000
00000000
,  // measure 35
03020000
00000000
00000000
00000000
00031000
00000000
00100000
00000000
00010000
00000000
10000000
01000000
10000000
00000000
00100000
00000000
,  // measure 36
00010000
00001000
02000000
00000000
03020000
00000000
00030200
00000000
,  // measure 37
00002300
00000000
00013000
00000010
00001000
00000001
00000010
00001000
,  // measure 38
00010000
00100000
20000000
00000000
00000000
00000000
00020000
00000000
,  // measure 39
30030000
00000000
00000000
00000000
10000000
00100000
10000000
00000000
01000000
00000000
00100000
01000000
00000000
00000000
00010000
00000000
,  // measure 40
00001000
00000100
00000001
00000010
00001000
00000010
00000100
00010000
,  // measure 41
00001000
00000000
00000100
00000000
00000001
00000010
00000001
00000000
00000100
00000000
00000010
00010000
00000000
00000000
00001000
00000000
,  // measure 42
00010000
01000000
10000000
00100000
00010000
00100000
01000000
00001000
,  // measure 43
00010000
00000000
00100000
00000000
10000000
01000000
10000000
00000000
00100000
00000000
01000000
00100000
00000000
00000000
00010000
00000000
,  // measure 44
00001000
00000010
00000001
00000100
00001000
00000100
00000010
00010000
,  // measure 45
00001000
00000000
00000010
00000000
00000001
00000100
00000001
00000000
00000010
00000000
00000100
00010000
00000000
00000000
00001000
00000000
,  // measure 46
00010000
00100000
10000000
00010000
00100000
00010000
01000000
00010000
,  // measure 47
00001000
00000010
00000100
00000001
00000010
00001000
00010000
00100000
,  // measure 48
10000000
01000000
00010000
00001000
00000100
00000010
00000001
00000010
,  // measure 49
00001000
00000200
00000000
00010300
00011000
00000000
00100000
00010000
,  // measure 50
00001000
00000100
00000001
00000010
00001000
00000000
00010000
00000000
,  // measure 51
01000000
00000000
00000000
10000000
00000000
00000000
00100000
00000000
01000000
00000000
00001000
00000000
00010000
00000000
00100000
00000000
,  // measure 52
00010000
00001000
00000010
00000100
00001000
00000010
00001000
00010000
,  // measure 53
00001000
00000100
00000010
00000001
00002000
00000000
00023000
00000000
,  // measure 54
10030000
01000000
00010000
00001000
00100000
00010000
10000000
00100000
,  // measure 55
00010000
00001000
00000010
00000001
00001000
00000100
00010000
00001000
,  // measure 56
00100000
00010000
10000000
00010000
00001000
00000100
00000010
00000001
,  // measure 57
00000100
00000010
00010000
00001000
00100000
10000000
00010000
02000000
,  // measure 58
00000000
13000000
01000000
00100000
00000000
00001000
00010000
00100000
,  // measure 59
00001000
00000010
00000100
00000001
00000010
00000001
00001000
00000200
,  // measure 60
00000000
00000301
00000100
00001000
00000010
00010000
00100000
10000000
,  // measure 61
00010000
10000000
01000000
00100000
00020000
00000000
00032000
00003100
,  // measure 62
00000000
00000010
00000000
00000001
00002000
00000000
00003100
00000010
,  // measure 63
00000001
00000000
00000000
00000100
00000000
00000000
00001000
00000000
00010000
00000000
00100000
00000000
10000000
00000000
00010000
00000000
,  // measure 64
01000000
10000000
01000000
00010000
00001000
00000010
00000100
00000001
,  // measure 65
00001000
00010000
00100000
01000000
10000000
00010000
00100000
00001000
,  // measure 66
00010000
00000200
00000000
00000320
00000000
00000032
00000000
00001003
,  // measure 67
00000100
00000001
00001000
00000010
00000001
00000100
00001000
00010000
,  // measure 68
00100000
10000000
00000000
00100000
02000000
00000000
03020000
00000000
,  // measure 69
00032000
00000000
00003010
00000100
00000002
00000000
00000000
00000000
,  // measure 70
00000103
00000000
00000010
00000000
00001000
00000100
00020000
00000000
,  // measure 71
02030000
00000000
00000000
00000000
23000000
00000000
00000000
30010000
,  // measure 72
10000000
02000000
00000000
00000000
03020000
00000000
00000000
00031000
,  // measure 73
00000100
00000010
00002002
00000000
,  // measure 74
00000000
00000000
00000000
00000000
,  // measure 75
00000000
00000000
00003003
00000000
;

//---------------dance-double - ----------------
#NOTES:
     dance-double:
     :
     Challenge:
     10:
     0.645100,0.852573,0.023519,0.227353,0.486065,576.000000,573.000000,3.000000,29.000000,0.000000,0.000000,0.645100,0.852573,0.023519,0.227353,0.486065,576.000000,573.000000,3.000000,29.000000,0.000000,0.000000:
00000000
00000000
00000000
00000000
,
00020000
00100000
10000000
01000000
,
00032000
00000010
00000001
00000100
,
00023000
00100000
10000000
01000000
,
00032000
00000010
00000001
00000100
,
00013000
00000000
10000000
00000000
01000000
00010000
00002000
00000000
,
00000000
00000000
00000000
00003000
,
00000000
00000100
00000001
00000010
,
00001000
00010000
00100000
10000000
,
01000000
00010000
00001000
00000100
,
00000001
00000000
00001000
00000000
00000010
00000000
00010000
00100000
,
10000000
01000000
00010000
00001000
00100000
00010000
00001000
00000100
,
00000001
00000100
00001000
00000001
00000100
00001000
00010000
01000000
,
10000000
00010000
00100000
00100000
00010000
00001000
00000010
00000010
,
00000100
00000001
00001000
00000100
00010000
01000000
10000000
00010000
,
00100000
00000000
00000000
00000000
00011000
00000000
00001000
00000000
00000100
00000001
00000000
00000010
00000000
00000000
00001000
00000000
,
00010000
01000000
00000000
00100000
00000000
00000000
00001000
00000000
00010000
00100000
00000000
10000000
00000000
00000000
01000000
00000000
,
00010000
00001000
00000000
00000100
00000000
00000000
00000010
00000000
00001000
00000001
00000000
00000100
00000000
00000000
00001000
00000000
,
00010000
00000010
00000000
00001000
00000010
00000000
00010000
00000000
00001000
01000000
00000000
00010000
01000000
00000000
00001000
00000000
,
00100000
00010000
00000000
10000000
00100000
00000000
01000000
00000000
00001000
00010000
00000000
00000100
00010000
00000000
00001000
00000000
,
00000010
00000001
00000000
00000100
00000001
00000000
00001000
00000000
00000100
00010000
00000100
00010000
00001000
00000000
01000000
00000000
,
00010000
10000000
00010000
10000000
00100000
00000000
01000000
00000000
00001000
00010000
00001000
00010000
00000100
00000000
00001000
00000000
,
00000001
00000000
00000010
00000000
00001000
00000000
00000000
00010000
00000000
00000000
00100000
00000000
20000000
00000000
32000000
00000000
,
03200000
00320000
00031000
00000001
00000100
00000001
00000100
00001000
,
00001000
00010000
01000000
01000000
00100000
00010000
00010000
00000100
,
00000010
00001000
00020000
00000000
01030000
10000000
01000000
00010000
,
00010000
00001000
00000100
00000100
00000010
00001000
00001000
01000000
,
00100000
00010000
00002000
00000000
00003010
00000001
00000100
00001000
,
00010000
00000000
01000000
00000000
10000000
00000000
00000000
00100000
10000000
00000000
01000000
00010000
01000000
00000000
00000000
00001000
,
00000100
00000010
00000001
00000100
00001000
00010000
01000000
10000000
,
00010000
00000000
00100000
00000000
00002000
00000000
00000000
00000000
00003000
00010000
00000100
00010000
00000100
00001000
00000010
00001000
,
00000010
00000100
00000001
00000010
00000100
00000000
00000000
00000000
00010000
00000000
00001000
00100000
00001000
00100000
00000000
00010000
,
01000000
00100000
10000000
00010000
02000000
00000000
00000000
00000000
03000000
00000000
10000000
01000000
00010000
00000000
00100000
00000000
,
00001000
00000000
00010000
00000000
00000200
00000000
00000000
00000000
00000300
00000000
00001000
00000010
00001000
00000000
00000001
00000000
,
00000010
00000000
00001000
00000000
00020000
00000000
00000000
00000000
00030200
00000000
00000000
00000000
00001300
00000000
00000000
00010000
,
00000000
00000000
00100000
00000000
01000000
00000000
10000000
00000000
00010000
01000000
00100000
10000000
01000000
00000000
00010000
00000000
,
00001000
00000000
00010000
00000000
00000020
00000000
00000000
00000000
00000030
00000000
00001000
00000000
00000001
00000000
00000000
00000100
,
00000000
00001000
00020000
00000000
01030000
10000000
00100000
00100000
,
00010000
00000000
01000000
00000000
00002000
00000000
00000000
00000000
00000000
00000000
00000000
00000000
00013000
00000010
00000000
00000010
,
00000000
00000010
00001000
00000000
00000001
00000100
00000001
00000000
00001000
00000010
00001000
00000100
00010000
00001000
00010000
00000000
,
01000000
00000000
10000000
00010000
01000000
00010000
10000000
00000000
00100000
00000000
01000000
00001000
00010000
00001000
01000000
00001000
,
00010000
00000000
00100000
00000000
10000000
01000000
10000000
00000000
00010000
00000000
00100000
00001000
00000000
00010000
00000100
00010000
,
00001000
00000000
00000100
00000001
00001000
00000001
00000100
00000000
00000010
00001000
00000000
00000100
00010000
00000100
00010000
00000000
,
00001000
00000000
00010000
00000000
00100000
10000000
00010000
00000000
10000000
00000000
01000000
00100000
01000000
00000000
00010000
00000000
,
00001000
00000000
00100000
00001000
00010000
00001000
00100000
00000000
00001000
00000000
00010000
00000100
00000010
00000000
00000001
00001000
,
00000010
00000000
00010000
00000000
00001000
00100000
00001000
00100000
00010000
01000000
00010000
01000000
00100000
00000000
10000000
00010000
,
01000000
00000000
00010000
00100000
00001000
00010000
00001000
00010000
00000010
00001000
00000010
00001000
00000001
00000000
00000000
00000100
,
00000010
00000000
00010000
00000000
00001000
00100000
00001000
00000000
00010000
00000000
01000000
10000000
00010000
00000000
10000000
01000000
,
00100000
00000000
00001000
00000000
00010000
00000010
00010000
00000010
00001000
00000001
00000010
00000100
00001000
00000001
00000100
00000001
,
00000100
00000010
00010000
00002000
00000000
00000000
01003000
00000000
00010000
00000000
00000000
00000000
10000000
00000000
01000000
00000000
,
00010000
00001000
00000100
00000001
00001000
00000000
00000001
00000010
,
00001000
00000000
00000000
00010000
00000000
00000000
00100000
00000000
10000000
00000000
00010000
00000000
10000000
00000000
01000000
00000000
,
00010000
00001000
00000100
00000001
00001000
00000010
00010000
00001000
,
00100000
00000000
00000000
00010000
10000000
00000000
01000000
00000000
00010000
00000000
00001000
00100000
00001000
00000000
00010000
00000000
,
00010000
00000000
01000000
00001000
01000000
00000000
00010000
00000000
00010000
00000000
00000010
00001000
00000010
00000000
00000100
00000000
,
00000001
00000000
00000010
00001000
00000000
00000000
00010000
00000000
00100000
00000000
10000000
00000000
01000000
00100000
01000000
00000000
,
00010000
00000000
00001000
00000000
00000100
00000010
00000100
00000000
00000001
00000100
00000001
00000100
00000010
00001000
00000010
00001000
,
00000100
00010000
00000100
00010000
00001000
00100000
00001000
00100000
00010000
00000000
10000000
00000000
01000000
00000000
00010000
00000000
,
00002000
00000000
00000100
00000000
01000000
00000000
00003010
00000001
,
00000100
00001000
00001000
00000010
00010000
00100000
01000000
01000000
,
00020000
00000000
01000000
00000000
00000100
00000000
00130000
10000000
,
01000000
00010000
00010000
00100000
00001000
00000010
00000001
00000100
,
00000100
00001000
00000010
00001000
00000100
00010000
00010000
00100000
,
01000000
10000000
00010000
00010000
00001000
00000100
00000001
00000010
,
00000100
00010000
00000100
00010000
00001000
00100000
00001000
00100000
00010000
10000000
00100000
01000000
00010000
00100000
01000000
10000000
,
00010000
01000000
00001000
00010000
00001000
00010000
00000100
00001000
00000002
00000000
00000000
00000000
00000000
00000000
00000000
00000000
,
00001003
00000100
00000000
00010000
00000000
01000000
00000000
10000000
,
00010000
00100000
10000000
00100000
00001000
00010000
00000000
00000100
,
00000010
00000001
00000000
00001000
00000010
00000000
00010000
00000000
,
00001000
00000000
00100000
00010000
20000000
00000000
00000000
00000000
,
00000000
00000000
30010000
00000000
10000000
01000000
00200000
00000000
,
00302000
00000000
00000000
00000000
00023000
00000000
00030000
00001000
,
00000100
00000001
00000000
00000000
00000011
00000000
00000000
00001000
,
00000100
00010000
00022000
00000000
,
00000000
00000000
00000000
00000000
,
00033000
00000000
00000000
00000000
;

//---------------dance-double - ----------------
#NOTES:
     dance-double:
     :
     Medium:
     6:
     0.376308,0.414331,0.070558,0.133276,0.000000,336.000000,327.000000,9.000000,17.000000,0.000000,0.000000,0.376308,0.414331,0.070558,0.133276,0.000000,336.000000,327.000000,9.000000,17.000000,0.000000,0.000000:
00000000
00000000
00000000
00000000
,
20000000
01000000
00100000
30010000
,
00200000
00001000
00010000
00301000
,
00020000
00000100
00000010
00031000
,
00000200
00000001
00000010
00001300
,
00010000
00000000
00100000
00000000
10000000
01000000
00020000
00000000
,
00000000
00000000
00000000
00030000
,
00000000
00001000
00000010
00001000
,
00000010
00000001
00000100
00000001
,
00000100
00000010
00010000
00000010
,
00010000
00000000
00001000
00000000
01000000
00000000
00010000
10000000
,
00010000
00000000
00100000
01000000
00100000
00000000
01000000
10000000
,
00010000
00000000
00100000
00001000
00010000
00000000
00000100
00000010
,
00000001
00000000
00001000
00000100
00000010
00000000
00000100
00010000
,
00001000
00000000
00100000
01000000
10000000
00000000
00010000
00100000
,
01000000
00010000
00011000
00000100
,
00011000
00000000
01000000
00000000
00011000
00000000
00000010
00000001
,
00000100
00001000
00011000
00100000
,
00011000
00000000
00000010
00000000
00011000
00000000
01000000
10000000
,
00100000
00000000
10000000
00000000
00010000
00100000
01000000
00000000
,
00010000
00001000
00010000
00000000
00000100
00000010
00000001
00000000
,
00001000
00000100
00000010
00000000
00001000
00000000
00010000
00000000
,
00100000
00000000
10000000
01000000
00100000
00010000
20000000
00000000
,
00000000
00000000
30010000
00000000
00100000
00000000
00001000
00010000
,
00000000
01000000
00010000
00000000
00001000
00010000
00000000
00001000
,
00000010
00000001
00001000
00000000
00000010
00000000
00010000
00001000
,
00000000
00000100
00001000
00000000
00010000
00001000
00000000
00010000
,
00100000
10000000
00010000
00000000
01000000
00000000
00001000
00010000
,
00001000
00010000
00000100
00000000
00000010
00000000
00000001
00000000
,
00001000
00000000
00000100
00010000
00001000
00000000
00100000
00010000
,
10000000
00000000
10010000
00000000
00000000
00000000
00010000
00100000
,
00001000
00100000
00010000
00000000
10000000
01000000
00100000
00000000
,
00001000
00000000
00010000
00000000
00000010
00000000
00000100
00000001
,
00000100
00000001
00000010
00000100
,
00001000
00000100
00010000
00001000
,
00100000
00000000
00010000
00000000
10000000
01000000
00100000
00000000
,
00001000
00010000
00100000
00010000
,
00001000
00000100
00000001
00000000
00000010
00000000
00000100
00010000
,
00000100
00010000
00001000
00000000
00000000
00000000
00022000
00000000
,
00033000
00000000
00100000
00000000
10000000
00000000
00010000
01000000
,
00010000
10000000
01000000
00010000
,
00001000
00000000
00000010
00000000
00000001
00000000
00001000
00000100
,
00001000
00000001
00000010
00001000
,
00010000
00000000
01000000
00000000
10000000
00000000
00010000
00100000
,
00010000
10000000
00100000
00010000
,
00001000
00000000
00000100
00000000
00000001
00000000
00001000
00000010
,
00001000
00000000
00000001
00000000
00000100
00000000
00000010
00010000
,
00001000
00100000
00010000
00000000
10000000
00000000
01000000
00000000
,
00010000
01000000
10000000
00100000
,
01000000
00000000
00001000
00000000
00010000
00000100
00010000
00000000
,
00001000
00000000
00000100
00000001
00000000
00001000
00000010
00000000
,
00010000
00001000
00100000
00000000
00010000
00000000
01000000
00000000
,
10000000
00000000
01000000
00000000
00010000
00100000
00001000
00000000
,
00010000
00000000
00000100
00000000
00000010
00000001
00001000
00000000
,
00000010
00010000
00001000
00000000
00100000
00000000
00010000
00000000
,
10000000
00000000
01000000
00100000
00010000
00000000
00100000
00000000
,
00001000
00010000
00000000
00000100
00000010
00000000
00000001
00000000
,
00001000
00000000
00000100
00000000
00010000
00001000
00100000
00020000
,
00000000
10000000
01000000
10030000
,
01000000
00010000
00100000
00001000
00000000
00000000
00000100
00000000
,
00000001
00000010
00000000
00001000
,
00010000
00001000
01000000
00010000
10000000
00000000
00000000
00000000
,
01000000
00100000
00001000
00000000
,
00010000
00000100
00000010
00000000
,
00000001
00000100
00001000
00010000
,
01000000
10000000
00020000
00000000
,
10030000
00100000
00000000
00010000
00000000
00001000
00000000
00000010
,
00000001
00001000
00000020
00000000
,
00010030
00001000
00100000
01000000
,
10000000
00000000
00010000
01000000
00002000
00000000
00000000
00000000
,
00000000
00000000
00013000
00000000
00000100
00000010
00000001
00000000
,
00002000
00000000
00003200
00000000
,
00010300
00001000
00200000
00000000
,
01300000
00000000
20020000
00000000
,
00000000
00000000
00000000
00000000
,
00000000
00000000
30030000
00000000
;

//---------------dance-double - ----------------
#NOTES:
     dance-double:
     :
     Easy:
     3:
     0.201594,0.266356,0.007840,0.109757,0.000000,180.000000,179.000000,1.000000,14.000000,0.000000,0.000000,0.201594,0.266356,0.007840,0.109757,0.000000,180.000000,179.000000,1.000000,14.000000,0.000000,0.000000:
00000000
00000000
00000000
00000000
,
20000000
30000000
00000000
00000000
,
00020000
00030000
00000000
00000000
,
00200000
00300000
00000000
00000000
,
00002000
00003000
00000000
00000000
,
00000000
00000000
00010000
00000200
,
00000000
00000000
00000000
00000300
,
00000000
00001000
00000000
00000001
,
00000000
00001000
00000000
00000010
,
00000000
00010000
00000000
00001000
,
00000000
00010000
00000000
00001000
,
00000000
00100000
00000000
00010000
,
00000000
10000000
00000000
00100000
,
00000000
10000000
00000000
00010000
,
00000000
01000000
00000000
00001000
,
00010000
00001000
00000100
00000001
,
00000000
00000001
00000010
00001000
,
00000000
00010000
00100000
10000000
,
00000000
10000000
01000000
00010000
,
00000000
00001000
00100000
00001000
,
00000000
00010000
00000100
00010000
,
00000000
00000010
00001000
00000010
,
00001000
00000001
00000010
00000100
,
00010000
00001000
00000000
00100000
,
00000000
01000000
10000000
01000000
,
00010000
00001000
00000000
00000010
,
00000000
00000001
00000100
00000001
,
00001000
00000010
00010000
00001000
,
00100000
00010000
00000000
10000000
,
00000000
00010000
00100000
01000000
,
10000000
00010000
00000000
01000000
,
00000000
00001000
00000000
00100000
,
00000000
00001000
00001000
00010000
,
00000000
00010000
00000000
00000010
,
00000000
00010000
00010000
00001000
,
00000000
00000100
00000000
00000001
,
00000000
00000010
00000000
00001000
,
00000000
00010000
00000000
00100000
,
00000000
10000000
00000000
00010000
,
00000000
10000000
00000000
00010000
,
00000000
00100000
00100000
00001000
,
00001000
00010000
00000000
00000010
,
00000000
00001000
00001000
00000001
,
00000001
00000100
00000000
00001000
,
00000000
00010000
00001000
00010000
,
00001000
01000000
00000000
00100000
,
00000000
10000000
01000000
00100000
,
00010000
00001000
00000000
00000100
,
00000000
00002000
00000000
00000000
,
00000000
00003000
00000001
00000100
,
00000001
00001000
00000100
00000000
,
00010000
00001000
01000000
00000000
,
00010000
10000000
01000000
00000000
,
00010000
00001000
00010000
00000000
,
00000000
00000100
00000020
00000030
,
00000001
00000100
00001000
00000000
,
00010000
00000000
01000000
00000000
,
10000000
00000000
01000000
00010000
,
00002000
00000000
00003000
00000000
,
00000100
00000001
00000010
00001000
,
00020000
00000000
00030000
00000000
,
01000000
00100000
01000000
00000000
,
10000000
01000000
00010000
00000000
,
00001000
00000100
00000001
00000000
,
00001000
00000000
00000100
00010000
,
00000100
00010000
00002000
00000000
,
00203000
00000000
00000000
00000000
,
00000000
00000000
00320000
00000000
,
10030000
00000000
00010000
00100000
,
00001000
00010000
00000100
00000000
,
00000000
00000010
00000001
00000000
,
00001000
00000000
00000100
00000000
,
00010000
00000000
00001000
00000000
,
00100000
00000000
20020000
00000000
,
00000000
00000000
00000000
00000000
,
00000000
00000000
30030000
00000000
;
